<?xml version="1.0" standalone="no"?>
<!DOCTYPE svg PUBLIC "-//W3C//DTD SVG 1.1//EN" "http://www.w3.org/Graphics/SVG/1.1/DTD/svg11.dtd" >
<svg xmlns="http://www.w3.org/2000/svg" xmlns:xlink="http://www.w3.org/1999/xlink" version="1.1">
<metadata>
Created by FontForge 20201107 at Tue Apr 10 14:38:44 2012
 By Unknown

</metadata>
<defs>
<font id="MarketOT-Bold" horiz-adv-x="334" >
  <font-face 
    font-family="MarketOT-Bold"
    font-weight="700"
    font-stretch="normal"
    units-per-em="1000"
    panose-1="3 1 8 4 2 1 1 1 1 1"
    ascent="800"
    descent="-200"
    x-height="453"
    cap-height="639"
    bbox="-643 -438 1732 929"
    underline-thickness="64"
    underline-position="-128"
    stemh="84"
    stemv="105"
    unicode-range="U+000D-FEFF"
  />
<missing-glyph horiz-adv-x="420" 
d="M21 0v700h378v-700h-378zM85 64h250v572h-250v-572z" />
    <glyph glyph-name="f_i" unicode="fi" horiz-adv-x="488" 
d="M411 431c14 9 22 17 30 30c13 22 34 30 57 30c12 0 30 -1 46 -12c6 -4 11 -15 11 -25c0 -40 -54 -98 -64 -121c-16 -37 -44 -104 -58 -139c-4 -10 -23 -63 -23 -97c0 -12 0 -20 8 -20c9 0 25 9 57 32c18 13 33 23 53 23c36 0 47 -15 47 -29c0 -8 -1 -17 -16 -31l-41 -38
c-17 -16 -59 -48 -101 -48c-23 0 -46 8 -67 32c-16 18 -37 47 -37 96c0 28 7 55 16 81c7 19 11 35 17 49l25 58c8 17 8 19 8 21s-1 4 -4 4s-7 -1 -15 -5c-16 -8 -29 -13 -43 -16c-8 -2 -15 -5 -21 -8c-17 -8 -63 -16 -70 -37c-43 -128 -95 -259 -107 -406
c-1 -12 -15 -26 -31 -32c-14 -5 -26 -11 -40 -11c-9 0 -17 2 -29 12c-9 8 -16 15 -16 45c0 50 24 79 37 149c5 26 24 84 43 141c33 99 34 109 34 117c0 16 -39 39 -46 64c-3 10 -5 17 -5 25c0 12 5 24 23 24c5 0 13 -1 18 -3c11 -4 25 -11 38 -11c7 0 11 7 16 19
c50 120 94 226 154 323c8 13 33 25 59 25c31 0 58 -24 58 -47c0 -22 -26 -35 -29 -56c-1 -7 -3 -14 -5 -19c-28 -59 -89 -105 -106 -167c-3 -11 -5 -17 -11 -31c-6 -15 -20 -41 -20 -45c0 -3 1 -4 3 -4c14 0 44 10 84 27c42 18 46 20 63 31zM585 704c18 0 45 -6 58 -19
c9 -9 13 -23 13 -35c0 -8 -2 -17 -6 -21c-11 -11 -38 -50 -70 -50c-31 0 -51 17 -56 27c-6 11 -8 23 -8 36c0 16 4 32 13 43c11 13 32 19 56 19z" />
    <glyph glyph-name="f_l" unicode="fl" horiz-adv-x="500" 
d="M315 717c8 13 30 20 56 20c33 0 61 -18 61 -50c0 -34 -31 -74 -45 -90c-38 -43 -80 -110 -91 -140c-4 -11 -8 -22 -15 -35c-4 -7 -20 -41 -20 -45c0 -3 1 -4 3 -4c14 0 41 9 77 24c41 17 82 43 102 76c44 72 61 99 103 169c11 18 21 87 68 87c13 0 23 1 34 1
c20 0 38 -8 42 -17c5 -11 9 -20 9 -31c0 -13 -4 -25 -11 -36c-90 -143 -191 -274 -250 -427c-17 -44 -37 -74 -37 -136c0 -18 5 -22 9 -22c2 0 5 1 8 3c57 38 91 110 143 110c14 0 50 -9 50 -32c0 -14 -10 -20 -19 -29c-22 -23 -92 -131 -167 -131c-4 0 -9 0 -18 2
c-37 8 -65 25 -83 44c-20 21 -24 36 -24 67c0 54 22 103 41 152l16 38c7 15 13 27 13 33c0 2 -1 4 -4 4s-8 -1 -16 -5c-19 -9 -39 -12 -54 -19c-17 -8 -63 -16 -70 -37c-43 -128 -95 -259 -107 -406c-1 -12 -15 -26 -31 -32c-14 -5 -26 -11 -40 -11c-9 0 -17 2 -29 12
c-9 8 -16 15 -16 45c0 50 24 79 37 149c5 26 24 84 43 141c33 99 34 109 34 117c0 16 -39 39 -46 64c-3 10 -5 17 -5 25c0 12 5 24 23 24c5 0 13 -1 18 -3c11 -4 25 -11 38 -11c7 0 11 7 16 19c50 120 94 226 154 323z" />
    <glyph glyph-name="f_r" unicode="fr" horiz-adv-x="556" 
d="M249 320c-33 -89 -71 -201 -100 -304c-20 -71 -30 -115 -44 -140s-22 -38 -42 -38c-23 0 -40 7 -47 24c-5 12 -14 15 -17 30c-1 6 -3 13 -3 19c0 11 4 24 15 46c12 25 28 64 36 91c7 25 19 57 25 76c13 41 34 101 43 126c14 39 24 69 24 76c0 15 -59 10 -73 41
c-6 13 -13 11 -13 33s18 26 43 26c15 0 32 -1 49 -1c30 0 33 1 37 12c41 113 90 215 141 289c9 13 37 26 65 26c17 0 34 -5 45 -19c7 -9 9 -17 9 -25c0 -23 -20 -41 -28 -62c-21 -55 -69 -94 -93 -142c-14 -28 -21 -43 -26 -56c-2 -5 -4 -9 -4 -11s1 -4 4 -4c7 0 44 8 72 8
c23 0 47 -4 71 -18c38 -22 41 -35 44 -51c1 -5 2 -6 4 -6c1 0 3 0 9 6c24 24 107 86 157 86c28 0 58 -7 80 -26c6 -5 9 -12 9 -26c0 -18 -11 -47 -43 -47c-27 0 -21 8 -43 8c-3 0 -6 -1 -14 -5c-90 -45 -188 -141 -238 -307c-10 -33 -13 -41 -22 -52
c-10 -12 -25 -24 -46 -24c-22 0 -33 12 -43 16c-16 6 -22 17 -22 30c0 17 12 42 20 56c23 41 28 51 39 81c7 20 12 29 19 52c13 41 29 93 29 123c0 9 0 22 -16 22s-38 -8 -46 -9c-15 -2 -29 -7 -48 -9c-10 -1 -12 -5 -18 -21z" />
    <glyph glyph-name="f_r_period" unicode="fr&#x2e;" horiz-adv-x="730" 
d="M249 320c-33 -89 -71 -201 -100 -304c-20 -71 -30 -115 -44 -140s-22 -38 -42 -38c-23 0 -40 7 -47 24c-5 12 -14 15 -17 30c-1 6 -3 13 -3 19c0 11 4 24 15 46c12 25 28 64 36 91c7 25 19 57 25 76c13 41 34 101 43 126c14 39 24 69 24 76c0 15 -59 10 -73 41
c-6 13 -13 11 -13 33s18 26 43 26c15 0 32 -1 49 -1c30 0 33 1 37 12c41 113 90 215 141 289c9 13 37 26 65 26c17 0 34 -5 45 -19c7 -9 9 -17 9 -25c0 -23 -20 -41 -28 -62c-21 -55 -69 -94 -93 -142c-14 -28 -21 -43 -26 -56c-2 -5 -4 -9 -4 -11s1 -4 4 -4c7 0 44 8 72 8
c23 0 47 -4 71 -18c38 -22 41 -35 44 -51c1 -5 2 -6 4 -6c1 0 3 0 9 6c24 24 107 86 157 86c28 0 58 -7 80 -26c6 -5 9 -12 9 -26c0 -18 -11 -47 -43 -47c-27 0 -21 8 -43 8c-3 0 -6 -1 -14 -5c-90 -45 -188 -141 -238 -307c-10 -33 -13 -41 -22 -52
c-10 -12 -25 -24 -46 -24c-22 0 -33 12 -43 16c-16 6 -22 17 -22 30c0 17 12 42 20 56c23 41 28 51 39 81c7 20 12 29 19 52c13 41 29 93 29 123c0 9 0 22 -16 22s-38 -8 -46 -9c-15 -2 -29 -7 -48 -9c-10 -1 -12 -5 -18 -21zM669 101c7 -14 8 -20 8 -27
c0 -13 -5 -22 -7 -40s-24 -45 -59 -45c-11 0 -22 2 -35 8l-23 10c-15 6 -23 23 -23 37s4 26 8 34c5 9 10 17 13 25c10 28 25 36 50 36c34 0 60 -23 68 -38z" />
    <glyph glyph-name="f_r_period_b_period" unicode="fr&#x2e;b&#x2e;" horiz-adv-x="1374" 
d="M249 320c-33 -89 -71 -201 -100 -304c-20 -71 -30 -115 -44 -140s-22 -38 -42 -38c-23 0 -40 7 -47 24c-5 12 -14 15 -17 30c-1 6 -3 13 -3 19c0 11 4 24 15 46c12 25 28 64 36 91c7 25 19 57 25 76c13 41 34 101 43 126c14 39 24 69 24 76c0 15 -59 10 -73 41
c-6 13 -13 11 -13 33s18 26 43 26c15 0 32 -1 49 -1c30 0 33 1 37 12c41 113 90 215 141 289c9 13 37 26 65 26c17 0 34 -5 45 -19c7 -9 9 -17 9 -25c0 -23 -20 -41 -28 -62c-21 -55 -69 -94 -93 -142c-14 -28 -21 -43 -26 -56c-2 -5 -4 -9 -4 -11s1 -4 4 -4c7 0 44 8 72 8
c23 0 47 -4 71 -18c38 -22 41 -35 44 -51c1 -5 2 -6 4 -6c1 0 3 0 9 6c24 24 107 86 157 86c28 0 58 -7 80 -26c6 -5 9 -12 9 -26c0 -18 -11 -47 -43 -47c-27 0 -21 8 -43 8c-3 0 -6 -1 -14 -5c-90 -45 -188 -141 -238 -307c-10 -33 -13 -41 -22 -52
c-10 -12 -25 -24 -46 -24c-22 0 -33 12 -43 16c-16 6 -22 17 -22 30c0 17 12 42 20 56c23 41 28 51 39 81c7 20 12 29 19 52c13 41 29 93 29 123c0 9 0 22 -16 22s-38 -8 -46 -9c-15 -2 -29 -7 -48 -9c-10 -1 -12 -5 -18 -21zM845 23c-4 0 -12 -2 -18 -2
c-31 0 -33 16 -46 33c-4 5 -5 11 -5 18c0 11 2 18 7 32c25 70 54 150 90 234l163 379c14 32 25 54 59 54c21 0 20 -4 46 -10c24 -6 31 -17 31 -29c0 -24 -23 -42 -27 -57c-5 -19 -26 -37 -37 -58c-41 -78 -40 -83 -66 -141c-5 -11 -6 -14 -6 -15c0 -3 2 -4 5 -4
c2 0 18 6 37 6c13 0 30 -4 39 -8c16 -7 28 -19 37 -35s26 -35 26 -58c0 -90 -80 -285 -187 -364c-19 -14 -38 -20 -59 -20c-26 0 -51 11 -73 35c-8 9 -9 10 -16 10zM1067 380c-6 0 -14 -2 -29 -15c-28 -24 -57 -56 -74 -96l-25 -57c-14 -32 -19 -50 -19 -60c0 -7 6 -9 6 -20
c0 -12 -6 -21 -6 -42c0 -14 1 -19 5 -19c3 0 5 0 17 14c82 96 130 207 130 270c0 12 -1 25 -5 25zM1313 105c7 -12 9 -20 9 -27c0 -13 -7 -22 -8 -40c-1 -17 -23 -45 -59 -45c-11 0 -21 2 -35 8l-23 10c-17 7 -23 23 -23 37c0 30 13 37 21 59c10 28 25 36 50 36
c34 0 57 -20 68 -38zM669 101c7 -14 8 -20 8 -27c0 -13 -5 -22 -7 -40s-24 -45 -59 -45c-11 0 -22 2 -35 8l-23 10c-15 6 -23 23 -23 37s4 26 8 34c5 9 10 17 13 25c10 28 25 36 50 36c34 0 60 -23 68 -38z" />
    <glyph glyph-name=".notdef" horiz-adv-x="420" 
d="M21 0v700h378v-700h-378zM85 64h250v572h-250v-572z" />
    <glyph glyph-name=".null" horiz-adv-x="0" 
 />
    <glyph glyph-name="CR" unicode="&#xd;" horiz-adv-x="246" 
 />
    <glyph glyph-name="space" unicode=" " horiz-adv-x="246" 
 />
    <glyph glyph-name="exclam" unicode="!" horiz-adv-x="320" 
d="M350 624c25 -10 30 -24 30 -39c0 -29 -23 -61 -30 -85c-32 -109 -57 -208 -100 -308c-3 -7 -11 -17 -24 -17c-6 0 -12 2 -19 5c-10 5 -15 12 -16 17c-4 24 -27 25 -27 45c0 4 2 10 4 17c5 17 5 25 9 42c23 94 57 189 66 266c3 25 13 83 50 83c16 0 21 -8 29 -10
c18 -5 18 -12 28 -16zM200 94c21 -2 29 -16 29 -30c0 -6 -3 -21 -8 -36c-7 -20 -18 -39 -39 -39c-11 0 -22 -1 -31 -1c-13 0 -25 2 -35 13c-14 16 -20 35 -20 52c0 13 2 22 9 35c5 10 2 27 29 27c32 0 39 -18 66 -21z" />
    <glyph glyph-name="quotedbl" unicode="&#x22;" horiz-adv-x="356" 
d="M319 460l23 95c16 66 20 87 20 93c0 14 13 23 36 23c26 0 39 -8 47 -18c12 -15 23 -19 23 -36c0 -34 -20 -78 -25 -99l-35 -139c-4 -16 -20 -20 -34 -20c-10 0 -23 2 -37 7c-21 7 -31 26 -31 35c0 3 2 15 13 59zM157 435l35 139c7 26 11 57 13 81c1 9 8 24 28 24
c21 0 33 -12 46 -15c32 -7 36 -23 36 -37s-15 -58 -25 -101l-31 -133c-3 -11 -17 -24 -38 -24c-9 0 -30 7 -35 7c-18 0 -36 25 -36 32c0 10 4 15 7 27z" />
    <glyph glyph-name="numbersign" unicode="#" horiz-adv-x="650" 
d="M503 260h39c43 0 84 -2 86 -15c1 -7 12 -9 12 -21c0 -10 -7 -18 -9 -27c-2 -10 -7 -22 -26 -22c-26 0 -56 3 -82 3c-32 0 -47 -1 -51 -2c-3 -1 -5 -3 -9 -14c-22 -60 -35 -80 -58 -134c-3 -7 -21 -56 -36 -66c-3 -2 -8 -3 -15 -3c-14 0 -35 4 -42 11c-4 4 -23 14 -23 31
c0 9 4 17 8 28c6 17 15 25 19 35l38 98c0 3 0 7 -5 7c-3 0 -33 -1 -52 -3c-9 -1 -11 -4 -14 -12c-15 -39 -47 -119 -69 -162c-16 -32 -22 -33 -31 -33s-17 5 -31 6c-21 2 -38 9 -38 31c0 24 31 79 42 107l22 57c0 4 -2 6 -6 6c-6 0 -57 -5 -80 -5c-27 0 -33 14 -33 26
c0 6 3 10 3 13c0 7 -1 14 -1 18c0 5 10 32 39 32h90c16 0 23 0 28 12l29 67c0 4 -1 6 -5 6h-67c-17 0 -36 1 -43 5c-10 6 -14 12 -14 19c0 14 10 28 10 36c0 19 14 29 49 29c19 0 72 -4 78 -4c24 0 27 0 34 19l53 135c7 18 18 63 49 71c4 1 10 2 15 2c14 0 21 -6 26 -6
c33 0 41 -27 41 -44c0 -3 -1 -7 -5 -13c-12 -19 -19 -27 -25 -38c-17 -32 -35 -76 -53 -118c0 -3 1 -4 4 -4c14 0 58 1 61 3c2 2 5 7 9 17l53 130c13 31 25 39 27 60c1 9 13 13 28 13c22 0 40 -7 54 -16c17 -11 23 -19 23 -28c0 -3 0 -10 -6 -19c-12 -19 -27 -41 -32 -51
c-14 -28 -40 -86 -44 -99c0 -3 2 -4 4 -4c5 0 42 3 74 3c37 0 41 0 47 -12c4 -9 8 -18 8 -27c0 -17 -13 -14 -17 -26c-7 -20 -12 -21 -58 -21c-4 0 -87 0 -91 -4c-1 -1 -3 -3 -6 -9c-9 -19 -21 -49 -29 -70c0 -4 1 -4 4 -4zM326 253c4 0 32 3 53 3c12 0 13 2 18 15l25 63
c0 4 -1 6 -6 6c-32 0 -47 0 -58 -3c-4 -1 -6 -4 -9 -12l-26 -69c0 -2 0 -3 3 -3z" />
    <glyph glyph-name="dollar" unicode="$" horiz-adv-x="462" 
d="M399 513c-4 -12 -14 -46 -35 -106c-12 -34 -12 -39 -12 -43c0 -6 2 -11 7 -22l25 -56c9 -20 59 -118 59 -186c0 -42 -17 -80 -63 -107c-12 -7 -39 -11 -67 -11c-42 0 -67 7 -71 7s-4 -1 -5 -18c-2 -26 -4 -65 -45 -65c-7 0 -20 3 -25 4c-16 3 -25 0 -29 9s-5 17 -5 25
c0 20 7 43 14 59c3 7 4 11 4 14c0 2 -1 4 -8 8c-32 18 -55 41 -73 62c-12 14 -22 20 -36 38c-12 15 -23 42 -23 66c0 18 6 29 13 36c8 8 14 6 17 7c9 2 17 3 25 3c20 0 36 -10 40 -11c28 -7 43 -25 43 -41c0 -7 -4 -12 -4 -22c0 -7 3 -29 26 -48c7 -6 8 -6 10 -6s3 3 5 10
c16 55 38 117 57 181c3 10 3 12 3 15c0 8 -3 16 -12 35c-27 58 -60 121 -60 175c0 65 28 90 60 115c20 16 40 22 72 22c33 0 44 -5 52 -5c4 0 5 2 7 8c10 28 14 40 14 47c0 16 21 24 46 24s52 -9 52 -26c0 -14 -9 -24 -9 -37c0 -7 -10 -23 -17 -34c-9 -13 -9 -14 -9 -16
c0 -3 2 -3 14 -11c36 -24 86 -71 86 -94c0 -15 -9 -19 -11 -22c-6 -9 -22 -15 -27 -20c-2 -2 -7 -4 -13 -4c-2 0 -7 1 -15 3c-5 1 -3 2 -15 4c-18 3 -25 17 -37 29c-4 4 -8 10 -13 18c-1 2 -3 3 -4 3c-3 0 -4 -3 -8 -16zM293 180l-30 -98c-3 -9 -4 -13 -4 -16
c0 -5 11 -8 29 -8c25 0 41 9 41 33c0 32 -5 60 -15 89c-7 20 -9 21 -12 21c-2 0 -3 -1 -9 -21zM300 479c5 20 18 52 26 76c7 20 7 21 7 22c0 2 -2 4 -5 6c-5 3 -13 4 -17 4c-20 0 -32 -17 -32 -58c0 -10 4 -28 11 -48c3 -9 4 -11 6 -11c1 0 2 0 4 9z" />
    <glyph glyph-name="percent" unicode="%" horiz-adv-x="780" 
d="M456 548c-4 0 -5 -3 -5 -6c0 -59 -22 -126 -64 -177c-22 -27 -50 -54 -98 -54c-67 0 -99 37 -120 65s-28 53 -28 78c0 41 20 79 39 115c25 47 69 94 136 94c21 0 40 -4 56 -17c6 -5 14 -9 18 -10c49 -12 71 -15 84 -15c59 0 106 4 123 26c4 5 12 14 25 14
c17 0 35 -1 50 -12c19 -14 21 -26 21 -39c0 -14 -3 -26 -19 -40c-22 -19 -31 -32 -49 -60l-275 -435c-24 -38 -44 -66 -57 -86c-9 -14 -29 -16 -39 -16c-14 0 -37 7 -48 16c-8 7 -13 21 -13 35s5 28 13 31c7 3 14 11 17 16c6 9 10 18 21 24c5 3 10 9 29 39
c89 142 141 231 233 374c12 18 19 28 19 32c0 2 -1 4 -5 4c-3 0 -12 -1 -18 -1c-8 0 -33 3 -46 5zM703 297c36 -21 49 -53 49 -85c0 -66 -21 -118 -56 -172c-18 -28 -50 -53 -111 -53c-28 0 -74 4 -106 36c-13 13 -38 53 -38 78c0 48 14 89 41 135c38 64 64 92 124 92
c41 0 66 -13 97 -31zM344 569c-12 5 -17 15 -17 22c0 1 0 2 -2 2c-4 0 -7 -3 -15 -13c-24 -32 -67 -98 -67 -153c0 -12 4 -28 8 -36c6 -12 13 -12 18 -12c6 0 13 1 28 26c19 32 55 92 55 137c0 14 -3 25 -8 27zM644 244c-6 3 -11 8 -14 13c-1 2 -3 5 -5 5
c-3 0 -7 -4 -14 -14c-25 -36 -66 -104 -66 -159c0 -27 10 -44 17 -44c39 0 89 139 89 178c0 7 -3 19 -7 21z" />
    <glyph glyph-name="ampersand" unicode="&#x26;" horiz-adv-x="528" 
d="M420 199c10 9 43 36 67 36c10 0 16 -1 22 -5c12 -8 14 -21 14 -45c0 -31 -7 -43 -30 -56c-16 -9 -12 -11 -52 -36c-8 -5 -10 -7 -10 -12c0 -2 0 -3 2 -8c7 -18 11 -33 20 -53c3 -7 6 -16 6 -23s-3 -13 -15 -13c-17 0 -14 4 -23 4c-3 0 -11 -3 -16 -3c-21 0 -50 14 -53 28
c-1 5 -3 10 -5 14c-3 6 -4 8 -7 8c-7 0 -39 -17 -60 -22c-24 -6 -59 -14 -95 -14c-17 0 -31 1 -53 8c-38 12 -43 40 -60 56c-12 11 -18 34 -18 51c0 15 2 25 9 40c24 52 56 85 96 126c9 9 29 26 64 59c8 8 12 12 12 20c0 2 -1 10 -2 14c-7 30 -9 56 -9 82s2 45 5 56
c3 12 11 34 16 43c20 37 54 75 120 75c13 0 29 0 54 -11c18 -8 14 -12 28 -23c26 -21 33 -43 33 -64c0 -16 -5 -38 -16 -67c-10 -27 -48 -67 -107 -126c-6 -6 -7 -9 -7 -12s1 -8 3 -15c12 -43 25 -78 37 -116c3 -9 5 -13 8 -13s5 1 22 17zM248 230c-19 -19 -46 -56 -54 -67
c-10 -13 -31 -41 -31 -66c0 -12 7 -14 17 -14c12 0 58 8 119 35c9 4 9 5 9 7c0 4 -3 14 -4 17l-32 95c-2 6 -3 8 -5 8c-3 0 -11 -7 -19 -15zM342 453c33 41 33 62 38 71c3 6 7 18 7 25c0 6 -1 10 -5 10s-23 -6 -34 -24c-21 -34 -29 -50 -29 -85c0 -13 1 -18 3 -18
c3 0 5 2 20 21z" />
    <glyph glyph-name="quotesingle" unicode="'" horiz-adv-x="232" 
d="M171 446l31 129c6 26 10 57 12 81c1 9 5 24 29 24c31 0 38 -16 48 -19c31 -9 35 -25 35 -39c0 -27 -11 -35 -25 -98l-27 -125c-4 -18 -20 -31 -41 -31c-17 0 -29 8 -37 8c-18 0 -36 28 -36 35c0 11 8 22 11 35z" />
    <glyph glyph-name="parenleft" unicode="(" horiz-adv-x="330" 
d="M151 -83c-55 8 -55 136 -55 147c0 80 7 136 24 205c22 91 90 270 217 423c10 12 25 17 36 28c10 10 20 13 32 13c19 0 53 -13 53 -57c0 -21 -10 -54 -13 -61c-6 -13 -16 -20 -35 -20c-15 0 -18 -3 -30 -18c-58 -72 -108 -173 -133 -233c-35 -84 -54 -182 -54 -261
c0 -12 0 -49 3 -62c8 -33 29 -34 29 -80c0 -13 -8 -36 -42 -36c-17 0 -25 11 -32 12z" />
    <glyph glyph-name="parenright" unicode=")" horiz-adv-x="330" 
d="M259 494c0 63 -5 122 -8 133c-6 23 -25 38 -25 61c0 6 1 23 15 25c7 1 20 19 44 19c14 0 37 -6 57 -29c8 -9 12 -19 18 -72c4 -33 6 -68 6 -103c0 -152 -36 -306 -116 -431c-42 -66 -91 -124 -160 -177c-13 -10 -20 -12 -36 -12c-43 0 -45 31 -54 47c-5 9 -8 15 -8 20
c0 13 19 15 32 28c9 9 32 32 47 32c4 0 9 4 19 14c39 39 57 62 99 141c55 103 70 199 70 304z" />
    <glyph glyph-name="asterisk" unicode="*" horiz-adv-x="414" 
d="M481 546c10 0 20 -1 26 -3c22 -7 19 -20 22 -30c1 -3 1 -5 1 -7c0 -4 -6 -15 -9 -22c-9 -20 -18 -20 -53 -20c-21 0 -40 -5 -65 -9c-7 -1 -12 -2 -12 -4s1 -4 6 -11c10 -15 15 -35 32 -53c11 -12 13 -16 13 -24s-3 -16 -9 -21s-20 -23 -39 -23c-15 0 -27 11 -30 15
c-6 8 -16 19 -35 54c-5 9 -7 15 -10 15c-2 0 -4 -3 -12 -17c-6 -10 -12 -20 -17 -34c-4 -10 -10 -15 -25 -24c-7 -4 -16 -6 -26 -6c-25 0 -55 13 -55 33c0 4 1 6 7 15l47 70c8 11 9 13 9 14s-1 2 -3 2c-1 0 -48 0 -73 4s-36 11 -36 30c0 12 5 24 5 32c0 4 4 8 8 12
c8 8 15 11 25 11c13 0 8 -2 18 -4c12 -2 25 -3 39 -3c11 0 28 -2 29 -2c2 0 3 1 3 3s-2 8 -8 23c-16 40 -25 51 -25 66c0 6 1 13 8 18c29 21 30 28 47 28c12 0 25 -6 30 -15c8 -15 9 -21 18 -55c4 -15 5 -17 7 -17s3 1 11 11c9 12 20 24 24 30c7 10 18 34 43 34
c29 0 36 -1 48 -6c15 -6 25 -10 25 -20c0 -8 -5 -18 -11 -26c-11 -14 -23 -24 -30 -32c-29 -33 -30 -35 -30 -37c0 -1 1 -2 2 -2c7 0 33 7 60 7z" />
    <glyph glyph-name="plus" unicode="+" horiz-adv-x="590" 
d="M392 315c0 -2 2 -3 4 -3c36 0 72 9 110 9c39 0 59 -19 59 -35c0 -14 -11 -32 -14 -40s-6 -13 -17 -13c-5 0 -11 2 -16 2s-9 0 -26 -2c-42 -5 -81 -7 -120 -11c-10 -1 -12 -2 -14 -8c-10 -29 -22 -84 -32 -142c-4 -22 -6 -35 -39 -35c-6 0 -13 -5 -20 -5
c-35 0 -45 18 -45 23c0 52 15 77 27 131c3 14 4 19 4 21c0 3 -1 5 -5 5c-32 0 -103 4 -118 11c-25 12 -26 49 -26 65c0 7 5 11 10 15c8 6 15 9 25 9c6 0 12 -1 21 -3c6 -1 52 -5 84 -5c16 0 30 1 33 2c4 1 5 2 7 8c7 20 25 77 28 90c8 36 14 54 26 57c15 4 30 14 50 14
c7 0 45 -4 45 -23c0 -6 -2 -12 -9 -33l-13 -41c-6 -18 -19 -61 -19 -63z" />
    <glyph glyph-name="comma" unicode="," horiz-adv-x="260" 
d="M-18 -102l64 109c5 8 39 74 52 98c6 11 14 25 37 25c11 0 35 -2 52 -28c8 -12 23 -24 23 -36c0 -3 -1 -8 -4 -12l-128 -194c-6 -9 -18 -23 -36 -23c-8 0 -25 6 -34 7c-25 3 -33 23 -33 34c0 5 2 11 7 20z" />
    <glyph glyph-name="hyphen" unicode="-" horiz-adv-x="456" 
d="M445 294c0 -41 -11 -55 -24 -60c-10 -4 -32 -5 -46 -9c-7 -2 -30 -3 -49 -3h-24c-60 0 -129 7 -149 7c-19 0 -25 7 -37 37c-3 8 -5 16 -5 24c0 23 13 32 44 32c59 0 106 -4 165 -4c14 0 42 3 74 3c35 0 51 -7 51 -27z" />
    <glyph glyph-name="period" unicode="." horiz-adv-x="284" 
d="M221 101c6 -11 8 -21 8 -31c0 -27 -13 -61 -29 -71c-8 -5 -22 -10 -38 -10c-28 0 -50 13 -71 41c-6 8 -9 18 -9 24c0 18 16 24 20 47c2 13 9 38 43 38c27 0 62 -13 76 -38z" />
    <glyph glyph-name="slash" unicode="/" horiz-adv-x="400" 
d="M466 695c28 0 65 -33 65 -50c0 -15 -3 -21 -13 -32c-13 -14 -37 -31 -47 -46c-98 -147 -224 -385 -321 -553c-11 -19 -53 -92 -74 -92c-18 0 -28 0 -45 11c-15 10 -27 18 -27 33c0 7 9 28 19 47c5 9 22 30 33 49l311 538c21 37 54 75 61 81c10 9 25 14 38 14z" />
    <glyph glyph-name="zero" unicode="0" horiz-adv-x="440" 
d="M361 573c5 0 6 5 16 5c15 0 33 -7 47 -14c17 -9 37 -21 44 -34c17 -34 24 -71 24 -108c0 -70 -20 -131 -47 -194c-7 -17 -11 -52 -82 -161c-39 -61 -101 -100 -151 -100c-37 0 -119 42 -146 97c-3 5 -15 43 -15 82c0 47 16 125 54 209c38 83 95 154 158 228
c9 10 24 11 42 11c10 0 21 -1 30 -5c10 -4 22 -16 26 -16zM174 47c21 0 68 32 113 113c7 13 20 28 27 45c14 37 73 154 73 237c0 29 -9 56 -30 70c-3 1 -5 3 -8 3c-4 0 -7 -3 -11 -9c-66 -74 -128 -171 -161 -262c-12 -30 -10 -40 -13 -50c-6 -24 -11 -50 -11 -97
c0 -2 3 -25 5 -30c5 -7 9 -20 16 -20z" />
    <glyph glyph-name="one" unicode="1" horiz-adv-x="440" 
d="M263 111c25 96 47 174 70 272c0 3 -2 3 -3 3c-2 0 -4 -3 -10 -10c-168 -207 -197 -214 -206 -228c-3 -6 -17 -10 -31 -10c-11 0 -23 3 -30 10s-17 10 -23 17c-11 12 -15 19 -15 25c0 7 7 14 18 25c29 29 46 39 60 49c13 10 25 20 44 39c60 66 128 146 193 223
c29 35 53 73 75 110c5 7 14 9 26 9c30 0 78 -18 78 -49c0 -4 -1 -9 -3 -13c-63 -158 -96 -329 -138 -497c-5 -15 -10 -35 -10 -60c0 -11 -3 -48 -32 -48c-10 0 -17 -2 -27 -2c-22 0 -42 7 -56 19c-4 4 -6 13 -6 21c0 14 5 31 6 37c4 26 14 37 20 58z" />
    <glyph glyph-name="two" unicode="2" horiz-adv-x="440" 
d="M376 565c-52 0 -95 -63 -107 -80c-9 -11 -21 -19 -27 -32c-8 -17 -15 -19 -28 -21c-13 -1 -20 -4 -24 -4c-21 0 -32 6 -40 14c-13 13 -19 29 -19 45c0 21 20 39 27 50c21 30 53 51 90 73c46 28 72 31 127 31c49 0 115 -62 115 -91c0 -98 -65 -195 -133 -268
c-59 -61 -203 -197 -203 -214c1 -1 4 -3 7 -4c12 -3 46 -3 57 -3c87 0 104 13 121 53c7 17 12 30 16 34c7 7 26 15 45 15c11 0 30 -1 49 -23c4 -5 7 -13 7 -21c0 -37 -26 -97 -35 -108c-21 -25 -66 -32 -183 -32c-74 0 -154 1 -182 23c-30 24 -41 47 -41 68c0 7 9 22 34 51
c21 23 52 54 106 108c27 27 233 230 233 319c0 7 0 17 -12 17z" />
    <glyph glyph-name="three" unicode="3" horiz-adv-x="440" 
d="M340 543c-35 -18 -82 -50 -82 -64c0 -20 -16 -18 -27 -32c-4 -5 -20 -9 -36 -9c-13 0 -26 3 -31 9c-10 9 -24 35 -24 42c0 39 35 54 64 82c7 7 28 9 38 14c21 13 74 46 126 46c18 0 37 -2 52 -14c4 -2 7 -4 13 -5c22 -7 33 -23 37 -31c5 -8 6 -17 6 -22
c0 -13 -4 -23 -10 -35c-4 -10 -5 -17 -10 -24c-35 -62 -74 -111 -102 -140c88 -18 94 -88 94 -119c0 -38 -17 -86 -36 -126c-35 -73 -84 -150 -185 -150c-83 0 -158 83 -188 118c-8 9 -15 23 -15 35c0 15 7 23 32 23c24 0 29 3 41 3s22 -4 29 -12c13 -16 34 -28 34 -44
c0 -10 32 -40 57 -40c6 0 8 0 17 5c38 25 60 55 84 108c12 28 26 71 26 81c0 17 -5 28 -11 37c-4 7 -10 8 -17 8s-14 -3 -21 -6c-9 -4 -19 -4 -29 -9c-18 -10 -53 -35 -91 -35c-8 0 -18 1 -27 4c-16 5 -28 28 -28 43c0 6 2 10 5 13c12 11 26 19 42 28c16 10 21 18 25 21
c92 61 134 140 157 185c2 5 4 9 4 12c0 2 -2 3 -3 3s-4 0 -10 -3z" />
    <glyph glyph-name="four" unicode="4" horiz-adv-x="440" 
d="M238 148c0 3 0 5 -7 5c-54 0 -107 2 -149 21c-31 12 -59 71 -59 79c0 14 2 23 12 34c77 87 175 207 291 307c10 8 18 16 21 21c7 11 17 23 39 23c7 0 17 -1 28 -5c29 -11 39 -25 39 -42c0 -23 -17 -49 -17 -63c0 -13 -2 -31 -8 -51c-4 -15 -29 -95 -46 -156
c-14 -54 -14 -61 -14 -63c0 -3 1 -5 4 -5s31 9 64 9c21 0 40 -3 52 -16c3 -2 7 -9 10 -15c7 -15 8 -22 8 -28c0 -24 -39 -18 -82 -24c-21 -3 -48 -7 -69 -12c-21 -48 -19 -103 -28 -153c-1 -8 -3 -22 -19 -22c-35 0 -52 15 -73 28c-14 8 -14 19 -14 28c0 8 3 28 8 57l6 28
c1 7 3 13 3 15zM292 431c-49 -56 -106 -124 -151 -179c-3 -4 -4 -7 -4 -8c0 -3 5 -7 14 -9c15 -3 39 -3 57 -3c6 0 25 2 39 3c10 2 10 3 12 11c7 48 23 98 42 161c7 24 9 34 9 35c0 2 0 5 -1 5c-3 0 -7 -5 -17 -16z" />
    <glyph glyph-name="five" unicode="5" horiz-adv-x="440" 
d="M241 404c24 10 46 12 69 12c45 0 92 -15 120 -56c17 -23 21 -49 21 -77c0 -63 -32 -131 -54 -172c-30 -54 -91 -144 -184 -144c-49 0 -109 27 -178 99c-11 13 -26 28 -26 41c0 6 3 11 10 14c15 7 19 27 47 27c17 0 39 -10 44 -13c32 -20 29 -41 49 -60
c28 -28 36 -30 46 -30c4 0 11 3 22 13c42 36 66 83 86 133c5 14 8 34 15 53c4 11 11 37 11 62c0 14 -3 38 -19 38c-34 0 -86 -40 -119 -73c-9 -9 -19 -14 -33 -14s-32 5 -54 18c-14 8 -20 14 -20 20c0 2 2 7 3 9c31 97 57 192 80 259c4 13 40 34 63 34c21 0 24 -6 28 -6
s11 0 29 3c63 11 154 21 175 21c41 0 86 -39 86 -61c0 -13 -14 -31 -44 -31c-10 0 -25 5 -49 5c-50 0 -151 -12 -189 -23c-10 -3 -10 -4 -12 -12l-20 -61c-6 -18 -7 -23 -7 -25c0 -3 3 -3 4 -3z" />
    <glyph glyph-name="six" unicode="6" horiz-adv-x="440" 
d="M423 537c-3 0 -8 -3 -15 -8c-79 -63 -134 -136 -176 -210c-4 -7 -5 -11 -5 -14c0 -1 2 -2 3 -2s6 1 12 5c7 4 25 12 69 25c20 6 36 8 59 8c22 0 41 -14 55 -31c18 -22 37 -39 37 -58c0 -5 0 -10 -7 -30c-36 -103 -107 -178 -184 -229c-21 -14 -48 -19 -72 -19
c-33 0 -68 9 -96 31c-16 13 -34 24 -45 35c-18 18 -21 41 -21 60s4 37 8 49c39 117 108 279 217 374c32 28 81 91 139 91c36 0 70 -25 74 -36c3 -7 4 -13 4 -20c0 -12 -5 -25 -32 -25c-10 0 -20 4 -24 4zM317 235c-81 -32 -125 -65 -142 -92c-16 -25 -28 -29 -28 -60
c0 -17 8 -34 21 -34c6 0 31 3 84 54c34 32 55 65 83 114c4 7 7 14 7 17c0 4 -1 6 -4 6c-4 0 -11 -1 -21 -5z" />
    <glyph glyph-name="seven" unicode="7" horiz-adv-x="440" 
d="M187 257c-4 0 -60 3 -72 24c-4 8 -9 25 -9 41c0 14 5 26 23 26c6 0 20 -1 31 -5c7 -3 41 -6 46 -6c30 0 40 1 42 4c5 4 7 7 12 13c61 82 86 113 116 172c4 8 5 13 5 17c0 5 -5 7 -29 7c-78 0 -106 -14 -125 -30c-23 -21 -1 -57 -47 -57c-17 0 -38 3 -52 21s-8 39 -17 56
c-5 11 -5 14 -5 21c0 34 51 42 107 50c20 3 34 5 54 7c11 2 51 5 91 5c47 0 84 -5 95 -12c7 -4 57 -36 57 -61c0 -34 -24 -60 -42 -88c-15 -24 -45 -62 -57 -77c-17 -21 -20 -26 -20 -27c0 -3 2 -3 6 -3c35 0 57 -5 77 -26c8 -9 11 -17 11 -27c0 -8 -3 -25 -18 -25
c-9 0 -20 3 -30 3c-56 0 -72 -12 -119 -19c-96 -140 -134 -224 -134 -259c0 -7 -4 -16 -11 -16c-9 0 -14 -17 -32 -17c-7 0 -14 0 -26 5c-11 6 -19 12 -26 20s-21 21 -21 29c0 26 15 68 123 230c0 3 0 4 -4 4z" />
    <glyph glyph-name="eight" unicode="8" horiz-adv-x="440" 
d="M190 341c0 14 -1 28 -1 43c0 185 68 261 140 261c21 0 40 -5 64 -13s23 -21 32 -25c49 -21 87 -83 105 -129c6 -14 6 -20 6 -29c0 -26 -14 -49 -39 -63c-70 -35 -132 -68 -199 -97c-1 -1 -3 -4 -3 -10c0 -21 9 -92 9 -161c0 -68 -9 -140 -47 -145c-9 -2 -16 -6 -30 -6
c-27 0 -44 0 -70 15c-59 35 -135 107 -135 184c0 87 76 110 158 161c9 4 10 5 10 14zM355 555c-25 -17 -37 -39 -47 -67c-7 -24 -11 -60 -11 -88c0 -3 0 -5 2 -5s5 0 26 12c33 18 70 28 96 49c9 7 13 18 13 29c0 14 -6 28 -16 38c-8 8 -11 10 -14 10c-2 0 -5 -3 -9 -3
c-13 0 -24 10 -28 24c-2 4 -3 4 -5 4c-1 0 -2 0 -7 -3zM182 58c1 0 3 1 4 6c7 22 10 51 10 79c0 27 -2 48 -4 73c-2 11 -2 13 -5 13c-2 0 -7 -3 -11 -6c-29 -18 -49 -45 -49 -74c0 -24 9 -41 14 -49c6 -8 14 -20 27 -32c4 -4 12 -10 14 -10z" />
    <glyph glyph-name="nine" unicode="9" horiz-adv-x="440" 
d="M298 279c-1 0 -3 0 -8 -3c-29 -17 -53 -17 -66 -21c-13 -5 -27 -8 -46 -8c-16 0 -36 10 -52 22c-23 17 -32 18 -44 42c-10 18 -21 26 -21 47c0 11 2 21 6 30c57 105 152 140 273 208c10 6 54 24 91 24c14 0 29 -3 36 -10c11 -11 23 -15 39 -28c16 -11 31 -24 31 -33
c0 -24 -7 -37 -22 -58c-6 -7 -10 -15 -13 -22c-32 -87 -80 -146 -112 -247c-24 -74 -56 -144 -66 -217c-1 -9 -21 -28 -46 -28c-8 0 -18 2 -28 9c-31 21 -40 31 -40 42c0 7 4 15 8 26c29 80 62 163 82 221c0 2 0 4 -2 4zM399 522c-104 -49 -175 -83 -234 -164
c-11 -15 -11 -16 -11 -19s3 -6 10 -6c5 0 16 2 25 5c105 35 183 100 217 161c10 18 12 23 12 26c0 2 -1 3 -3 3s-9 -3 -16 -6z" />
    <glyph glyph-name="colon" unicode=":" horiz-adv-x="290" 
d="M331 366c0 -6 -2 -24 -3 -34c-1 -7 -19 -55 -46 -55c-10 0 -32 5 -44 9c-35 12 -45 33 -45 53c0 13 5 26 9 35c4 10 10 15 13 21c7 16 13 28 37 28c26 0 34 -6 55 -24c13 -11 24 -25 24 -33zM204 144c30 0 52 -28 61 -35c16 -12 21 -35 21 -59c0 -18 -4 -35 -12 -39
c-10 -5 -32 -14 -53 -14c-33 0 -36 15 -47 27c-12 14 -25 21 -25 36c0 8 4 12 6 34c1 11 17 50 49 50z" />
    <glyph glyph-name="semicolon" unicode=";" horiz-adv-x="280" 
d="M184 112c8 -3 26 -12 26 -40c0 -31 -11 -30 -20 -44c-49 -77 -83 -143 -136 -223c-7 -10 -15 -14 -28 -14s-27 3 -39 4c-28 2 -35 25 -35 40c0 8 2 11 11 25c66 100 94 169 140 249c11 19 25 24 34 24c16 0 31 -15 47 -21zM298 357c3 -4 4 -11 4 -19
c0 -23 -13 -63 -38 -63c-11 0 -24 -1 -37 -1c-22 0 -44 3 -59 17c-9 8 -12 18 -12 29c0 27 12 50 20 62c14 20 21 28 39 28c28 0 42 -11 53 -25c8 -10 23 -18 30 -28z" />
    <glyph glyph-name="less" unicode="&#x3c;" horiz-adv-x="590" 
d="M429 130c25 -8 29 2 50 -16c9 -8 12 -15 12 -21c0 -16 -21 -29 -26 -36c-9 -12 -22 -19 -41 -19c-35 0 -63 22 -92 37c-50 26 -82 50 -187 116c-19 12 -23 22 -23 32c0 9 2 15 7 27c4 9 11 12 14 21c4 12 9 15 62 46c44 26 112 62 161 92c78 48 92 56 103 58
c9 2 17 8 31 8c4 0 9 0 13 -1c32 -8 31 -31 38 -45c2 -4 4 -13 4 -19c0 -7 -3 -15 -10 -20c-9 -6 3 8 -52 -25c-15 -9 -28 -7 -64 -28l-137 -79c-37 -21 -38 -22 -38 -25c0 -2 2 -4 17 -13c39 -23 61 -39 100 -61c9 -5 52 -27 58 -29z" />
    <glyph glyph-name="equal" unicode="=" horiz-adv-x="590" 
d="M314 371l77 4c15 1 96 12 139 12c53 0 53 -26 53 -38c0 -16 -6 -31 -10 -38c-3 -6 -13 -11 -24 -11c-14 0 -31 0 -62 -3l-152 -14c-9 -1 -18 -1 -24 -1c-48 0 -130 6 -154 12c-21 5 -28 30 -28 50c0 9 1 18 4 23c6 10 14 16 31 16c21 0 47 -13 120 -13c4 0 9 0 30 1z
M286 245c57 0 114 3 164 10c20 3 38 5 58 5c13 0 33 0 45 -12c9 -9 14 -16 14 -21c0 -16 -7 -30 -11 -45c-2 -8 -10 -11 -19 -11c-6 0 -18 2 -22 2c-28 0 -78 -15 -239 -15c-101 0 -124 6 -130 10c-19 13 -34 40 -34 58c0 13 8 13 9 18c2 9 11 11 23 11c17 0 61 -10 142 -10
z" />
    <glyph glyph-name="greater" unicode="&#x3e;" horiz-adv-x="590" 
d="M417 293c-60 37 -111 69 -126 75c-22 9 -49 29 -62 35c-20 9 -26 24 -26 38c0 9 3 19 5 22c6 10 9 38 37 38c19 0 26 -14 40 -21c29 -14 24 -20 48 -33c29 -16 99 -57 204 -123c19 -12 24 -24 24 -36c0 -9 -3 -17 -8 -24c-11 -15 -15 -16 -17 -20c-7 -14 -18 -25 -57 -46
c-44 -24 -166 -94 -192 -111c-59 -38 -79 -38 -102 -38c-24 0 -48 7 -52 25c-4 19 -10 22 -10 30c0 6 4 13 15 20c6 4 21 9 43 19c14 6 28 15 41 22c42 22 129 71 168 93c36 20 37 21 37 25c0 3 -2 5 -10 10z" />
    <glyph glyph-name="question" unicode="?" horiz-adv-x="360" 
d="M364 262c5 -3 16 -6 22 -21c2 -5 6 -14 6 -21c0 -9 -5 -16 -23 -19c-7 -1 -18 -7 -32 -7c-56 0 -106 5 -147 22c-19 8 -27 14 -39 35c-4 7 -11 23 -11 35c0 7 2 13 7 18c3 3 2 5 6 12c38 66 95 120 125 152c52 56 72 81 72 91c0 11 -11 25 -26 25c-5 0 -11 -2 -16 -5
c-20 -12 -24 -20 -24 -34c0 -7 1 -14 1 -24s-2 -25 -32 -25c-28 0 -45 14 -56 28c-6 8 -7 28 -7 39c0 28 10 53 23 65c23 21 53 32 89 32c39 0 66 -7 95 -24c40 -24 55 -56 55 -81c0 -43 -14 -65 -109 -157c-58 -56 -95 -109 -95 -115c0 -5 9 -6 21 -6c15 0 29 2 33 2
c24 0 44 -6 62 -17zM183 110c25 0 87 -42 87 -62c0 -17 -2 -30 -10 -38c-12 -12 -33 -28 -57 -28c-26 0 -50 18 -52 21c-7 11 -21 21 -21 32c0 5 2 22 4 28c8 25 16 47 49 47z" />
    <glyph glyph-name="at" unicode="@" horiz-adv-x="700" 
d="M454 186c-9 -13 -41 -43 -78 -43c-15 0 -30 4 -48 15l-23 14c-29 18 -42 49 -42 83c0 72 50 161 73 187c41 46 83 77 125 77c37 0 85 -39 96 -56c10 -16 -1 -23 18 -34c12 -7 15 -15 15 -24c0 -6 -2 -12 -5 -18c-2 -4 -49 -97 -49 -145c0 -13 1 -20 7 -20c3 0 7 1 18 10
c40 33 79 123 79 204s-38 154 -154 154c-38 0 -135 -17 -219 -155c-48 -79 -65 -170 -65 -221c0 -103 64 -156 144 -156c44 0 93 16 137 48c11 8 23 11 37 11c25 0 51 -13 60 -36c5 -12 12 -7 12 -33c0 -15 -26 -13 -39 -22c-68 -47 -132 -59 -192 -59
c-49 0 -120 24 -155 52c-79 63 -105 126 -105 213c0 94 22 174 87 277c79 125 193 164 266 164c89 0 148 -23 210 -83c59 -58 77 -118 77 -181c0 -82 -35 -164 -77 -216c-29 -36 -60 -56 -99 -56c-22 0 -52 8 -78 25c-11 7 -20 16 -24 28c-1 2 -1 4 -2 4s-4 -4 -7 -8z
M490 445c-6 0 -17 -5 -29 -15c-47 -39 -94 -132 -101 -166c-2 -10 -3 -18 -3 -28c0 -3 0 -6 2 -6s4 1 8 5l16 15c46 46 83 97 83 108c0 6 -6 3 -6 17c0 6 3 13 14 24s22 24 22 36c0 9 -3 10 -6 10z" />
    <glyph glyph-name="A" unicode="A" horiz-adv-x="510" 
d="M325 167c-13 -5 -96 -34 -155 -47c-9 -2 -10 -4 -13 -11c-3 -8 -17 -32 -17 -96c0 -10 2 -24 2 -29c0 -4 -2 -7 -7 -10c-10 -6 -22 -23 -41 -23c-4 0 -11 1 -19 5l-12 6c-34 17 -34 43 -34 74c0 20 2 39 9 71c2 9 2 11 2 12c0 2 -1 3 -6 6c-19 11 -30 19 -30 33
c0 11 3 35 15 55c5 8 10 9 18 9c10 0 17 -2 32 -10c4 -2 6 -3 8 -3s4 2 9 11c81 146 160 285 274 451c11 16 25 18 44 20c8 1 27 6 45 6c15 0 30 -3 40 -11c5 -4 12 -19 12 -23c0 -15 -14 -81 -14 -94c0 -7 -1 -20 -3 -32c-11 -64 -21 -216 -21 -225c0 -5 0 -9 5 -9
c2 0 16 3 31 3c29 0 61 -6 78 -25c6 -7 8 -11 8 -16s-2 -9 -5 -13c-21 -28 -47 -29 -70 -29c-19 0 -36 0 -48 -12c-3 -3 -4 -4 -6 -22c-2 -22 -6 -99 -6 -163c0 -61 19 -80 19 -89c0 -18 -19 -38 -38 -38c-20 0 -49 5 -66 22c-11 11 -20 75 -20 122c0 41 5 108 5 121
c0 6 0 9 -3 9s-10 -1 -22 -6zM369 521c-56 -94 -115 -203 -154 -281c-6 -12 -7 -14 -7 -17c0 -2 2 -3 5 -3c5 0 47 11 68 19c8 3 41 16 64 24c6 2 8 6 8 12c0 16 28 230 28 245c0 7 0 12 -2 12s-4 -1 -10 -11z" />
    <glyph glyph-name="B" unicode="B" horiz-adv-x="574" 
d="M459 386c4 0 30 0 45 -6c38 -15 71 -47 83 -71c6 -12 8 -23 8 -37c0 -37 -12 -79 -36 -126c-11 -22 -41 -66 -63 -102c-29 -48 -90 -78 -167 -78c-31 0 -77 6 -103 16c-47 18 -50 30 -62 30c-27 0 -36 6 -74 38c-12 10 -7 22 -12 28c-10 11 -38 36 -38 44
c0 17 -16 24 -16 45c0 16 22 24 49 24c17 0 26 -2 28 -2c5 0 8 1 11 15c22 105 43 178 77 272c8 22 9 26 9 29c0 2 0 5 -4 12c-6 11 -7 15 -7 31c0 6 3 8 10 11c26 11 34 31 50 73c12 32 19 50 44 50c31 0 56 -25 70 -25c6 0 13 2 19 5c19 9 44 18 72 18
c39 0 80 -12 110 -38c18 -16 23 -28 23 -37c0 -4 0 -8 -2 -15c-20 -70 -79 -124 -124 -185c-8 -11 -10 -13 -10 -16s7 -3 10 -3zM444 321c-41 0 -97 -36 -121 -52c-28 -18 -62 -33 -82 -33c-4 0 -6 -3 -9 -12c-11 -34 -27 -117 -27 -132c0 -3 0 -6 8 -13
c36 -32 65 -52 111 -52c45 0 78 59 127 158c11 22 25 62 25 97c0 32 -10 39 -32 39zM282 359c7 10 15 23 25 34c30 33 86 91 106 120c31 45 47 80 47 85c0 3 -1 5 -6 5c-3 0 -49 -8 -84 -29c-20 -12 -28 -19 -37 -32c-5 -7 -11 -20 -18 -38l-37 -100
c-14 -36 -21 -61 -21 -63s1 -3 2 -3c3 0 19 15 23 21z" />
    <glyph glyph-name="C" unicode="C" horiz-adv-x="472" 
d="M396 557c-38 -36 -46 -46 -109 -131c-55 -74 -97 -172 -124 -265c-1 -4 -4 -24 -4 -44c0 -11 1 -32 11 -42c18 -18 22 -22 34 -22c10 0 29 6 45 14c61 31 126 103 144 117c14 11 19 12 48 12c25 0 39 -7 51 -26c5 -8 7 -11 7 -19c0 -6 -6 -8 -14 -16
c-47 -47 -134 -159 -252 -159c-23 0 -65 5 -88 16c-31 15 -78 48 -85 82c-5 23 -6 44 -6 61c0 39 9 85 14 99c55 155 149 334 301 421c21 12 59 19 87 19c18 0 31 -2 49 -9c25 -10 20 -14 34 -27c31 -28 39 -48 39 -61c0 -7 -4 -22 -17 -51c-19 -42 -22 -50 -27 -65
s-16 -23 -39 -23c-4 0 -11 1 -18 2c-22 4 -28 5 -43 17c-12 9 -17 20 -17 29c0 26 33 51 35 74c1 6 4 12 7 18s5 9 5 12c0 2 -2 3 -4 3c-4 0 -34 -8 -64 -36z" />
    <glyph glyph-name="D" unicode="D" horiz-adv-x="554" 
d="M93 124c23 94 55 185 91 277c7 18 8 23 8 26c0 1 -1 4 -3 4c-4 0 -12 -3 -18 -3c-16 0 -37 11 -37 43c0 16 4 32 10 40c8 11 11 14 63 50c54 38 137 75 213 75c70 0 104 -21 148 -54c33 -25 63 -54 63 -111c0 -40 -15 -81 -28 -107c-7 -14 -8 -20 -18 -41
c-65 -137 -142 -274 -268 -333c-30 -14 -41 -17 -64 -17c-37 0 -63 9 -67 9c-9 0 1 -6 -34 -6c-14 0 -26 4 -44 17c-22 15 -16 21 -32 27c-36 14 -79 40 -79 71c0 13 7 22 29 22c11 0 33 -3 40 -3c5 0 10 -3 15 -3c7 0 8 1 12 17zM366 536c0 -1 1 -2 1 -7
c0 -10 -14 -19 -19 -29c-53 -117 -109 -232 -140 -354c-13 -51 -18 -84 -18 -88c0 -6 5 -6 18 -6c6 0 9 0 21 3c25 5 46 17 65 36c92 92 154 199 201 318c21 53 23 63 23 78c0 11 -2 75 -64 75c-32 0 -71 -19 -83 -22c-4 -1 -5 -2 -5 -4z" />
    <glyph glyph-name="E" unicode="E" horiz-adv-x="508" 
d="M332 416c29 11 62 18 92 18c28 0 59 -5 89 -23c19 -11 20 -28 20 -37c0 -17 -48 -24 -56 -24c-11 0 -23 3 -32 3c-61 0 -103 -27 -161 -43c-22 -6 -27 -8 -31 -18c-15 -38 -71 -146 -71 -207c0 -16 4 -29 12 -29s42 6 69 18c31 14 50 20 65 27c34 15 109 73 163 73
c4 0 8 0 14 -2c7 -2 11 -6 15 -10c11 -11 33 -20 33 -35c0 -4 -5 -11 -12 -14c-5 -2 -14 -6 -19 -11c-10 -10 -21 -18 -27 -21c-90 -48 -185 -101 -325 -101c-12 0 -70 17 -91 48c-7 10 -10 26 -10 45c0 46 15 97 23 123c11 35 26 70 39 105c-7 8 -13 23 -13 34
c0 9 2 17 24 23c19 5 20 6 27 22s18 40 33 82c4 11 5 15 5 17s-1 4 -3 4s-9 -2 -20 -2c-7 0 -20 3 -32 13c-11 9 -24 31 -24 46c0 7 3 12 11 14c65 17 119 39 177 60c44 16 175 52 263 52c21 0 40 -2 52 -8c31 -16 55 -40 55 -60c0 -10 -4 -19 -21 -20c-15 -1 -19 -7 -27 -7
c-13 0 -25 13 -56 13c-65 0 -180 -35 -220 -47c-7 -2 -8 -3 -11 -11l-32 -84c-9 -23 -11 -27 -11 -31c0 -1 1 -2 2 -2c3 0 6 1 22 7z" />
    <glyph glyph-name="F" unicode="F" horiz-adv-x="446" 
d="M206 476c-21 -10 -38 -18 -54 -18c-29 0 -55 30 -55 43c0 12 12 25 14 34c1 5 4 7 11 9c56 13 104 32 151 52c23 10 100 29 147 41c28 7 81 16 119 16c92 0 111 -38 111 -74c0 -5 -1 -7 -9 -11c-11 -6 -26 -13 -42 -13c-10 0 -21 3 -30 13c-6 7 -14 9 -23 9
c-14 0 -44 -10 -61 -12c-42 -5 -74 -18 -113 -26c-10 -2 -3 -17 -9 -28c-24 -44 -38 -67 -65 -136c-5 -13 -6 -16 -6 -20c0 -2 1 -3 3 -3c4 0 9 1 22 4c21 5 90 18 121 23c6 1 12 4 24 4c4 0 12 -1 31 -10c35 -17 42 -25 42 -42c0 -8 -3 -15 -17 -18
c-84 -17 -192 -36 -248 -52c-11 -3 -12 -6 -14 -11c-12 -30 -36 -110 -42 -126c-3 -8 -5 -12 -5 -19c0 -12 -9 -19 -9 -84c0 -17 -3 -28 -21 -28c-30 0 -56 8 -77 21c-11 7 -12 11 -12 18c0 58 22 123 37 179c4 15 4 17 4 19s-2 4 -5 4c-21 0 -40 20 -40 39c0 6 -7 12 -7 17
c0 4 3 7 9 9c20 7 45 10 65 17c3 1 6 3 10 12c19 44 34 88 54 134c4 9 6 14 6 17c0 2 -1 3 -2 3c-3 0 -7 -2 -15 -6z" />
    <glyph glyph-name="G" unicode="G" horiz-adv-x="596" 
d="M545 425c-32 9 -43 28 -43 41c0 14 20 27 24 40c5 16 11 19 15 27c3 6 7 21 7 35c0 12 -2 19 -14 19c-7 0 -14 -1 -25 -3c-56 -10 -104 -67 -136 -98l-26 -25c-88 -85 -152 -208 -177 -318c-2 -10 -7 -32 -7 -51c0 -15 2 -22 8 -34c8 -16 11 -20 24 -20
c15 0 66 16 100 47c103 93 125 103 148 126c8 8 33 37 33 42c0 2 -2 2 -3 2s-3 0 -13 -4c-15 -6 -38 -13 -57 -13c-4 0 -33 1 -46 11c-22 17 -30 21 -30 37c0 22 1 26 24 30c11 2 27 3 43 7c64 14 84 30 118 30c19 0 36 -7 57 -27c19 -18 25 -32 25 -44
c0 -13 -7 -27 -15 -43c-55 -113 -67 -221 -67 -260c0 -8 -23 -27 -49 -27c-14 0 -19 5 -26 6c-28 4 -34 7 -34 29c0 24 12 71 12 73s-1 3 -2 3s-3 -1 -10 -8c-25 -24 -60 -56 -113 -76c-19 -7 -64 -18 -87 -18c-36 0 -71 13 -101 43c-34 34 -47 58 -47 87
c0 65 21 235 189 422c43 48 125 115 190 140c26 10 43 11 65 11c38 0 98 -23 122 -41c25 -19 33 -43 33 -68c0 -37 -17 -75 -25 -99c-2 -6 -22 -42 -52 -42c-13 0 -22 8 -32 11z" />
    <glyph glyph-name="H" unicode="H" horiz-adv-x="562" 
d="M343 237l-96 -18c-5 -1 -8 -3 -10 -7c-10 -18 -17 -45 -22 -70c-5 -24 -10 -46 -14 -56c-3 -7 -5 -14 -5 -21c0 -11 6 -27 6 -48c0 -15 -2 -31 -35 -31c-13 0 -30 4 -36 10c-7 7 -28 14 -32 21c-1 2 -2 3 -6 4c-9 2 -11 11 -11 17c0 4 0 25 3 34c1 3 1 10 4 17
c1 3 1 11 2 16l10 52c2 10 3 17 3 21c0 3 -1 4 -3 4c-3 0 -15 -2 -31 -2c-28 0 -57 6 -77 29c-7 8 -12 39 -12 46c0 13 9 19 23 19c8 0 18 -2 30 -5c4 -1 10 -4 15 -4c6 0 55 8 79 13c5 1 6 2 9 8c16 34 23 78 38 115c37 91 80 186 126 271c7 13 30 15 34 15
c10 0 21 -2 31 -8c20 -12 46 -13 46 -38c0 -4 -1 -10 -4 -14c-25 -34 -91 -172 -126 -254c-14 -33 -20 -53 -20 -56s1 -5 4 -5s9 1 20 3c46 8 66 13 108 25c7 2 9 5 11 9c34 73 57 151 83 229c2 6 5 10 8 12c17 12 23 15 30 15s14 -4 36 -4c29 0 46 -20 46 -32
c0 -27 -5 -32 -10 -47c-15 -45 -35 -84 -53 -128c-4 -10 -7 -16 -7 -19c0 -2 1 -3 3 -3s5 1 8 2c24 8 36 11 55 11c29 0 35 -7 41 -9s30 0 51 -41c3 -6 4 -10 4 -16c0 -10 -4 -19 -18 -19c-63 0 -110 -16 -166 -26c-11 -2 -12 -4 -14 -8c-24 -48 -26 -77 -35 -103
c-20 -57 -27 -106 -38 -199c-2 -16 -26 -17 -33 -17c-14 0 -30 4 -46 10c-16 5 -29 24 -29 61c0 13 1 18 3 24c17 56 29 128 46 181c2 6 3 10 3 13s-2 4 -6 4s-10 0 -24 -3z" />
    <glyph glyph-name="I" unicode="I" horiz-adv-x="254" 
d="M132 -28c-9 -1 -11 -18 -27 -18c-12 0 -18 10 -24 11c-11 2 -23 13 -29 16c-2 1 -15 3 -15 14c0 5 9 60 18 75c4 7 5 11 8 23c39 155 91 284 139 435c11 35 10 10 39 95c4 13 25 16 40 16c36 0 82 -16 82 -38c0 -52 -15 -37 -35 -76c-2 -4 -6 -9 -9 -17
c-12 -32 -154 -424 -154 -452c0 -5 2 -8 2 -15c0 -16 -4 -66 -35 -69z" />
    <glyph glyph-name="J" unicode="J" horiz-adv-x="400" 
d="M496 544c-61 -129 -118 -263 -161 -404c-13 -43 -40 -101 -56 -126c-33 -52 -82 -99 -131 -99c-37 0 -52 19 -74 26c-65 21 -80 100 -80 166c0 36 4 68 8 85c2 9 17 57 44 57c20 0 22 -4 34 -4c29 0 48 -30 48 -45c0 -17 -15 -32 -19 -49c-7 -29 -13 -13 -13 -63
c0 -55 18 -84 26 -84c11 0 30 7 58 52c25 39 35 63 60 134c64 186 87 242 137 351c8 18 15 32 15 35s-2 4 -5 4c-4 0 -57 -14 -73 -18c-4 -1 -9 -4 -14 -7c-15 -9 -39 -14 -67 -14c-20 0 -55 0 -62 25c-2 7 -11 6 -11 21c0 14 5 27 7 38c1 7 4 12 19 12c19 0 45 2 123 19
c83 18 119 24 147 24c18 0 31 -2 59 -22c14 -10 25 -19 25 -31c0 -39 -29 -51 -44 -83z" />
    <glyph glyph-name="K" unicode="K" horiz-adv-x="532" 
d="M297 396c2 0 13 4 19 7c154 76 190 112 314 238c4 4 9 5 16 5c11 0 31 -6 39 -10c14 -7 20 -13 27 -15c11 -3 20 -13 20 -21c0 -4 -1 -6 -10 -17c-67 -82 -148 -147 -231 -196c-66 -39 -112 -60 -147 -78c-8 -4 -11 -10 -11 -16s3 -14 7 -22c11 -22 10 -32 17 -46
c29 -59 111 -178 175 -233c21 -18 57 -26 57 -54c0 -13 -7 -23 -21 -24s-7 -7 -29 -7c-59 0 -105 45 -127 71c-14 16 -43 46 -66 75c-45 57 -78 119 -99 171c-10 25 -11 27 -14 27s-4 -2 -15 -26c-31 -67 -55 -138 -68 -210c-2 -11 -9 -17 -21 -24c-7 -4 -15 -8 -22 -8
c-10 0 -19 5 -24 10s-9 8 -14 10c-30 12 -37 22 -37 34c0 8 5 16 10 32c65 208 162 416 225 537c11 21 14 15 19 22c9 11 26 25 43 25c6 0 16 -3 20 -5c8 -4 8 -10 15 -13c13 -5 18 -3 28 -13c6 -6 8 -13 8 -19c0 -8 -3 -15 -7 -21c-33 -51 -63 -101 -88 -156
c-8 -16 -11 -24 -11 -26s1 -4 3 -4z" />
    <glyph glyph-name="L" unicode="L" horiz-adv-x="450" 
d="M247 73c68 20 106 34 166 59c5 2 11 3 17 3c35 0 84 -29 84 -47c0 -3 5 -13 5 -19c0 -5 -1 -10 -4 -14c-10 -15 -38 -8 -63 -14c-92 -22 -183 -74 -293 -74c-50 0 -81 42 -96 63c-4 5 -5 11 -5 18c0 24 17 54 20 72c1 6 3 17 9 35c58 169 144 332 217 493
c3 7 18 14 34 14c23 0 27 -10 38 -13c31 -8 40 -21 40 -34c0 -14 -11 -31 -12 -37c-2 -9 0 -12 -9 -20c-20 -17 -34 -45 -48 -83c-6 -16 -15 -28 -27 -54c-49 -107 -87 -205 -129 -321c-4 -11 -8 -24 -8 -31c0 -5 1 -9 6 -9c14 1 27 4 58 13z" />
    <glyph glyph-name="M" unicode="M" horiz-adv-x="654" 
d="M509 312c-27 -27 -85 -97 -94 -107c-6 -7 -10 -9 -16 -9c-10 0 -24 5 -43 9c-28 6 -47 13 -57 30c-14 24 -19 57 -20 89s-1 40 -1 43c0 2 0 6 -3 6s-4 -1 -18 -31c-13 -28 -29 -68 -42 -105c-48 -137 -61 -197 -61 -239c0 -19 -22 -16 -34 -24c-7 -5 -12 -7 -18 -7
c-15 0 -34 15 -40 16c-25 4 -31 39 -31 46c0 40 25 60 33 91c50 192 162 379 230 545c9 22 11 24 19 24s13 -3 29 -5c33 -4 67 -16 67 -36c0 -7 -3 -25 -9 -45l-17 -51c-5 -16 -7 -35 -8 -53c-2 -34 -3 -61 -3 -84c0 -36 2 -61 2 -82c0 -4 1 -7 3 -7c3 0 6 2 20 17
c57 61 184 162 249 253c10 14 13 14 25 14c16 0 34 -8 42 -8c23 0 38 -33 38 -49c0 -9 -2 -12 -12 -27c-101 -151 -147 -325 -169 -510c-4 -33 -5 -42 -9 -88c-1 -13 -5 -16 -15 -16c-9 0 -17 5 -20 5s-7 -2 -12 -2c-18 0 -44 16 -55 24c-3 2 -10 9 -10 14c0 4 1 15 3 27
c12 74 23 140 38 212c9 44 16 74 31 114c3 8 4 13 4 14c0 3 -1 4 -2 4c-2 0 -4 -2 -14 -12z" />
    <glyph glyph-name="N" unicode="N" horiz-adv-x="598" 
d="M482 4c-18 -18 -34 -27 -53 -27c-12 0 -33 5 -47 13c-40 23 -45 28 -57 65c-25 77 -42 220 -56 311c-4 26 -5 31 -8 31s-4 -1 -13 -31c-50 -167 -57 -192 -70 -254c-9 -42 -14 -73 -14 -95c0 -20 -3 -46 -46 -46c-7 0 -14 0 -23 2c-15 3 -17 7 -28 13c-9 5 -21 13 -21 22
c0 5 7 42 14 68c28 103 81 273 94 322l7 26c5 17 38 147 42 167c3 15 20 11 20 18c0 4 -17 31 -17 47c0 9 4 17 15 22c7 3 34 10 56 10c12 0 24 -2 31 -9c4 -4 7 -8 9 -14c58 -175 50 -347 89 -522c4 -18 6 -23 8 -23s5 5 13 24c43 102 72 210 105 319c7 23 13 35 18 54
c9 35 7 71 17 106c6 20 9 25 26 25c7 0 17 -1 29 -4c17 -4 28 -2 39 -11c20 -16 28 -28 28 -41c0 -10 -8 -26 -11 -32c-4 -8 -6 -14 -14 -38c-45 -134 -87 -290 -167 -490c-4 -10 -9 -22 -15 -28z" />
    <glyph glyph-name="O" unicode="O" horiz-adv-x="490" 
d="M456 598c55 -49 72 -108 72 -171c0 -27 -4 -52 -10 -77c-28 -116 -66 -229 -131 -312c-19 -24 -73 -63 -143 -63c-19 0 -47 4 -68 11c-22 7 -50 32 -64 52c-24 35 -33 64 -33 115c0 137 47 239 119 346c31 46 59 79 84 98c38 29 55 36 66 36c9 0 19 -3 31 -8
c26 -11 35 -13 43 -14c7 -1 18 1 34 -13zM368 536c-4 0 -6 0 -24 -19c-67 -71 -116 -153 -143 -241c-12 -39 -17 -84 -17 -127c0 -27 7 -55 19 -73c9 -14 18 -20 31 -20c29 0 52 25 58 34c47 71 124 243 124 357c0 7 -1 71 -34 81c-10 3 -11 8 -14 8z" />
    <glyph glyph-name="P" unicode="P" horiz-adv-x="490" 
d="M226 204c-25 -79 -52 -193 -52 -212c0 -5 -2 -8 -9 -14c-5 -4 -19 -9 -33 -9c-8 0 -17 1 -25 9c-12 12 -41 15 -41 34c0 2 1 7 4 20c20 86 26 104 34 124c3 8 4 13 5 21c3 28 22 72 31 101c4 13 5 17 5 19c0 3 -1 4 -7 10c-7 7 -15 17 -15 28s9 10 13 13c6 4 14 8 21 10
s8 4 11 12l23 66c3 8 4 11 4 13c0 3 -2 5 -12 11c-19 12 -19 20 -31 32c-2 2 -4 9 -4 13c0 16 21 30 36 40c77 51 189 128 323 128c7 0 14 -1 21 -1c24 0 45 -9 62 -23c23 -19 36 -35 36 -77c0 -47 -12 -73 -45 -135c-41 -77 -112 -155 -173 -201c-16 -12 -62 -31 -106 -31
c-19 0 -41 5 -50 12c-10 8 -12 10 -16 10c-3 0 -4 -3 -10 -23zM489 582c-70 -21 -109 -22 -150 -62c-23 -66 -53 -133 -69 -196c-1 -4 -1 -7 -1 -9c0 -4 1 -7 4 -9c2 -2 26 -21 35 -21c4 0 11 3 27 15c51 38 103 98 135 157c29 54 46 104 46 123c0 6 -2 6 -7 6
c-3 0 -10 -1 -20 -4z" />
    <glyph glyph-name="Q" unicode="Q" horiz-adv-x="554" 
d="M387 41c-29 -26 -80 -60 -143 -60c-21 0 -35 0 -52 7c-21 8 -44 30 -59 37c-31 15 -43 48 -49 74c-6 28 -10 56 -10 82c0 41 7 82 19 121c26 82 88 182 165 246c12 10 22 15 40 27c54 36 122 50 146 50c28 0 48 -13 63 -18c29 -10 48 -17 67 -34c25 -22 38 -56 38 -130
c0 -66 -45 -166 -116 -269c-16 -23 -26 -32 -26 -38c0 -4 3 -9 9 -19c40 -71 100 -152 141 -181c7 -5 17 -12 17 -18c0 -15 -19 -22 -42 -22c-26 0 -58 8 -78 25c-43 37 -83 84 -108 119c-5 7 -8 10 -9 10c-2 0 -5 -2 -13 -9zM419 252c40 56 89 155 89 233c0 19 -3 36 -9 51
c-5 12 -7 12 -14 12c-17 0 -38 -6 -61 -17c-74 -36 -130 -98 -173 -162c-37 -55 -68 -130 -68 -203c0 -67 23 -105 34 -105c33 0 95 50 117 76c6 7 6 11 6 14c0 4 -3 10 -6 16c-42 84 -55 112 -58 124c-2 8 -5 20 -5 25c0 12 7 22 34 22c26 0 38 -11 49 -11
c23 0 31 -12 35 -24c5 -16 9 -33 15 -49c3 -8 5 -10 7 -10c1 0 3 1 8 8z" />
    <glyph glyph-name="R" unicode="R" horiz-adv-x="494" 
d="M204 192c-13 -56 -27 -142 -27 -174c0 -13 -25 -23 -48 -23c-10 0 -19 2 -25 5c-25 13 -40 21 -40 36c0 3 2 15 4 28c19 122 55 240 96 359c6 18 19 35 24 53c1 4 8 22 8 25s-2 5 -7 9c-16 12 -27 30 -27 43c0 6 0 9 8 15c39 30 119 72 211 72c37 0 93 -6 121 -28
c26 -20 33 -29 39 -41c11 -21 16 -44 16 -66c0 -66 -39 -135 -79 -177s-84 -55 -149 -75c-10 -3 -16 -4 -16 -9c0 -4 2 -8 12 -25c16 -27 36 -54 52 -82c4 -7 6 -7 10 -12c22 -28 40 -45 53 -58c18 -18 32 -28 63 -35c18 -4 42 -33 42 -55c0 -15 -11 -27 -39 -27
c-33 0 -66 13 -100 34c-90 56 -141 146 -175 211c-13 25 -14 27 -16 27c-3 0 -4 -1 -11 -30zM263 327c11 0 22 4 27 6c21 8 22 3 45 17c59 36 112 99 112 191c0 12 -2 26 -32 26c-20 0 -38 -4 -57 -11c-8 -3 -9 -4 -12 -9c-36 -62 -59 -114 -87 -197c-4 -12 -5 -16 -5 -19
c0 -2 1 -4 9 -4z" />
    <glyph glyph-name="S" unicode="S" horiz-adv-x="432" 
d="M340 508c0 -37 9 -84 13 -101c15 -63 57 -199 70 -276c4 -24 7 -42 7 -60c0 -40 -13 -77 -64 -96c-13 -5 -28 -5 -44 -5c-98 0 -189 58 -252 136c-13 16 -22 24 -29 34c-19 27 -29 62 -29 83c0 17 5 36 22 43c3 1 7 2 12 2c19 0 42 -8 59 -18c20 -12 39 -32 39 -40
c0 -13 -5 -23 -5 -35c0 -32 59 -85 95 -105c28 -16 44 -21 51 -21c24 0 29 25 29 32c0 25 -2 61 -4 74c-17 111 -55 198 -76 308c-6 31 -10 51 -10 75c0 7 1 14 3 23c6 27 8 94 70 94c148 0 190 -88 200 -146c3 -17 5 -21 5 -29c0 -12 -6 -21 -29 -21c-4 0 -8 0 -23 4
c-26 7 -42 27 -54 39c-7 7 -9 39 -18 56c-5 10 -13 15 -19 15c-8 0 -19 -31 -19 -65z" />
    <glyph glyph-name="T" unicode="T" horiz-adv-x="388" 
d="M203 510c-29 0 -58 4 -73 22c-5 6 -5 13 -5 22c0 18 3 38 8 43s11 11 23 11c21 0 18 -7 68 -7c52 0 124 11 144 15c46 9 95 16 149 16c44 0 107 -42 107 -59c0 -18 -7 -29 -21 -39c-6 -4 -23 -11 -33 -11c-12 0 -19 7 -26 14c-3 3 -23 10 -28 10c-44 0 -92 -6 -132 -15
c2 -3 3 -6 3 -8c0 -5 -4 -8 -35 -65c-65 -120 -107 -235 -135 -382c-3 -16 -4 -37 -4 -57c0 -23 -11 -37 -33 -37c-15 0 -37 7 -64 23c-14 8 -18 23 -18 37c0 15 3 30 4 34c37 147 79 280 140 411c7 15 8 18 8 20c0 3 -2 4 -5 4s-17 -2 -42 -2z" />
    <glyph glyph-name="U" unicode="U" horiz-adv-x="600" 
d="M185 90c3 0 14 8 19 14c4 5 9 10 15 16c171 174 271 317 319 395c11 18 15 32 24 46c6 9 19 29 46 29c4 0 14 -2 24 -3c11 -1 18 -2 27 -15l14 -21c5 -8 6 -13 6 -17c0 -12 -5 -13 -9 -24c-15 -42 -41 -72 -59 -120c-52 -138 -70 -266 -70 -417c0 -10 -9 -15 -21 -15
c-17 0 -22 6 -31 9c-15 5 -27 14 -39 21c-17 10 -22 13 -22 24c0 7 0 16 4 23c3 5 4 8 5 15c6 51 11 117 18 156c3 17 3 18 3 20c0 1 -1 2 -2 2s-6 -5 -15 -16c-55 -66 -131 -151 -194 -205c-14 -12 -36 -19 -52 -19c-40 0 -43 21 -75 30c-22 6 -32 12 -37 24
c-3 7 -5 37 -5 64c0 64 17 127 26 155c36 112 85 221 126 333c7 19 11 22 14 28c4 8 15 30 36 30c16 0 15 -4 38 -13c37 -14 37 -29 37 -49c0 -8 -6 -15 -10 -25c-59 -148 -137 -274 -158 -417c-3 -20 -4 -47 -4 -52c0 -4 1 -6 2 -6z" />
    <glyph glyph-name="V" unicode="V" horiz-adv-x="470" 
d="M258 145c15 20 31 47 40 64c48 91 91 168 139 253c17 30 38 76 38 119c0 7 -2 14 -2 21c0 12 5 21 30 21h11c46 0 34 -9 49 -20c16 -11 25 -22 25 -36c0 -25 -21 -100 -45 -138c-45 -70 -84 -151 -126 -228c-7 -13 -122 -220 -169 -220c-12 0 -20 6 -26 6
c-7 0 -7 -6 -21 -6c-31 0 -76 33 -76 54c0 13 -13 26 -13 38c0 4 2 8 3 19c1 15 3 17 4 27c15 153 49 305 56 441c1 19 7 34 7 54c0 13 3 29 30 29c9 0 15 0 24 -1c17 -2 40 0 52 -23c3 -6 6 -14 7 -29c0 -6 0 -14 -1 -21c-18 -126 -45 -262 -61 -391c-4 -32 -6 -53 -6 -56
c0 -4 1 -7 3 -7c4 0 13 10 28 30z" />
    <glyph glyph-name="W" unicode="W" horiz-adv-x="684" 
d="M205 130c2 0 5 2 20 20c50 60 103 133 132 198c4 9 11 24 13 33c3 15 13 63 23 70c4 3 7 4 12 4c9 0 24 -5 29 -6c22 -3 29 -12 34 -18c13 -15 18 -30 18 -44c0 -6 -1 -13 -3 -19c-18 -58 -27 -117 -27 -178c0 -42 5 -99 10 -99c4 0 5 0 17 18c68 103 108 232 139 356
c5 20 8 44 8 71c0 64 -22 60 -22 103c0 16 6 29 23 29c9 0 20 -3 30 -3c36 0 51 -12 60 -32c8 -17 14 -42 14 -86c0 -53 -7 -96 -20 -157c-29 -135 -82 -270 -165 -387c-12 -17 -28 -35 -54 -35c-24 0 -20 6 -34 7c-24 2 -30 6 -45 18c-6 5 -32 10 -40 26
c-13 26 -16 41 -24 105c-2 17 -3 17 -5 17c-3 0 -9 -10 -20 -21c-51 -51 -61 -82 -104 -115c-9 -7 -25 -15 -37 -15c-17 0 -32 11 -53 28c-6 5 -32 6 -36 22c-3 11 -4 21 -4 32c0 30 8 63 11 87c1 8 4 36 8 54c26 117 77 277 114 410c5 18 20 22 34 22c3 0 13 -1 26 -4
c29 -7 34 -14 46 -31c3 -4 4 -6 4 -9s0 -5 -5 -17c-46 -110 -78 -220 -105 -336c-14 -60 -24 -114 -24 -115c0 -2 0 -3 2 -3z" />
    <glyph glyph-name="X" unicode="X" horiz-adv-x="482" 
d="M209 167c-48 -53 -95 -115 -108 -175c-2 -9 -5 -10 -18 -15c-11 -4 -11 -14 -24 -14c-38 0 -81 28 -81 47c0 35 23 59 36 87c5 11 7 13 14 24c51 80 124 134 185 200c12 13 13 16 13 20c0 3 -6 33 -10 58c-10 63 -20 129 -20 171c0 17 2 30 6 37c2 3 3 7 3 10
c0 7 -3 13 -3 20c0 9 8 24 46 24c23 0 42 -5 49 -18s24 -27 24 -38c0 -8 -10 -28 -10 -74c0 -32 5 -62 9 -96c1 -9 1 -17 5 -17s18 14 27 22c66 58 201 184 224 210c7 8 14 13 24 13c15 0 37 -11 56 -17c22 -7 33 -25 33 -40c0 -4 0 -7 -3 -11c-27 -37 -91 -71 -131 -109
c-15 -14 -31 -28 -44 -39c-54 -46 -106 -90 -159 -137c-11 -10 -11 -11 -11 -16c0 -3 1 -11 7 -39c14 -67 39 -148 53 -214c5 -23 28 -38 28 -57c0 -10 -10 -27 -37 -27c-20 0 -41 6 -65 15c-13 5 -14 6 -21 20c-26 53 -32 83 -43 159c-8 54 -8 59 -12 59s-6 -3 -42 -43z
" />
    <glyph glyph-name="Y" unicode="Y" horiz-adv-x="502" 
d="M326 190c-21 -14 -52 -28 -83 -28c-9 0 -19 1 -28 5c-22 10 -52 31 -62 40c-25 22 -42 47 -42 61c0 3 3 65 6 105c1 12 4 17 4 35c0 22 9 34 10 46c1 15 27 179 47 213c4 7 6 9 20 9c19 0 47 -8 60 -9c22 -2 27 -31 27 -38c0 -26 -17 -46 -22 -71
c-15 -76 -34 -173 -40 -238c-4 -43 -5 -58 -5 -64c0 -11 1 -12 5 -12c3 0 11 2 19 7c119 75 163 143 217 245c11 21 17 36 32 61c14 24 28 45 34 53c5 6 7 8 15 8c15 0 53 -5 74 -28c8 -9 13 -26 13 -32c0 -4 -1 -8 -6 -15c-139 -194 -226 -469 -277 -850
c-4 -30 -5 -34 -8 -38c-2 -3 -6 -3 -10 -3c-10 0 -26 4 -32 5c-30 5 -56 16 -60 35c-2 10 -3 19 -3 29c0 41 15 83 23 120c4 18 7 39 11 59c16 84 42 177 67 264c6 21 8 28 8 30c0 1 -1 2 -2 2c-2 0 -6 -2 -12 -6z" />
    <glyph glyph-name="Z" unicode="Z" horiz-adv-x="560" 
d="M540 365c34 -5 63 -17 81 -39c4 -5 6 -11 6 -19c0 -13 -7 -27 -24 -27c-7 0 -10 3 -52 3c-77 0 -144 -24 -214 -35c-69 -59 -164 -104 -200 -176c-3 -6 -4 -12 -4 -16s18 -15 35 -15c18 0 37 -9 56 -9c80 0 172 42 236 63c12 4 19 5 30 5c17 0 43 -4 49 -16
c9 -17 33 -38 33 -54c0 -4 -2 -13 -17 -13c-8 0 -9 3 -15 3c-4 0 3 -2 -21 -12c-62 -26 -157 -57 -257 -57c-70 0 -143 16 -209 58c-11 7 -46 54 -46 75c0 18 1 23 6 32c14 25 46 58 114 114c9 7 13 9 13 13c0 3 -3 2 -16 7c-14 5 -22 10 -26 15c-7 9 -10 16 -10 23
c0 8 3 16 3 24c0 13 10 28 34 28c18 0 67 -18 79 -18c13 0 62 6 70 11c80 50 209 135 263 215c4 6 5 9 5 13c0 9 -63 16 -97 16c-63 0 -112 -18 -129 -52c-4 -8 -14 -10 -28 -10c-24 0 -55 11 -67 34c-8 16 -13 38 -13 45c0 5 0 8 6 12c43 28 121 53 207 53
c63 0 130 -13 189 -47c7 -4 57 -45 57 -64c0 -37 -7 -48 -49 -90c-13 -13 -23 -29 -78 -74c-12 -10 -15 -12 -15 -15c0 -4 8 -3 15 -4z" />
    <glyph glyph-name="bracketleft" unicode="[" horiz-adv-x="326" 
d="M432 807c8 0 29 1 42 1c40 0 89 -4 94 -25c2 -8 7 -4 7 -19c0 -11 -11 -34 -21 -41c-7 -5 -20 -7 -34 -7c-17 0 -37 2 -51 2c-49 0 -53 0 -66 -31c-74 -175 -165 -497 -246 -727c-13 -37 -13 -51 -13 -55c0 -9 4 -10 19 -10c24 0 62 4 86 4c10 0 46 0 46 -38
c0 -16 -7 -32 -11 -37c-15 -19 -32 -21 -61 -21h-33c-14 0 -56 0 -94 3c-49 4 -75 66 -75 80c0 22 4 37 21 88l218 657c58 176 73 176 172 176z" />
    <glyph glyph-name="backslash" unicode="\" horiz-adv-x="374" 
d="M265 680c11 -10 14 -23 14 -37c0 -21 -8 -43 -8 -59c0 -23 1 -44 4 -67c17 -131 49 -298 71 -467c5 -39 7 -58 7 -87c0 -23 -1 -31 -12 -31c-7 0 -18 -11 -37 -11c-7 0 -14 2 -22 5c-31 12 -35 58 -35 68c0 11 -1 31 -5 60l-75 508c-3 20 -4 59 -4 70c0 13 0 25 2 31
c6 19 10 33 40 33c10 0 13 -1 18 -1c12 0 29 -4 42 -15z" />
    <glyph glyph-name="bracketright" unicode="]" horiz-adv-x="326" 
d="M304 704c0 9 -7 11 -30 11c-25 0 -55 -3 -76 -3c-25 0 -44 10 -44 39c0 12 3 38 30 50c11 5 37 6 66 6c39 0 83 -2 102 -3c24 0 44 -22 52 -32c17 -21 23 -41 23 -59c0 -16 -12 -52 -20 -76l-219 -656c-43 -130 -63 -158 -91 -168c-27 -10 -62 -10 -117 -10
c-34 0 -97 1 -100 24c-1 7 -7 11 -7 19c0 13 12 35 21 42c6 5 20 7 34 7c18 0 37 -2 52 -2c47 0 53 0 66 30c76 175 167 499 246 728c10 29 12 47 12 53z" />
    <glyph glyph-name="asciicircum" unicode="^" horiz-adv-x="550" 
d="M439 587c-2 4 -4 5 -6 5s-5 -1 -8 -3c-127 -76 -144 -89 -154 -98c-4 -5 -10 -7 -16 -7c-16 0 -34 12 -45 25c-4 5 -10 13 -10 28c0 20 8 27 10 33s8 11 51 32l171 84c8 4 16 6 25 6c17 0 33 -9 41 -21c4 -6 11 -10 14 -17l85 -186c6 -12 10 -20 10 -27
c0 -6 -2 -12 -10 -15c-7 -3 -14 -21 -32 -21c-13 0 -35 9 -45 29z" />
    <glyph glyph-name="underscore" unicode="_" horiz-adv-x="626" 
d="M-119 -96h700v-64h-700v64z" />
    <glyph glyph-name="grave" unicode="`" horiz-adv-x="510" 
d="M356 838c8 -7 40 -30 47 -35l85 -59c23 -16 29 -21 29 -30c0 -7 -6 -20 -6 -31c0 -9 -12 -17 -23 -17c-13 0 -29 5 -43 14l-100 64c-21 13 -38 21 -50 26c-20 8 -20 22 -20 40c0 14 16 46 42 46c12 0 17 -6 20 -6c2 0 9 -4 19 -12z" />
    <glyph glyph-name="a" unicode="a" horiz-adv-x="468" 
d="M320 124c-2 0 -4 -2 -11 -9l-42 -40c-63 -60 -117 -79 -141 -79c-9 0 -19 3 -33 12c-11 7 -26 18 -49 37c-17 14 -26 35 -26 58c0 59 65 200 203 300c49 35 100 62 159 78c11 3 18 4 27 4c28 0 54 -14 74 -34c7 -7 13 -15 17 -23c2 -4 5 -8 17 -11c24 -6 36 -14 36 -27
c0 -4 -1 -10 -4 -14c-44 -58 -95 -131 -114 -205c-6 -24 -13 -54 -13 -84c0 -25 4 -50 19 -72c2 -3 3 -8 3 -10c0 -9 -9 -17 -27 -19c-8 -1 -11 -4 -22 -4c-23 0 -50 12 -58 28c-14 29 -15 61 -15 69c0 29 2 39 2 42c0 2 0 3 -2 3zM423 407c-5 0 -13 -3 -20 -7
c-91 -47 -164 -101 -219 -168c-6 -9 -73 -97 -73 -136c0 -7 1 -14 6 -14c4 0 21 7 39 24c84 80 193 150 242 244c7 12 17 25 28 36c4 4 6 9 6 12c0 5 -3 9 -9 9z" />
    <glyph glyph-name="b" unicode="b" horiz-adv-x="386" 
d="M180 101c56 72 76 118 97 196c4 15 4 26 4 35c0 33 -16 35 -16 68c0 12 18 52 37 52c6 0 13 -2 21 -8c5 -4 18 -17 25 -26c17 -22 29 -26 37 -26c37 0 85 11 143 26c16 4 30 7 35 7c7 0 12 -2 16 -2c16 0 39 -19 39 -40c0 -9 -4 -16 -14 -18c-55 -9 -132 -51 -193 -51
c-10 0 -20 2 -27 2c-2 0 -5 -2 -5 -4c0 -5 1 -13 1 -19c0 -12 -4 -17 -7 -36c-7 -42 -28 -72 -42 -106c-12 -29 -77 -151 -166 -151c-10 0 -20 0 -35 6c-16 6 -60 26 -69 58c-5 18 -7 36 -7 54c0 36 18 111 52 191c64 151 140 275 225 422c10 17 27 44 65 44
c11 0 23 -1 40 -7c26 -10 27 -22 28 -35c0 -33 -35 -43 -54 -74c-52 -84 -120 -175 -150 -245c-42 -99 -105 -194 -105 -305c0 -18 1 -24 5 -24s10 3 20 16z" />
    <glyph glyph-name="c" unicode="c" horiz-adv-x="346" 
d="M295 360c11 20 13 24 13 26c0 3 -2 3 -4 3s-78 -90 -117 -160c-9 -16 -57 -108 -57 -147c0 -9 1 -11 10 -11c27 0 70 22 121 60c64 48 101 67 126 67c13 0 28 -6 41 -20c7 -8 9 -11 9 -18c0 -3 -3 -7 -3 -9c0 -6 0 -9 -11 -13c-18 -6 -42 -21 -107 -74
c-49 -40 -104 -74 -152 -74c-65 0 -113 46 -118 56c-8 16 -11 31 -11 47c0 27 8 51 17 75c3 8 4 24 11 39c14 30 100 197 179 252c23 16 33 17 49 17c44 0 116 -32 123 -56c2 -7 3 -13 3 -19c0 -17 -34 -78 -34 -103c0 -13 -12 -21 -26 -21c-13 0 -24 3 -37 13l-23 18
c-8 7 -11 12 -11 22s5 23 9 30z" />
    <glyph glyph-name="d" unicode="d" horiz-adv-x="496" 
d="M407 423c99 106 135 216 226 343c10 14 18 14 30 14c30 0 64 -25 64 -44c0 -23 -6 -38 -19 -56c-9 -12 -12 -25 -23 -42c-57 -91 -137 -201 -164 -278l-15 -43c-58 -165 -74 -236 -74 -271s8 -47 8 -54c0 -9 -14 -22 -19 -26c-6 -5 -14 -8 -23 -8c-26 0 -57 18 -59 28
c-4 19 -5 38 -5 57c0 44 11 94 27 141c5 15 8 24 8 27c0 1 -1 2 -2 2c-2 0 -8 -7 -21 -23c-54 -68 -119 -138 -196 -183c-12 -7 -26 -8 -36 -8c-27 0 -80 26 -87 37c-12 20 -16 40 -16 60c0 38 18 74 34 104c25 47 159 245 288 245c13 0 30 -1 41 -7c18 -10 21 -8 33 -15z
M363 367c0 2 -2 5 -6 5c-5 0 -13 -3 -18 -5c-92 -48 -170 -136 -219 -241c-7 -15 -8 -23 -8 -26c0 -2 2 -5 3 -5c2 0 6 1 11 5c83 66 153 152 218 237c8 12 19 16 19 30z" />
    <glyph glyph-name="e" unicode="e" horiz-adv-x="366" 
d="M411 98c-30 -28 -72 -59 -148 -102c-14 -8 -27 -11 -44 -11c-30 0 -63 13 -109 37c-25 13 -43 41 -54 73c-8 23 -13 47 -13 70c0 14 2 27 6 41c29 101 95 187 169 266c22 23 61 47 114 47c20 0 45 -4 67 -12c31 -11 40 -41 40 -67c0 -40 -30 -95 -53 -123
c-62 -76 -134 -152 -222 -205c-10 -6 -11 -7 -11 -12c0 -6 9 -25 18 -29c6 -3 12 -5 19 -5c30 0 67 26 79 33c62 36 105 89 156 119c10 6 18 8 26 8c20 0 37 -14 37 -29c0 -19 0 -22 -7 -29c-23 -20 -40 -42 -70 -70zM331 429c0 5 -2 6 -5 6c-5 0 -19 -8 -42 -31
c-42 -42 -80 -85 -111 -150c-10 -21 -11 -25 -11 -28c0 -2 2 -3 3 -3c2 0 4 0 17 12c47 43 83 82 112 121c15 20 10 20 22 39s15 25 15 34z" />
    <glyph glyph-name="f" unicode="f" horiz-adv-x="268" 
d="M436 418c31 0 49 -15 49 -29c0 -11 -10 -21 -38 -32c-42 -17 -88 -44 -130 -51c-6 -1 -13 -4 -21 -8c-17 -8 -63 -16 -70 -37c-43 -128 -95 -259 -107 -406c-1 -12 -15 -26 -31 -32c-14 -5 -26 -11 -40 -11c-9 0 -17 2 -29 12c-9 7 -16 13 -16 45c0 50 24 79 37 149
c5 26 24 84 43 141c33 99 34 109 34 117c0 16 -39 39 -46 64c-3 10 -5 17 -5 25c0 12 5 24 23 24c5 0 11 -1 18 -3c11 -4 25 -11 38 -11c7 0 11 7 12 10c69 165 104 245 158 332c8 13 33 25 59 25c31 0 58 -24 58 -47c0 -22 -26 -35 -29 -56c-1 -7 -3 -14 -5 -19
c-28 -59 -89 -105 -106 -167c-3 -11 -5 -17 -11 -31c-6 -15 -20 -41 -20 -45c0 -3 1 -4 3 -4c14 0 46 11 77 24c29 12 60 21 95 21z" />
    <glyph glyph-name="g" unicode="g" horiz-adv-x="422" 
d="M205 87c-17 -17 -56 -43 -91 -43c-11 0 -22 1 -34 7c-24 12 -67 45 -71 61c-2 8 -3 15 -3 22c0 26 17 72 38 107c19 31 47 68 88 113c25 27 87 91 153 116c13 5 29 11 53 11c45 0 92 -29 106 -49c10 -14 10 -27 10 -42c0 -12 0 -25 -6 -35c-52 -90 -86 -157 -106 -198
c-7 -14 -9 -19 -9 -21c0 -1 0 -2 1 -2c2 0 4 1 20 14c41 34 77 58 115 80c17 10 19 11 31 11c32 0 48 -21 48 -34c0 -8 -2 -15 -9 -21c-182 -135 -276 -223 -326 -340c-34 -79 -71 -170 -82 -191c-21 -39 -39 -46 -84 -46c-25 0 -57 15 -64 38c-2 6 -2 11 -2 17
c0 46 34 94 66 139l87 123c26 36 43 72 80 150c8 17 9 23 9 25c0 1 0 2 -1 2c-2 0 -7 -4 -17 -14zM116 141c3 0 11 5 18 10c80 55 162 150 219 231c7 10 9 14 9 16c0 7 -4 9 -11 9c-8 0 -13 -3 -37 -20c-18 -13 -25 -13 -41 -28c-49 -46 -129 -137 -154 -199
c-4 -10 -5 -14 -5 -16c0 -1 0 -3 2 -3z" />
    <glyph glyph-name="h" unicode="h" horiz-adv-x="418" 
d="M287 229c-51 -70 -101 -153 -145 -204c-12 -14 -36 -26 -57 -26c-6 0 -11 1 -17 3c-32 11 -56 28 -56 46c0 9 8 17 10 26c29 132 98 254 163 394c23 50 30 64 38 78c46 81 81 141 129 237c6 12 16 17 33 17c6 0 10 0 21 -2c23 -4 31 -6 44 -20c7 -8 11 -18 11 -27
c0 -23 -24 -51 -30 -58c-16 -18 -21 -25 -37 -47c-64 -88 -127 -224 -206 -393c-7 -15 -9 -21 -9 -24c0 -1 0 -2 1 -2c2 0 7 3 12 10c47 66 114 151 162 199c15 15 25 24 29 25c10 3 22 6 29 6c11 0 36 -5 46 -9c16 -6 22 -19 22 -32c0 -20 -13 -46 -29 -74
c-13 -22 -15 -32 -26 -59c-26 -64 -50 -143 -50 -210c0 -31 3 -57 26 -60c7 -1 29 -5 29 -17c0 -5 -1 -8 -5 -16c-5 -10 -37 -26 -59 -26c-6 0 -25 2 -40 8c-47 19 -56 63 -56 101c0 51 8 95 31 156c3 8 4 11 4 14c0 2 -1 3 -2 3c-2 0 -5 -2 -16 -17z" />
    <glyph glyph-name="i" unicode="i" horiz-adv-x="220" 
d="M207 109c12 8 28 23 53 23c36 0 47 -15 47 -29c0 -8 -1 -17 -16 -31l-41 -38c-17 -15 -59 -48 -101 -48c-23 0 -46 8 -67 32c-16 18 -37 47 -37 96c0 28 7 55 16 81c7 19 11 35 17 49c31 72 59 142 95 217c11 23 34 30 57 30c12 0 30 -1 46 -12c6 -4 11 -15 11 -25
c0 -40 -54 -98 -64 -121c-16 -37 -44 -104 -58 -139c-4 -10 -23 -63 -23 -97c0 -12 0 -20 8 -20c9 0 25 9 57 32zM317 704c18 0 45 -6 58 -19c9 -9 13 -23 13 -35c0 -8 -2 -17 -6 -21c-11 -11 -38 -50 -70 -50c-31 0 -51 17 -56 27c-6 11 -8 23 -8 36c0 16 4 32 13 43
c11 13 32 19 56 19z" />
    <glyph glyph-name="j" unicode="j" horiz-adv-x="238" 
d="M206 233c23 21 45 38 59 47c7 4 20 13 36 13c21 0 36 -3 36 -22c0 -12 -4 -27 -13 -35c-14 -13 -25 -22 -33 -29c-70 -61 -126 -134 -180 -210c-14 -19 -26 -42 -32 -56c-40 -101 -68 -188 -111 -296c-6 -15 -21 -39 -48 -39c-14 0 -25 6 -36 9c-28 8 -36 32 -36 51
c0 11 3 21 5 27c51 131 130 243 167 369c5 17 9 26 23 64c36 99 79 199 110 302c3 10 11 17 19 24c11 9 19 10 44 10c14 0 33 -2 41 -11c6 -7 13 -17 13 -26c0 -6 -4 -12 -9 -22c-26 -53 -45 -98 -69 -155c-5 -12 -8 -21 -8 -26c0 -2 0 -3 2 -3c3 0 7 2 20 14zM381 640
c0 -35 -25 -33 -31 -53c-7 -22 -18 -25 -35 -25c-25 0 -60 15 -73 39c-6 11 -9 34 -9 44c0 4 2 10 7 16c12 14 34 29 62 29c18 0 37 -6 59 -24c12 -10 20 -19 20 -26z" />
    <glyph glyph-name="k" unicode="k" horiz-adv-x="376" 
d="M263 373c58 43 92 71 122 118c7 11 25 35 55 35c12 0 25 -5 41 -14c14 -8 23 -16 23 -23c0 -16 -28 -56 -45 -69s-17 -20 -28 -29c-48 -39 -111 -84 -157 -112c-5 -3 -6 -7 -6 -11c0 -5 4 -12 5 -16c2 -10 8 -24 16 -50c6 -19 48 -105 56 -116c23 -30 35 -40 59 -52
c10 -5 15 -6 20 -6c15 0 20 -11 20 -19s-4 -16 -10 -20l-15 -13c-6 -6 -16 -10 -32 -10c-36 0 -68 16 -100 48c-7 7 -15 10 -24 25c-38 68 -60 124 -73 162c-5 15 -6 17 -9 17s-6 -5 -11 -20c-12 -33 -25 -74 -33 -112c-4 -18 -4 -32 -11 -52c-6 -18 -16 -34 -34 -34
c-10 0 -18 -3 -28 -3c-12 0 -21 2 -32 11c-9 6 -16 16 -16 31c0 9 0 13 10 44c66 203 161 400 245 599c8 19 10 27 13 34c5 12 8 14 23 14c7 0 18 -1 34 -3c39 -5 51 -22 51 -41c0 -20 -12 -42 -22 -56c-18 -25 -27 -39 -33 -49c-36 -60 -61 -132 -92 -199
c-6 -13 -8 -18 -8 -21c0 -1 0 -2 2 -2c4 0 8 2 24 14z" />
    <glyph glyph-name="l" unicode="l" horiz-adv-x="232" 
d="M142 61c2 0 5 1 8 3c57 38 91 110 143 110c14 0 50 -9 50 -32c0 -14 -10 -20 -19 -29c-22 -23 -92 -131 -167 -131c-6 0 -12 1 -18 2c-37 8 -65 25 -83 44c-20 21 -24 36 -24 67c0 54 22 103 41 152c44 111 130 268 205 395c11 18 21 87 68 87c13 0 23 1 34 1
c20 0 38 -8 42 -17c5 -11 9 -20 9 -31c0 -13 -4 -25 -11 -36c-90 -143 -191 -274 -250 -427c-17 -44 -37 -74 -37 -136c0 -18 5 -22 9 -22z" />
    <glyph glyph-name="m" unicode="m" horiz-adv-x="684" 
d="M141 96c93 56 170 156 210 254c4 10 13 21 21 27c12 9 29 16 47 16s42 -8 60 -26c3 -3 6 -9 6 -13s-2 -9 -4 -14c-18 -47 -60 -87 -84 -134c-33 -64 -43 -102 -43 -117c0 -5 1 -8 3 -8s6 2 11 5c9 5 22 16 28 23c67 79 164 139 197 231c5 15 22 41 56 41c5 0 10 0 17 -2
c8 -2 13 -7 21 -8c27 -3 32 -8 41 -25c3 -6 5 -11 5 -16c0 -19 -26 -27 -36 -44c-31 -51 -68 -113 -68 -178c0 -31 8 -62 29 -93c4 -6 7 -9 10 -11c13 -9 15 -14 15 -21c0 -12 -12 -22 -33 -22c-5 0 -14 2 -43 8c-25 5 -44 34 -57 63c-7 15 -14 39 -16 52c-3 21 -4 21 -7 21
s-8 -5 -19 -17c-31 -33 -82 -87 -149 -87c-18 0 -37 4 -58 14c-29 14 -41 24 -47 38c-2 5 -3 7 -5 7c-3 0 -7 -3 -11 -7c-11 -9 -26 -20 -35 -26c-24 -16 -52 -31 -66 -31c-43 0 -98 21 -106 50c-5 18 -6 33 -6 49c0 90 62 157 99 242c23 52 36 59 51 103c8 24 42 34 71 34
c24 0 46 -8 49 -22c0 -24 -1 -36 -11 -50c-61 -86 -105 -154 -151 -276c-9 -24 -11 -33 -11 -35s1 -3 3 -3s6 2 16 8z" />
    <glyph glyph-name="n" unicode="n" horiz-adv-x="420" 
d="M134 115c41 59 84 112 130 160c61 63 72 75 80 93c14 32 20 46 41 46s27 -8 38 -9c28 -3 35 -27 35 -37c0 -4 -6 -19 -10 -26c-35 -58 -53 -96 -68 -145c-6 -19 -12 -68 -12 -88c0 -7 2 -21 7 -40c2 -8 7 -15 31 -31c12 -8 18 -20 18 -31c0 -13 -11 -25 -33 -25
c-20 0 -52 4 -66 18s-32 23 -41 36c-13 19 -17 45 -17 68c0 7 1 22 1 26c0 3 -1 4 -2 4c-2 0 -4 -2 -14 -16l-52 -72c-17 -24 -27 -24 -40 -39c-7 -8 -20 -14 -37 -14c-10 0 -25 4 -32 8c-22 12 -50 31 -61 45c-4 5 -9 18 -9 29c0 22 9 43 11 62c3 28 34 97 49 133
c29 69 52 116 96 182c5 7 9 17 16 23c8 7 26 11 45 11c22 0 43 -6 51 -23c4 -8 5 -16 5 -23c0 -16 -13 -33 -26 -48c-22 -24 -41 -48 -68 -99c-12 -22 -35 -72 -66 -153c-11 -29 -12 -32 -12 -34c0 -1 0 -2 1 -2s4 1 11 11z" />
    <glyph glyph-name="o" unicode="o" horiz-adv-x="368" 
d="M354 455c15 -39 21 -46 44 -46c15 0 37 3 74 3c47 0 78 -18 78 -35c0 -10 -8 -14 -18 -18c-14 -5 -12 -10 -27 -13c-25 -4 -46 -13 -73 -17c-14 -2 -27 -2 -37 -2c-4 0 -7 -3 -9 -11c-26 -106 -60 -190 -122 -258c-24 -26 -55 -61 -98 -61c-11 0 -23 3 -33 8
c-39 19 -71 43 -80 67c-11 28 -15 55 -15 82c0 81 42 156 86 222c7 11 17 19 24 29c30 43 73 94 123 94c21 0 47 -6 68 -24c9 -8 12 -12 15 -20zM270 403c-3 0 -9 -1 -17 -12c-49 -64 -123 -180 -123 -258c0 -5 1 -18 5 -29c3 -8 11 -21 16 -21c6 0 13 3 25 21
c54 81 109 161 109 258c0 11 0 25 -4 28c-5 4 -7 7 -8 10c-1 2 -2 3 -3 3z" />
    <glyph glyph-name="p" unicode="p" horiz-adv-x="440" 
d="M162 94c-4 0 -8 -7 -18 -27c-48 -97 -89 -221 -109 -300c-2 -9 -1 -27 -4 -35s-41 -16 -48 -16c-17 0 -36 3 -45 19c-7 13 -14 15 -14 31c0 4 1 9 4 19c61 204 177 440 219 674c2 11 5 20 32 30c8 3 16 4 25 4c25 0 50 -11 50 -28c0 -26 -6 -42 -12 -66
c-3 -13 -4 -19 -4 -21c0 -3 0 -4 2 -4s5 2 14 12c29 32 52 54 82 71c11 6 19 7 29 7c9 0 31 0 88 -38c20 -13 26 -36 26 -58s-5 -40 -8 -50c-2 -7 1 -22 -5 -38c-33 -87 -63 -192 -142 -262c-7 -6 -18 -9 -30 -9c-20 0 -74 6 -118 71c-9 14 -10 14 -14 14zM343 349
c-47 -41 -84 -87 -114 -136c-3 -5 -6 -14 -6 -24c0 -25 11 -57 27 -80c5 -7 9 -9 11 -9c3 0 6 1 11 7c30 36 56 109 61 123c16 50 26 84 31 109c3 14 4 19 4 22s0 4 -2 4c-4 0 -9 -4 -23 -16z" />
    <glyph glyph-name="q" unicode="q" horiz-adv-x="386" 
d="M144 38c-7 -2 -18 -3 -23 -3c-18 0 -43 8 -54 15l-14 9c-28 18 -37 46 -37 71c0 18 4 34 9 46c49 129 165 248 287 286c19 6 31 8 49 8c46 0 96 -23 96 -65c0 -21 -15 -40 -26 -58c-3 -5 -3 -7 -3 -10c0 -13 8 -11 8 -21c0 -4 -1 -7 -7 -15
c-127 -169 -212 -378 -275 -592c-3 -10 1 -36 -10 -67c-7 -20 -15 -35 -34 -35c-31 0 -55 16 -68 25c-7 5 -7 9 -7 17c0 4 3 19 12 54c15 60 35 120 55 177c8 23 12 34 14 42c12 49 23 61 37 96c6 15 6 17 6 19s-1 3 -3 3s-4 0 -12 -2zM340 384c-11 -8 -14 -4 -27 -12
c-78 -48 -171 -140 -197 -222c-5 -14 -7 -28 -7 -34c0 -3 1 -7 6 -7c2 0 7 1 29 15c59 37 120 116 140 146c5 7 6 11 6 13c0 3 -5 4 -5 13c0 6 8 16 23 32c14 15 24 26 32 37c7 10 10 16 10 20c0 1 -1 2 -2 2c-2 0 -5 -1 -8 -3z" />
    <glyph glyph-name="r" unicode="r" horiz-adv-x="300" 
d="M228 353c2 0 5 2 10 6c32 24 94 65 127 65c32 0 66 -10 87 -34c7 -8 8 -15 8 -21c0 -12 -11 -47 -46 -47c-11 0 -32 9 -42 9c-5 0 -43 -19 -71 -37c-83 -53 -158 -133 -184 -251c-4 -18 -12 -31 -27 -44c-7 -6 -15 -8 -22 -8c-16 0 -27 7 -45 27c-11 12 -19 28 -19 40
c0 38 40 69 52 104c22 63 43 126 60 190c6 22 10 45 10 50c0 9 -9 13 -9 23c0 14 25 27 52 27c22 0 40 -11 43 -16c13 -22 16 -40 16 -54c0 -16 -2 -25 -2 -26c0 -2 1 -3 2 -3z" />
    <glyph glyph-name="s" unicode="s" horiz-adv-x="296" 
d="M258 421c-10 -12 -20 -26 -28 -41c-10 -18 -15 -35 -15 -58c0 -28 6 -84 20 -171c9 -56 17 -102 17 -126c0 -18 -37 -57 -83 -57c-9 0 -17 1 -29 6c-70 29 -118 82 -150 137c-4 7 -7 13 -7 18c0 13 16 40 49 40c10 0 18 -1 25 -4c15 -7 21 -12 24 -16
c16 -22 30 -57 52 -82c7 -8 11 -12 13 -12s2 1 2 3c0 4 -1 10 -13 77c-13 71 -23 165 -23 180c0 27 12 84 36 122c28 45 70 66 95 66c62 0 90 -18 112 -42c16 -17 21 -48 21 -67c0 -28 -8 -57 -29 -84c-9 -12 -12 -13 -22 -13c-19 0 -38 8 -49 17c-12 10 -17 23 -17 33
c0 5 1 10 3 13c5 9 17 31 17 48c0 6 -1 11 -3 15s-4 7 -7 7c-2 0 -5 -2 -11 -9z" />
    <glyph glyph-name="t" unicode="t" horiz-adv-x="262" 
d="M264 381c-2 -5 -3 -9 -3 -11c0 -1 1 -2 2 -2c2 0 6 1 10 2c42 10 90 27 119 46c6 4 10 5 18 5c23 0 65 -16 65 -35c0 -16 -14 -31 -35 -40c-27 -11 -27 -14 -45 -21c-46 -18 -104 -28 -151 -45c-17 -6 -23 -20 -32 -55c-4 -17 -10 -23 -12 -35c-5 -32 -39 -114 -45 -163
c-2 -17 -12 -49 -47 -49c-17 0 -37 7 -49 15s-15 22 -15 34c0 10 2 19 4 25c24 71 42 151 68 218c4 10 6 15 6 18s-1 4 -8 8c-28 16 -32 38 -57 58c-6 5 -9 9 -9 15c0 14 21 24 46 24c6 0 12 0 19 -2c17 -5 31 -13 39 -13c6 0 8 3 10 10c5 17 10 31 16 46
c24 60 50 136 82 207c5 11 9 15 20 17s17 5 25 5c16 0 35 -4 49 -9c13 -5 18 -11 18 -16c0 -3 -2 -15 -4 -24c-16 -72 -66 -148 -89 -198c-6 -13 -10 -22 -15 -35z" />
    <glyph glyph-name="u" unicode="u" horiz-adv-x="420" 
d="M251 50c-32 -34 -73 -68 -99 -68c-7 0 -44 5 -72 22c-38 23 -39 46 -39 79c0 35 13 79 23 113c8 27 10 45 16 62c21 58 33 121 69 184c11 20 29 30 50 30c16 0 44 -9 51 -24c4 -9 11 -17 11 -27c0 -9 -6 -21 -21 -32c-7 -5 -20 -14 -27 -43c-22 -87 -64 -184 -74 -255
c-1 -7 -2 -16 -2 -18s0 -5 2 -5c3 0 8 3 16 11c32 32 28 34 44 51c61 65 115 138 146 219c5 13 9 17 20 23c9 5 17 8 25 8c17 0 28 -10 36 -13c23 -9 29 -18 29 -29c0 -12 -2 -18 -6 -26c-30 -60 -61 -144 -72 -221c-4 -29 -6 -47 -6 -57c0 -15 2 -30 9 -47
c4 -10 10 -23 10 -35c0 -8 -3 -24 -28 -24c-17 0 -37 9 -52 19c-17 11 -20 5 -28 24s-10 39 -10 57c0 13 2 36 2 38s-1 3 -3 3s-3 -1 -20 -19z" />
    <glyph glyph-name="v" unicode="v" horiz-adv-x="378" 
d="M164 88c3 0 5 2 14 14c38 51 65 101 89 160c13 32 23 61 23 90c0 10 -4 21 -9 26c-10 10 -16 18 -16 33s13 27 39 27c33 0 54 -8 69 -33c10 -17 18 -25 32 -25c7 0 11 0 26 5c27 9 59 28 96 28c19 0 38 -5 59 -17c14 -8 19 -17 19 -25c0 -3 -2 -9 -11 -14
c-26 -15 -69 -28 -109 -39c-11 -3 -18 -5 -22 -7c-11 -5 -22 -6 -31 -6c-17 0 -29 5 -38 5c-3 0 -4 0 -7 -2c-6 -4 -7 -18 -10 -29c-24 -89 -71 -167 -130 -240c-20 -25 -26 -28 -38 -40c-9 -9 -26 -19 -45 -19c-28 0 -40 18 -60 31c-31 20 -35 26 -40 44c-4 13 -4 21 -4 32
c0 5 5 35 10 53c4 14 6 29 17 74c35 144 44 183 51 235c3 22 20 27 38 27c5 0 14 -2 20 -2c4 0 26 0 39 -13c9 -9 9 -18 9 -29c0 -30 -29 -90 -32 -107c-13 -75 -31 -138 -47 -212c-3 -14 -3 -20 -3 -22c0 -1 0 -3 2 -3z" />
    <glyph glyph-name="w" unicode="w" horiz-adv-x="540" 
d="M227 79c-3 0 -6 -10 -32 -36c-10 -10 -30 -28 -56 -28c-9 0 -19 3 -30 9c-52 26 -68 26 -68 65c0 4 1 10 5 27c28 119 89 234 106 349c1 7 13 18 22 21c6 2 23 5 39 5c41 0 58 -18 58 -34c0 -8 -4 -16 -8 -22c-6 -8 -10 -22 -13 -29c-27 -62 -67 -186 -83 -236
c-5 -16 -6 -20 -6 -22c0 -1 1 -2 2 -2c2 0 4 2 13 14c55 74 94 133 128 212c6 14 16 18 31 18c7 0 17 -2 23 -2c27 0 51 -18 51 -39c0 -14 -6 -25 -34 -73c-8 -14 -11 -20 -19 -49c-6 -21 -34 -101 -34 -143c0 -12 1 -19 6 -19c4 0 13 4 27 22c57 73 67 185 67 194
c0 14 4 26 4 37c0 23 -19 55 -19 80c0 10 2 18 12 26c7 6 37 9 49 9c21 0 31 -14 51 -28c13 -9 34 -12 55 -12c39 0 102 13 130 13c27 0 47 -8 47 -38c0 -15 -12 -25 -52 -35c-39 -10 -73 -26 -119 -26c-26 0 -49 6 -54 6c-3 0 -5 -1 -5 -5c0 -3 1 -21 1 -45
c0 -49 -27 -175 -115 -263c-14 -14 -35 -19 -50 -19c-28 0 -62 12 -97 32c-28 16 -31 31 -31 63c0 2 -1 3 -2 3z" />
    <glyph glyph-name="x" unicode="x" 
d="M241 319c3 0 6 2 17 11c9 7 101 78 131 100c11 8 15 9 29 9c45 0 65 -41 65 -56c0 -7 -10 -10 -17 -14c-73 -42 -136 -94 -199 -149c-17 -15 -18 -17 -18 -35c0 -75 12 -138 12 -204c0 -25 -3 -60 -5 -72c-2 -10 -14 -13 -29 -13c-7 0 -13 0 -20 1c-24 3 -18 6 -32 14
c-26 15 -27 21 -27 41c0 16 3 30 9 45c3 7 3 9 3 11s-1 9 -3 24c-1 11 -4 50 -4 58c0 6 0 10 -3 10c-2 0 -4 -1 -8 -6c-16 -19 -39 -42 -42 -59c-2 -11 -26 -37 -54 -37c-9 0 -22 5 -27 9c-23 18 -32 30 -32 42c0 9 4 16 10 23c46 52 96 103 137 154c9 11 9 19 9 31
c0 14 -6 97 -20 129c-8 18 -10 10 -17 19c-4 5 -6 10 -6 15c0 17 20 33 48 33c77 0 91 -97 91 -128c0 -4 0 -6 2 -6z" />
    <glyph glyph-name="y" unicode="y" horiz-adv-x="436" 
d="M152 114c2 0 6 1 12 5s29 15 64 56c12 14 21 21 36 39c31 38 79 68 125 192c3 9 13 34 36 34c13 0 21 -9 40 -10c14 -1 25 -2 34 -17c5 -8 7 -15 7 -21c0 -14 -6 -31 -19 -50l-24 -35c-25 -37 -39 -70 -59 -126l-54 -148c-7 -20 -8 -24 -8 -26s1 -4 6 -5
c8 -2 22 -8 22 -22c0 -9 -5 -18 -8 -22c-66 -88 -98 -183 -117 -276c-8 -40 -15 -111 -68 -117c-9 -1 -22 -3 -35 -3c-10 0 -21 2 -32 9c-14 9 -18 25 -18 41c0 29 15 64 19 73c23 52 52 112 84 168c6 30 37 128 62 207c3 10 5 16 5 18c0 3 -1 4 -3 4c-3 0 -11 -6 -26 -18
c-24 -19 -54 -36 -64 -36c-48 0 -86 17 -111 46c-7 8 -9 24 -9 35c0 57 33 157 39 174c20 56 47 113 64 174c4 14 21 33 43 33c4 0 7 0 12 -1c17 -3 33 -4 46 -13c9 -6 14 -18 14 -28c0 -14 -6 -27 -11 -36c-7 -13 -19 -24 -25 -37c-34 -74 -44 -123 -69 -200
c-8 -25 -13 -45 -13 -57c0 -3 1 -4 3 -4z" />
    <glyph glyph-name="z" unicode="z" horiz-adv-x="384" 
d="M377 307c0 -2 2 -3 14 -5c24 -4 52 -17 62 -29c7 -8 10 -13 10 -20c0 -8 -9 -18 -31 -18c-32 0 -103 -10 -161 -28c-30 -9 -31 -10 -66 -47c-25 -27 -51 -56 -67 -72c-6 -6 -11 -12 -11 -20c0 -5 1 -8 7 -11c9 -4 15 -5 20 -5c7 0 14 2 24 5c9 3 24 7 38 7
c34 0 73 38 118 38c18 0 36 -6 56 -23c7 -6 11 -13 11 -19s-5 -15 -15 -19c-55 -22 -133 -60 -215 -60c-41 0 -83 12 -114 30c-26 15 -35 43 -35 66c0 11 1 20 4 26c12 27 35 49 56 73c7 8 14 14 14 17c0 2 -3 3 -6 4c-17 6 -28 12 -35 26c-8 16 -12 24 -12 34
c0 13 14 24 36 24c27 0 41 -14 70 -14c57 0 92 67 130 87c29 15 43 38 43 40s-1 3 -3 3c-3 0 -6 -1 -12 -3c-11 -4 -20 -6 -29 -7c-34 -4 -63 -21 -86 -47c-3 -3 -7 -5 -12 -5c-27 0 -55 27 -55 62c0 16 7 31 24 35c46 11 105 32 161 32c41 0 89 -14 102 -29
c9 -11 23 -18 27 -30c3 -8 4 -15 4 -21c0 -30 -28 -49 -58 -70c-6 -4 -8 -5 -8 -7z" />
    <glyph glyph-name="braceleft" unicode="{" horiz-adv-x="346" 
d="M228 300c30 -5 44 -25 44 -52c0 -19 -3 -45 -10 -66l-68 -216c-6 -19 -10 -35 -10 -43c0 -9 2 -17 10 -24s16 -8 27 -8c10 0 20 1 30 1c15 0 30 -3 39 -15c7 -9 9 -16 9 -23c0 -13 -9 -24 -19 -34c-12 -12 -1 -20 -53 -20c-110 0 -159 55 -159 110c0 22 4 46 9 61l64 204
c14 44 19 62 19 67c0 16 -5 17 -31 17c-11 0 -28 1 -37 6c-8 4 -5 7 -9 14s-9 5 -9 19c0 4 3 13 6 23c8 25 14 29 59 29c49 0 65 17 95 106l72 213c32 93 82 140 195 140c25 0 71 -1 71 -23c0 -6 7 -12 7 -20c0 -7 -1 -11 -5 -18c-12 -24 -13 -26 -55 -26
c-69 0 -85 -22 -105 -73c-28 -70 -48 -137 -78 -233c-18 -57 -34 -104 -108 -116z" />
    <glyph glyph-name="bar" unicode="|" horiz-adv-x="270" 
d="M412 777c9 -8 12 -16 12 -25c0 -18 -15 -37 -27 -49c-8 -8 -12 -16 -25 -48c-76 -188 -177 -546 -254 -761c-9 -25 -9 -32 -20 -55c-18 -37 -24 -37 -36 -37c-16 0 -34 4 -46 14c-14 11 -30 10 -30 27c0 18 3 32 7 44c4 13 17 31 23 49l258 774c23 68 36 96 75 96
c31 0 42 -10 63 -29z" />
    <glyph glyph-name="braceright" unicode="}" horiz-adv-x="346" 
d="M221 310c-17 4 -37 16 -37 55c0 15 3 35 11 60l70 220c9 29 14 48 14 52c0 16 -9 21 -41 21c-48 0 -80 2 -80 31c0 18 11 30 17 47c4 12 38 13 66 13h27c47 0 123 -32 123 -107c0 -35 -16 -83 -21 -98l-57 -171c-12 -36 -17 -51 -17 -67c0 -14 10 -16 42 -16
c14 0 29 -1 39 -9c6 -5 8 -11 8 -18c0 -18 -14 -40 -19 -51c-6 -12 -21 -14 -49 -14s-62 -8 -95 -106l-71 -210c-27 -81 -47 -142 -198 -142c-32 0 -79 0 -79 28c0 21 11 28 16 46c5 16 24 17 40 17c86 0 90 6 109 62l79 238c27 80 35 107 103 119z" />
    <glyph glyph-name="asciitilde" unicode="~" horiz-adv-x="550" 
d="M564 326c5 -11 12 -11 12 -20s-4 -17 -13 -25c-35 -32 -94 -77 -139 -77c-69 0 -96 28 -130 65c-14 15 -28 27 -41 27c-20 0 -42 -19 -61 -35c-8 -7 -21 -14 -49 -14c-37 0 -34 20 -41 36c-4 9 -11 8 -11 20c0 10 5 18 12 24c16 14 85 63 152 63c22 0 43 -4 63 -18
c30 -21 43 -45 70 -66c10 -8 20 -11 29 -11c41 0 75 57 99 57c30 0 44 -16 48 -26z" />
    <glyph glyph-name="uni00A0" unicode="&#xa0;" horiz-adv-x="246" 
 />
    <glyph glyph-name="exclamdown" unicode="&#xa1;" horiz-adv-x="320" 
d="M70 -138c0 25 5 49 11 66c4 11 7 14 15 22c3 3 5 11 7 19c27 110 42 133 90 302c4 14 11 23 27 23c7 0 11 -1 22 -4c29 -8 49 -43 49 -56c0 -7 -4 -22 -7 -30c-7 -19 -2 -16 -9 -38c-37 -115 -53 -171 -60 -205c-7 -33 -6 -39 -15 -65c-10 -30 -25 -70 -28 -86
c-1 -6 -9 -12 -27 -12c-35 0 -35 14 -54 23c-20 10 -21 23 -21 41zM318 470c12 -1 36 -14 36 -34c0 -11 -3 -19 -11 -38c-12 -29 -22 -36 -64 -36c-21 0 -36 4 -46 24c-5 10 -8 24 -8 33c0 18 7 34 15 49c5 9 13 12 23 12c22 0 38 -9 55 -10z" />
    <glyph glyph-name="cent" unicode="&#xa2;" horiz-adv-x="434" 
d="M360 379c-2 0 -3 -1 -7 -12c-17 -47 -68 -206 -89 -275c-3 -10 -4 -14 -4 -16c0 -3 1 -4 4 -4c2 0 6 1 13 4c28 12 32 26 46 36c25 18 52 30 73 30c11 0 27 -5 37 -13c11 -9 17 -16 17 -24c0 -7 -5 -16 -21 -27c-82 -56 -126 -74 -151 -81c-11 -3 -27 -5 -34 -5
c-5 0 -9 -3 -11 -8l-18 -52c-7 -20 -21 -32 -34 -32c-17 0 -31 16 -41 24c-13 10 -16 17 -16 25c0 9 2 14 8 23c7 10 13 24 14 27c2 5 2 6 2 7c0 2 -1 2 -6 4c-59 24 -95 85 -95 130c0 17 1 63 18 102c49 112 92 156 132 186c37 28 61 40 93 40c4 0 10 1 12 8
c12 40 22 67 54 67c9 0 17 -2 23 -2c5 0 37 -6 37 -21c0 -5 -2 -10 -6 -15c-6 -8 -11 -14 -16 -25c-8 -17 -11 -24 -11 -28c0 -3 5 -5 15 -9s21 -10 29 -18c30 -30 43 -43 43 -70c0 -12 -14 -60 -17 -74c-5 -24 -7 -33 -14 -40c-5 -5 -14 -8 -25 -8c-37 0 -71 30 -71 47
c0 8 2 17 10 40c10 29 14 41 14 52c0 4 -3 7 -7 7zM251 356c-37 -50 -55 -82 -67 -115c-11 -31 -28 -69 -28 -106c0 -13 3 -29 8 -40c4 -8 6 -9 8 -9c3 0 4 2 9 18c29 94 62 193 82 252c2 6 3 10 3 12c0 1 0 2 -1 2c-3 0 -6 -3 -14 -14z" />
    <glyph glyph-name="sterling" unicode="&#xa3;" horiz-adv-x="490" 
d="M69 66v11c0 16 7 34 17 58l34 80c6 14 6 15 6 17s-1 3 -4 3c-17 0 -30 9 -35 18c-7 12 -4 23 -9 36c-4 10 -5 15 -5 20c0 12 10 15 41 15c5 0 26 2 48 5c7 1 9 2 11 7l13 29c115 257 197 290 283 290c16 0 51 -3 71 -27c24 -29 46 -43 46 -74c0 -25 -18 -59 -26 -85
c-5 -16 -7 -51 -41 -51c-10 0 -20 5 -36 9c-37 9 -40 20 -40 44c0 22 20 35 23 62c2 14 11 27 11 41c0 3 -1 5 -4 5s-8 -1 -19 -7c-39 -21 -91 -79 -134 -171l-14 -30c-6 -13 -7 -16 -7 -18s1 -3 3 -3c3 0 7 1 12 2c21 4 38 8 54 8c17 0 32 -5 49 -22c14 -14 19 -25 19 -37
c0 -27 -16 -24 -32 -28c-7 -2 -20 -5 -28 -5c-28 0 -77 -15 -105 -18c-19 -2 -20 -4 -26 -18c-27 -62 -48 -119 -59 -149c-3 -8 -4 -11 -4 -14c0 -2 2 -4 4 -4s8 1 28 5c57 11 164 33 173 40c7 6 34 9 57 9c11 0 19 0 27 -2c26 -7 33 -27 44 -38c12 -12 15 -15 15 -29
c0 -23 -15 -26 -35 -26c-29 0 -35 0 -43 -1c-87 -14 -167 -36 -255 -49c-21 -3 -91 -8 -118 -8c-9 0 -15 0 -23 1c-40 5 -39 33 -46 51c-4 10 -7 16 -7 22c0 14 17 25 36 25c5 0 22 -2 26 -2c3 0 4 1 4 3z" />
    <glyph glyph-name="currency" unicode="&#xa4;" horiz-adv-x="508" 
d="M310 478c8 2 18 2 25 2c22 0 40 -3 54 -8s18 -6 20 -6s4 1 9 7c24 28 70 67 100 88c13 9 24 11 37 11c25 0 47 -14 47 -35c0 -6 -3 -18 -7 -31c-3 -9 -12 -20 -24 -25c-21 -9 -74 -54 -84 -64c-3 -3 -5 -6 -5 -8s1 -4 3 -9c10 -26 14 -40 14 -64c0 -58 -34 -123 -64 -153
c-4 -4 -6 -7 -6 -10s30 -94 40 -102c7 -6 10 -15 10 -23c0 -20 -16 -21 -34 -33c-6 -4 -13 -6 -19 -6c-9 0 -22 4 -33 11c-15 10 -28 28 -28 37c0 8 -5 25 -21 67c-3 8 -4 9 -9 9c-2 0 -18 -5 -47 -5c-17 0 -34 2 -52 9c-5 2 -9 4 -12 4s-6 -3 -12 -9
c-53 -53 -111 -108 -129 -108c-35 0 -56 23 -56 41c0 8 9 46 28 49c7 1 99 80 99 94c0 3 -1 5 -4 11c-6 12 -11 29 -11 49c0 61 39 130 71 162c3 3 4 5 4 7s-1 4 -3 9c-17 40 -31 80 -31 117c0 31 18 53 48 53c9 0 20 -2 32 -9c24 -14 26 -21 26 -45c1 -4 2 -13 2 -18v-11
c0 -14 0 -19 10 -43c4 -9 6 -12 12 -12zM244 244c0 -4 1 -5 5 -7c7 -4 13 -14 16 -22c3 -7 0 -25 15 -25c4 0 12 1 20 5c40 20 55 52 75 80c9 13 23 47 23 73c0 8 -2 15 -6 19l-22 21c-7 7 -2 16 -7 21c-2 2 -8 2 -13 2c-32 0 -54 -32 -69 -56c-24 -37 -37 -82 -37 -111z
" />
    <glyph glyph-name="yen" unicode="&#xa5;" horiz-adv-x="474" 
d="M341 267c3 0 36 6 56 6c15 0 31 -2 43 -12c6 -5 9 -12 9 -17c0 -7 -3 -29 -10 -37c-6 -7 -2 -19 -22 -19c-5 0 -6 2 -30 2c-3 0 -28 -3 -46 -4c-13 -1 -43 -3 -46 -4c-4 -1 -6 -2 -8 -7c-6 -14 -7 -16 -7 -18c0 -3 2 -3 6 -3c7 0 60 7 87 7c13 0 31 -6 34 -10
c9 -12 11 -19 11 -26c0 -6 -1 -13 -9 -32c-5 -12 -10 -14 -19 -14c-8 0 -20 3 -35 3c-3 0 -14 -1 -31 -3c-9 -1 -59 -5 -66 -5c-3 0 -5 -2 -8 -10c-9 -24 -23 -77 -23 -81c0 -6 1 -11 1 -14c0 -14 -12 -16 -16 -51c-1 -9 -21 -23 -42 -23c-18 0 -22 8 -30 9
c-12 1 -40 14 -40 24c0 7 14 52 21 67c4 9 10 37 16 56c3 9 4 12 4 13c0 2 -1 3 -6 3c-3 0 -20 -1 -31 -1c-16 0 -34 1 -42 5c-19 10 -33 35 -33 51c0 11 6 12 7 18c2 10 12 11 22 11c28 0 34 -6 85 -6c19 0 24 0 26 6c3 10 5 17 5 19c0 3 -3 3 -6 3h-14c-22 0 -53 0 -67 4
c-17 8 -24 32 -24 49c0 9 0 16 9 23c5 4 6 12 25 12c10 0 47 -9 80 -9c14 0 18 0 18 9v122c0 59 3 95 3 122c0 16 -5 52 -5 81c0 16 1 30 6 37c7 9 22 10 29 11c17 2 23 2 28 2c18 0 27 -3 37 -12c9 -8 16 -35 16 -43c0 -31 -9 -157 -9 -193c0 -11 0 -16 2 -16s4 1 18 15
c44 44 111 115 120 125c31 34 50 59 58 92c4 17 -1 38 28 38c7 0 28 -4 37 -4c17 0 16 -8 24 -8c23 0 24 -24 24 -34c0 -25 -31 -84 -73 -126c-49 -49 -99 -99 -135 -137c-14 -15 -31 -31 -51 -48c-14 -12 -16 -14 -16 -16c0 -1 1 -2 5 -2z" />
    <glyph glyph-name="brokenbar" unicode="&#xa6;" horiz-adv-x="292" 
d="M212 102c-12 -14 -20 -28 -27 -47l-91 -238c-4 -10 -8 -17 -24 -17c-34 0 -30 17 -37 21c-22 12 -28 24 -28 36s6 22 10 34c10 30 7 35 12 49l70 208c13 40 25 59 48 59c28 0 18 -4 43 -8c32 -5 41 -25 41 -45c0 -22 -11 -45 -17 -52zM186 424l21 62
c69 197 71 202 89 234c4 7 14 11 26 11c20 0 27 -8 41 -11c31 -7 39 -22 39 -37c0 -13 -6 -26 -6 -35c0 -4 -2 -10 -9 -19c-17 -22 -29 -45 -44 -83c-17 -42 -54 -150 -59 -164c-2 -6 -9 -40 -22 -47c-4 -2 -9 -2 -14 -2c-16 0 -36 9 -41 19c-15 29 -30 23 -30 36
c0 7 4 20 9 36z" />
    <glyph glyph-name="section" unicode="&#xa7;" horiz-adv-x="406" 
d="M300 48c-14 -13 -57 -24 -60 -24s-4 -3 -4 -6c0 -5 2 -26 2 -54c0 -22 -3 -42 -15 -61c-17 -28 -32 -47 -67 -75c-16 -13 -41 -19 -77 -19c-96 0 -132 75 -132 125c0 21 7 38 17 43s27 23 49 23c8 0 16 -2 25 -8c24 -17 9 -106 52 -106c10 0 21 9 27 17
c13 17 19 37 19 60c0 38 -14 80 -32 131c-17 49 -28 85 -28 142c0 26 6 75 20 98c33 56 79 88 112 98c15 5 17 6 17 11c0 3 -7 23 -7 54c0 48 21 94 67 135c19 17 49 38 117 38c19 0 44 -7 59 -20c17 -15 34 -56 34 -85c0 -8 0 -25 -17 -31c-16 -6 -34 -17 -49 -17
c-4 0 -13 2 -17 4s-6 7 -10 17c-6 16 -5 26 -7 34c-5 22 -8 24 -16 24c-35 0 -54 -50 -54 -76c0 -48 26 -105 42 -141c21 -47 35 -99 35 -147c0 -53 -16 -102 -53 -139c-20 -20 -28 -25 -49 -45zM231 118c13 5 28 14 37 25c18 22 25 47 25 72c0 38 -17 83 -33 126
c-3 7 -4 11 -8 11c-2 0 -6 -2 -13 -6c-16 -9 -35 -26 -44 -46c-9 -19 -12 -33 -12 -48c0 -46 21 -100 29 -128c2 -7 3 -10 6 -10c2 0 6 1 13 4z" />
    <glyph glyph-name="dieresis" unicode="&#xa8;" horiz-adv-x="510" 
d="M371 821c8 -14 11 -26 11 -35c0 -23 -20 -38 -21 -48c-1 -7 -21 -21 -48 -21c-16 0 -32 5 -43 21c-9 13 -11 21 -11 24c0 5 0 10 1 18c1 10 9 35 13 41c9 15 22 20 44 20c15 0 45 -5 54 -20zM498 789c20 0 51 -9 55 -27c3 -14 12 -23 12 -39c0 -14 -19 -42 -30 -48
c-6 -3 -17 -5 -30 -5c-19 0 -39 7 -44 21c-5 15 -21 22 -21 46c0 11 9 53 39 53c3 0 12 -1 19 -1z" />
    <glyph glyph-name="copyright" unicode="&#xa9;" horiz-adv-x="796" 
d="M635 28c-65 -40 -129 -49 -209 -49c-50 0 -134 17 -183 52c-94 67 -130 138 -130 247c0 180 126 393 354 393c154 0 192 -36 267 -111c33 -33 82 -92 82 -203c0 -129 -75 -263 -181 -329zM715 383c0 154 -97 211 -213 211c-185 0 -296 -180 -296 -350
c0 -151 115 -192 202 -192c201 0 307 173 307 331zM483 214c33 40 47 53 72 53h21c12 0 23 -1 33 -8c11 -8 9 -13 11 -16c4 -6 5 -11 5 -15c0 -6 -4 -8 -8 -11s-13 -11 -21 -21c-46 -57 -88 -103 -150 -103c-13 0 -40 2 -49 4c-51 11 -90 34 -113 70c-16 25 -23 53 -23 82
c0 74 44 152 78 200c19 27 82 96 171 96c13 0 27 -2 42 -5c34 -7 62 -32 79 -49c8 -7 10 -17 10 -27c0 -25 -14 -53 -14 -70c0 -12 -18 -16 -39 -16c-14 0 -30 3 -40 6c-22 7 -29 17 -29 28c0 19 17 41 17 54c0 6 -2 9 -9 9c-53 0 -113 -102 -121 -119
c-16 -33 -41 -98 -41 -144c0 -30 10 -52 40 -52c17 0 39 7 78 54z" />
    <glyph glyph-name="ordfeminine" unicode="&#xaa;" horiz-adv-x="442" 
d="M327 342c-38 -35 -88 -75 -117 -75c-25 0 -91 22 -107 65c-4 10 -5 20 -5 30c0 54 45 114 75 154c9 12 118 128 218 128c20 0 40 -5 58 -16c29 -18 24 -23 43 -33c9 -5 16 -2 27 -11s15 -16 15 -23c0 -11 -11 -17 -18 -28l-9 -14c-25 -34 -65 -106 -65 -167
c0 -19 4 -37 14 -53c3 -5 7 -10 7 -14s-1 -18 -17 -21c-10 -2 -24 -8 -38 -8c-46 0 -59 43 -59 87c0 11 -1 13 -4 13s-7 -4 -18 -14zM302 153c-23 0 -95 -2 -198 -2c-49 0 -68 3 -75 36c-3 15 -8 14 -8 36c0 20 15 21 49 21c10 0 20 -4 28 -4c29 0 39 -6 67 -6
c23 0 141 6 242 6c46 0 41 -16 48 -25c9 -11 10 -16 10 -24c0 -12 -4 -25 -7 -29c-6 -9 -28 -10 -48 -10s-59 1 -108 1zM387 564c-86 -24 -159 -127 -184 -184c-4 -9 -7 -16 -7 -20c0 -2 1 -3 3 -3c3 0 9 3 21 11c55 37 149 115 161 146c5 13 15 24 25 36c6 7 8 11 8 14
c0 2 -2 4 -6 4c-3 0 -9 -1 -21 -4z" />
    <glyph glyph-name="guillemotleft" unicode="&#xab;" horiz-adv-x="410" 
d="M318 183l-63 93c-7 10 -8 18 -8 25c0 8 2 15 4 22c4 13 9 21 17 29l77 84c39 43 41 43 62 43c30 0 40 -17 45 -35c2 -8 12 -15 12 -25c0 -5 -1 -10 -7 -16c-18 -18 -18 -13 -40 -33l-50 -45c-5 -5 -9 -9 -9 -14c0 -4 2 -8 5 -14l37 -77c3 -6 4 -15 4 -22
c0 -10 -2 -19 -15 -28s-16 -17 -31 -17c-4 0 -9 0 -14 2c-16 5 -20 20 -26 28zM102 276c-6 8 -10 37 -10 44c0 10 5 25 17 38l65 74c41 46 43 48 58 48c17 0 36 -7 41 -21c3 -8 21 -21 21 -41c0 -17 -18 -26 -41 -49l-45 -44c-4 -4 -8 -9 -8 -13c0 -3 1 -6 3 -10
c19 -35 37 -66 42 -70c8 -7 11 -22 11 -39c0 -10 0 -12 -5 -19c-9 -12 -15 -21 -42 -21c-22 0 -34 22 -38 30s-64 86 -69 93z" />
    <glyph glyph-name="logicalnot" unicode="&#xac;" horiz-adv-x="590" 
d="M442 243c3 12 4 19 4 22c0 5 -4 6 -10 6c-9 0 -76 4 -161 4c-57 0 -46 -6 -113 -6c-22 0 -36 4 -38 11c-1 5 -4 9 -4 16c0 22 15 50 18 55c6 11 24 12 99 12c159 0 175 -3 207 -3c51 0 55 2 64 2c16 0 20 -2 34 -13s18 -20 18 -29c0 -6 -6 -17 -8 -25
c-18 -74 -27 -109 -30 -119l-7 -32c-6 -28 -8 -29 -49 -29c-6 0 -16 -2 -26 -2c-16 0 -29 7 -29 23c0 12 5 23 9 35c11 34 17 53 22 72z" />
    <glyph glyph-name="uni00AD" unicode="&#xad;" horiz-adv-x="456" 
d="M445 294c0 -41 -11 -55 -24 -60c-10 -4 -32 -5 -46 -9c-7 -2 -30 -3 -49 -3h-24c-60 0 -129 7 -149 7c-19 0 -25 7 -37 37c-3 8 -5 16 -5 24c0 23 13 32 44 32c59 0 106 -4 165 -4c14 0 42 3 74 3c35 0 51 -7 51 -27z" />
    <glyph glyph-name="registered" unicode="&#xae;" horiz-adv-x="658" 
d="M715 446c0 -93 -70 -310 -324 -310c-43 0 -100 17 -140 40c-95 55 -117 128 -117 191c0 131 98 331 284 331c87 0 141 -8 185 -56c10 -11 24 -21 35 -32c14 -12 31 -28 43 -50c24 -38 34 -67 34 -114zM623 468c0 93 -55 162 -170 162c-138 0 -223 -142 -223 -262
c0 -89 45 -165 149 -165c67 0 117 20 153 53c64 58 91 140 91 212zM376 343c-7 0 -14 -67 -14 -78c0 -8 -16 -15 -33 -15c-10 0 -19 2 -27 7c-11 7 -25 8 -25 20c0 2 1 9 3 24c7 55 34 155 64 216c-8 8 -17 19 -17 28c0 4 2 7 5 9c30 20 73 44 126 44c20 0 41 -5 64 -13
c16 -6 31 -24 34 -32c4 -12 6 -24 6 -36c0 -57 -39 -115 -120 -133c31 -64 44 -69 59 -74c10 -3 14 -6 16 -9c5 -8 7 -15 7 -25c0 -17 -11 -30 -42 -30c-26 0 -52 12 -67 31c-34 42 -34 66 -39 66zM468 539c-2 0 -5 0 -10 -1c-10 -2 -11 -4 -14 -10c-19 -38 -23 -49 -36 -86
c16 5 65 36 65 84c0 10 -2 13 -5 13z" />
    <glyph glyph-name="macron" unicode="&#xaf;" horiz-adv-x="510" 
d="M287 799c32 0 45 -3 133 -3c44 0 102 3 128 3c25 0 22 -13 29 -20c5 -5 6 -7 6 -10s-2 -6 -2 -12c0 -11 0 -21 -5 -31c-5 -9 -14 -12 -26 -12c-9 0 -21 1 -35 1s-74 -2 -131 -2c-48 0 -88 0 -108 6c-30 9 -31 46 -31 62c0 12 16 18 42 18z" />
    <glyph glyph-name="degree" unicode="&#xb0;" horiz-adv-x="384" 
d="M486 545c0 -31 -27 -116 -95 -175c-15 -13 -43 -24 -76 -24c-18 0 -36 2 -56 11c-75 34 -96 94 -96 133c0 25 6 63 61 131c28 35 62 57 114 57c29 0 62 -9 93 -32s55 -66 55 -101zM368 612c-5 0 -9 -1 -19 -10c-58 -53 -90 -107 -90 -151c0 -34 18 -44 24 -44s12 0 21 12
c62 82 87 118 87 148c0 8 -1 14 -6 26c-6 14 -11 19 -17 19z" />
    <glyph glyph-name="plusminus" unicode="&#xb1;" horiz-adv-x="590" 
d="M419 409c0 -2 2 -3 4 -3c36 0 74 10 110 10c39 0 57 -20 57 -36c0 -14 -11 -32 -14 -40s-7 -13 -17 -13c-5 0 -11 1 -16 1s-15 0 -31 -2c-31 -4 -72 -6 -111 -10c-10 -1 -12 -2 -14 -8c-3 -8 -22 -82 -30 -140c-2 -14 -11 -28 -37 -28c-6 0 -15 -2 -22 -2
c-35 0 -44 19 -44 24c0 19 10 64 22 118c3 14 4 19 4 21c0 3 -1 5 -5 5c-32 0 -100 5 -115 12c-25 12 -26 49 -26 65c0 7 5 11 10 15c8 6 15 9 25 9c6 0 12 -1 21 -3c10 -2 49 -6 81 -6c16 0 30 1 33 2c4 1 5 2 7 8c7 20 24 74 27 87c8 36 14 53 26 56c15 4 30 14 50 14
c7 0 45 -4 45 -22c0 -6 -1 -9 -8 -30l-13 -41c-6 -18 -19 -61 -19 -63zM521 83c0 -13 -4 -25 -8 -36c-3 -8 -8 -12 -14 -12c-7 0 -16 2 -29 2c-38 0 -155 -9 -235 -9c-51 0 -112 7 -126 7c-38 0 -39 66 -39 72c0 11 15 19 43 19c15 0 66 -7 154 -7c34 0 162 8 205 8
c10 0 19 0 36 -12c10 -7 13 -9 13 -32z" />
    <glyph glyph-name="twosuperior" unicode="&#xb2;" 
d="M337 581c0 4 -1 5 -4 5s-9 -2 -13 -4c-20 -10 -37 -32 -49 -49c-4 -6 -15 -13 -19 -22s-11 -17 -24 -17c-6 0 -12 -2 -18 -2c-44 0 -54 33 -54 48c0 14 12 24 19 36c9 15 37 37 65 52c41 22 46 23 93 23c46 0 93 -50 93 -71c0 -69 -46 -138 -94 -189
c-27 -28 -85 -84 -123 -124c-8 -8 -14 -15 -14 -18c0 -4 8 -4 28 -4c57 0 67 8 79 35c7 16 10 36 49 36c21 0 35 -8 45 -20c4 -5 6 -12 6 -21c0 -26 -15 -62 -25 -74c-16 -19 -52 -24 -133 -24c-54 0 -115 1 -138 20s-31 35 -31 51c0 6 13 25 24 37c51 56 110 109 159 166
c13 15 79 93 79 130z" />
    <glyph glyph-name="threesuperior" unicode="&#xb3;" 
d="M320 553c3 5 4 9 4 12c0 2 -1 4 -4 4c-1 0 -4 -1 -10 -4c-25 -13 -42 -29 -42 -35c0 -16 -11 -14 -19 -24c-4 -5 -17 -8 -31 -8c-13 0 -26 3 -33 10c-8 8 -18 27 -18 33c0 28 24 39 45 59c6 6 23 7 28 10c21 13 56 33 93 33c34 0 35 -8 45 -12c14 -6 31 -6 42 -28
c4 -8 5 -12 5 -18c0 -9 -1 -18 -5 -26s-5 -16 -10 -24c-24 -38 -34 -49 -60 -71c-8 -7 -10 -10 -10 -12s1 -3 9 -6c37 -14 52 -44 52 -80s-17 -75 -25 -92c-24 -50 -59 -107 -136 -107c-64 0 -119 59 -143 87c-7 8 -12 18 -12 26c0 11 8 20 29 20c10 0 20 2 31 2
s21 -2 30 -12c10 -12 25 -20 25 -34c0 -3 17 -20 28 -20c10 0 41 23 64 76c11 26 18 48 18 63c0 6 0 17 -8 17c-3 0 -7 0 -11 -2c-9 -4 -14 -4 -21 -8c-23 -14 -41 -25 -66 -25c-36 0 -51 21 -51 40c0 4 2 9 4 11c9 8 19 14 30 20s16 12 29 21c52 36 85 73 104 104z" />
    <glyph glyph-name="acute" unicode="&#xb4;" horiz-adv-x="510" 
d="M312 769l61 24c60 24 79 34 89 43c5 5 13 6 20 6c13 0 26 -5 35 -14c10 -10 13 -17 13 -36c0 -10 -2 -19 -5 -25c-8 -14 -33 -24 -80 -38l-99 -30c-10 -3 -17 -4 -26 -4c-7 0 -17 2 -22 5c-11 7 -30 28 -30 38c0 6 1 11 6 17c4 5 10 7 15 7c2 0 15 4 23 7z" />
    <glyph glyph-name="mu" unicode="&#xb5;" horiz-adv-x="510" 
d="M343 62c-4 0 -5 -1 -14 -15c-29 -45 -73 -72 -91 -72c-46 0 -91 24 -101 51c-5 13 -5 23 -5 30c0 8 0 12 -3 12c-2 0 -6 -7 -25 -48c-41 -88 -67 -143 -117 -242c-5 -10 -10 -25 -16 -34c-7 -12 -17 -22 -28 -22c-61 0 -57 16 -62 18c-18 7 -21 19 -21 35
c0 22 8 31 49 78c7 8 18 28 38 65c75 138 155 296 250 505c10 22 18 32 30 32c11 0 10 10 29 10c5 0 12 -2 21 -3c11 -1 25 -5 31 -15c4 -7 6 -16 6 -23c0 -11 -3 -17 -10 -29c-5 -8 -8 -13 -11 -21c-7 -18 -32 -53 -40 -89c-18 -79 -30 -89 -30 -188c0 -23 0 -27 4 -27
c3 0 5 1 11 7c24 24 25 32 71 91c54 69 63 84 101 188c7 19 19 33 42 33c19 0 24 -9 36 -11c26 -4 30 -14 30 -28c0 -13 -5 -26 -7 -30c-32 -70 -59 -143 -70 -220c-3 -19 -8 -38 -8 -57c0 -35 18 -47 18 -77c0 -16 -8 -29 -32 -29c-25 0 -38 10 -46 12c-20 5 -31 13 -31 65
c0 22 3 41 3 43c0 3 -1 5 -2 5z" />
    <glyph glyph-name="paragraph" unicode="&#xb6;" horiz-adv-x="544" 
d="M498 489c28 76 29 78 29 79h-8c-7 0 -16 1 -40 1l-15 -43c-19 -53 -57 -152 -76 -189l-7 -14c-9 -33 -49 -122 -64 -161c-77 -194 -87 -229 -87 -254c0 -11 -8 -32 -8 -37v-8c0 -3 1 -6 1 -11c0 -24 -32 -60 -76 -60c-24 0 -47 18 -47 42c0 38 13 95 25 125
c33 85 64 172 102 244c-67 12 -132 77 -132 162c0 133 97 308 232 308c31 0 88 -6 145 -6h15c60 0 66 7 106 7c51 0 48 15 101 15c68 0 74 -54 74 -57c0 -6 -1 -12 -1 -18c0 -16 -63 -31 -73 -32c-75 -5 -55 -37 -84 -113l-36 -94l-8 -16c-8 -15 -17 -36 -21 -49l-7 -20
c-6 -16 -15 -39 -35 -95l-41 -114c-18 -49 -38 -96 -44 -126l-13 -63c-3 -12 -11 -42 -11 -47c0 -3 1 -5 1 -8c0 -33 -37 -53 -86 -53c-21 0 -36 20 -36 35c0 11 26 99 91 311c3 10 94 251 134 359z" />
    <glyph glyph-name="periodcentered" unicode="&#xb7;" horiz-adv-x="344" 
d="M229 360c21 0 42 -6 53 -21c13 -18 19 -34 19 -49c0 -16 -10 -48 -23 -68c-12 -19 -32 -28 -53 -28c-20 0 -65 9 -82 28c-7 8 -11 30 -11 57c0 23 4 46 13 55c14 14 52 26 84 26z" />
    <glyph glyph-name="cedilla" unicode="&#xb8;" horiz-adv-x="338" 
d="M44 -67c16 -4 27 -11 29 -22c1 -6 11 -10 18 -10c29 0 59 58 59 76c0 7 -2 11 -4 15l-24 38h77l31 -48c7 -11 10 -23 10 -35c0 -19 -8 -38 -17 -51c-21 -31 -46 -62 -99 -62c-19 0 -42 4 -65 13c-53 20 -63 49 -63 60c0 24 22 31 29 31c8 0 12 -3 19 -5z" />
    <glyph glyph-name="onesuperior" unicode="&#xb9;" 
d="M293 421c1 4 2 8 2 9c0 2 -1 2 -2 2s-3 -2 -10 -10c-94 -114 -110 -118 -116 -128c-3 -5 -14 -9 -27 -9c-12 0 -24 3 -32 11c-5 5 -13 7 -17 12c-8 10 -12 15 -12 20c0 7 6 12 14 20c23 23 56 42 73 61c42 47 89 102 135 156c18 21 37 51 52 77c4 7 13 8 24 8
c28 0 68 -17 68 -40c0 -3 0 -4 -4 -14c-44 -110 -66 -227 -96 -344c-6 -23 -3 -44 -10 -62c-6 -15 -17 -18 -44 -18c-21 0 -38 6 -50 17c-4 4 -6 11 -6 17c0 4 2 19 4 27c4 18 10 26 14 41z" />
    <glyph glyph-name="ordmasculine" unicode="&#xba;" horiz-adv-x="408" 
d="M399 635c27 -5 43 -26 51 -38c16 -25 23 -53 23 -80c0 -76 -50 -156 -91 -204c-42 -49 -73 -52 -119 -52c-42 0 -81 13 -109 49c-23 30 -33 64 -33 93c0 53 29 102 56 148c32 54 86 105 160 105c24 0 36 -5 49 -15c4 -3 8 -5 13 -6zM138 149c-64 0 -107 4 -110 32
c-1 10 -8 21 -8 38c0 7 1 23 36 23c39 0 24 -8 95 -8c96 0 166 5 175 5c75 0 86 -11 86 -19c0 -3 -2 -5 -2 -7s17 -9 17 -25c0 -9 -7 -18 -13 -25c-8 -9 -12 -10 -50 -10c-30 0 -60 2 -89 2c-40 0 -60 -6 -137 -6zM345 584c-4 0 -18 -2 -35 -25c-21 -28 -89 -120 -89 -185
c0 -27 13 -49 30 -49c14 0 23 8 41 35c11 17 77 107 77 169c0 15 -5 26 -12 36c-5 7 -7 11 -8 14s-2 5 -4 5z" />
    <glyph glyph-name="guillemotright" unicode="&#xbb;" horiz-adv-x="410" 
d="M292 313c0 -16 -13 -33 -23 -42l-118 -107c-6 -6 -15 -13 -27 -13c-10 0 -16 3 -29 11c-9 6 -13 17 -13 27c0 14 5 27 11 34l84 85c5 5 6 9 6 13s-1 7 -4 12l-25 48c-16 31 -22 35 -22 46c0 4 25 50 55 50c5 0 14 5 23 5c5 0 22 -4 28 -19l47 -113c6 -14 7 -21 7 -37z
M245 182c-2 5 -8 10 -8 16c0 4 1 9 4 12l93 99c3 4 5 8 5 13c0 3 -1 6 -3 9c-3 4 -9 16 -12 25s-12 21 -17 32c-6 14 -22 25 -22 36c0 12 22 25 33 41c5 7 20 12 34 12s31 -5 37 -16c19 -35 47 -94 55 -112c5 -11 7 -18 7 -26c0 -22 -14 -41 -21 -48l-102 -101
c-17 -16 -25 -21 -49 -21c-21 0 -28 14 -34 29z" />
    <glyph glyph-name="onequarter" unicode="&#xbc;" horiz-adv-x="998" 
d="M727 92c-27 0 -63 3 -94 16c-27 11 -46 55 -46 60c0 11 1 17 9 26c54 61 122 145 204 215c7 6 12 11 14 14c6 9 16 19 34 19c7 0 17 -2 25 -5c26 -10 36 -22 36 -35c0 -15 -11 -31 -11 -44c0 -10 -2 -23 -6 -37c-3 -10 -20 -66 -32 -109c-6 -21 -8 -29 -8 -32
c0 -2 1 -4 4 -4s13 2 25 2c18 0 37 -3 48 -15c7 -8 15 -20 15 -33c0 -11 -9 -15 -22 -16c-18 -2 -34 -2 -73 -10c-9 -2 -11 -3 -14 -14c-8 -30 -9 -62 -14 -93c-1 -7 -3 -18 -19 -18c-28 0 -40 8 -61 22c-12 8 -13 16 -13 24c0 12 10 59 10 62c0 4 -4 5 -11 5zM830 620
c0 -33 -17 -29 -26 -39c-10 -11 -27 -21 -35 -32c-117 -152 -199 -308 -313 -485c-25 -39 -66 -96 -84 -96c-28 0 -49 7 -61 25c-4 6 -6 15 -6 26c0 15 5 29 16 33c5 2 13 7 47 60l298 460c9 14 35 51 62 76c20 19 33 25 49 25c12 0 25 -5 41 -17c5 -4 12 -15 12 -36z
M332 421c1 4 2 8 2 9c0 2 -1 2 -2 2s-3 -2 -10 -10c-94 -114 -110 -118 -116 -128c-3 -5 -14 -9 -27 -9c-12 0 -24 3 -32 11c-5 5 -13 7 -17 12c-8 10 -12 15 -12 20c0 7 6 12 14 20c23 23 56 42 73 61c42 47 89 102 135 156c18 21 37 51 52 77c4 7 13 8 24 8
c28 0 68 -17 68 -40c0 -3 0 -4 -4 -14c-44 -110 -66 -227 -96 -344c-6 -23 -3 -44 -10 -62c-6 -15 -17 -18 -44 -18c-21 0 -38 6 -50 17c-4 4 -6 11 -6 17c0 4 2 19 4 27c4 18 10 26 14 41zM778 246c6 18 10 34 10 36c0 1 0 3 -2 3s-3 -1 -22 -25c-26 -33 -44 -57 -67 -85
c-5 -6 -10 -12 -10 -14c0 -3 5 -4 19 -4c13 0 35 1 41 2c5 1 8 2 9 8c2 11 11 46 22 79z" />
    <glyph glyph-name="onehalf" unicode="&#xbd;" horiz-adv-x="998" 
d="M845 388c0 4 -1 5 -4 5s-9 -2 -13 -4c-21 -11 -38 -34 -49 -49c-4 -6 -15 -13 -19 -22s-11 -17 -24 -17c-6 0 -12 -2 -18 -2c-44 0 -54 33 -54 48c0 14 12 24 19 36c9 15 37 37 65 52c41 22 46 23 93 23c46 0 93 -50 93 -71c0 -69 -46 -138 -94 -189
c-27 -28 -85 -84 -123 -124c-8 -8 -14 -15 -14 -18c0 -4 8 -4 28 -4c57 0 67 8 79 35c7 16 10 36 49 36c21 0 35 -8 45 -20c4 -5 6 -12 6 -21c0 -26 -15 -62 -25 -74c-16 -19 -52 -24 -133 -24c-54 0 -115 1 -138 20s-31 35 -31 51c0 6 13 25 24 37c51 56 110 109 159 166
c13 15 79 93 79 130zM819 620c0 -33 -17 -29 -26 -39c-10 -11 -27 -21 -35 -32c-117 -152 -199 -308 -313 -485c-25 -39 -66 -96 -84 -96c-28 0 -49 7 -61 25c-4 6 -6 15 -6 26c0 15 5 29 16 33c5 2 13 7 47 60l298 460c9 14 35 51 62 76c20 19 33 25 49 25
c12 0 25 -5 41 -17c5 -4 12 -15 12 -36zM332 421c1 4 2 8 2 9c0 2 -1 2 -2 2s-3 -2 -10 -10c-94 -114 -110 -118 -116 -128c-3 -5 -14 -9 -27 -9c-12 0 -24 3 -32 11c-5 5 -13 7 -17 12c-8 10 -12 15 -12 20c0 7 6 12 14 20c23 23 56 42 73 61c42 47 89 102 135 156
c18 21 37 51 52 77c4 7 13 8 24 8c28 0 68 -17 68 -40c0 -3 0 -4 -4 -14c-44 -110 -66 -227 -96 -344c-6 -23 -3 -44 -10 -62c-6 -15 -17 -18 -44 -18c-21 0 -38 6 -50 17c-4 4 -6 11 -6 17c0 4 2 19 4 27c4 18 10 26 14 41z" />
    <glyph glyph-name="threequarters" unicode="&#xbe;" horiz-adv-x="998" 
d="M359 553c3 5 4 9 4 12c0 2 -1 4 -4 4c-1 0 -4 -1 -10 -4c-25 -13 -42 -29 -42 -35c0 -16 -11 -14 -19 -24c-4 -5 -17 -8 -31 -8c-13 0 -26 3 -33 10c-8 8 -18 27 -18 33c0 28 24 39 45 59c6 6 23 7 28 10c21 13 56 33 93 33c34 0 35 -8 45 -12c14 -6 31 -6 42 -28
c4 -8 5 -12 5 -18c0 -9 -1 -18 -5 -26s-5 -16 -10 -24c-24 -38 -34 -49 -60 -71c-8 -7 -10 -10 -10 -12s1 -3 9 -6c37 -14 52 -44 52 -80s-17 -75 -25 -92c-24 -50 -59 -107 -136 -107c-64 0 -119 59 -143 87c-7 8 -12 18 -12 26c0 11 8 20 29 20c10 0 20 2 31 2
s21 -2 30 -12c10 -12 25 -20 25 -34c0 -3 17 -20 28 -20c10 0 41 23 64 76c11 26 18 48 18 63c0 6 0 17 -8 17c-3 0 -7 0 -11 -2c-9 -4 -14 -4 -21 -8c-20 -12 -41 -25 -66 -25c-36 0 -51 21 -51 40c0 4 2 9 4 11c9 8 19 14 30 20s16 12 29 21c52 36 85 73 104 104zM830 620
c0 -33 -17 -29 -26 -39c-10 -11 -27 -21 -35 -32c-117 -152 -199 -308 -313 -485c-25 -39 -66 -96 -84 -96c-28 0 -49 7 -61 25c-4 6 -6 15 -6 26c0 15 5 29 16 33c5 2 13 7 47 60l298 460c9 14 35 51 62 76c20 19 33 25 49 25c12 0 25 -5 41 -17c5 -4 12 -15 12 -36z
M727 92c-27 0 -63 3 -94 16c-27 11 -46 55 -46 60c0 11 1 17 9 26c54 61 122 145 204 215c7 6 12 11 14 14c6 9 16 19 34 19c7 0 17 -2 25 -5c26 -10 36 -22 36 -35c0 -15 -11 -31 -11 -44c0 -10 -2 -23 -6 -37c-3 -10 -20 -66 -32 -109c-6 -21 -8 -29 -8 -32
c0 -2 1 -4 4 -4s13 2 25 2c18 0 37 -3 48 -15c7 -8 15 -20 15 -33c0 -11 -9 -15 -22 -16c-18 -2 -34 -2 -73 -10c-9 -2 -11 -3 -14 -14c-8 -30 -9 -62 -14 -93c-1 -7 -3 -18 -19 -18c-28 0 -40 8 -61 22c-12 8 -13 16 -13 24c0 12 10 59 10 62c0 4 -4 5 -11 5zM778 246
c6 18 10 34 10 36c0 1 0 3 -2 3s-3 -1 -22 -25c-26 -33 -44 -57 -67 -85c-5 -6 -10 -12 -10 -14c0 -3 5 -4 19 -4c13 0 35 1 41 2c5 1 8 2 9 8c2 11 11 46 22 79z" />
    <glyph glyph-name="questiondown" unicode="&#xbf;" horiz-adv-x="360" 
d="M94 -153c-39 22 -54 49 -54 76c0 31 25 70 41 89c15 18 60 63 67 69c31 29 89 84 89 109c0 10 -11 13 -23 13c-38 0 -33 -18 -66 -18c-7 0 -36 4 -42 21c-2 6 -9 14 -9 21c0 19 20 53 100 53c31 0 67 -7 96 -23c35 -19 49 -43 49 -68c0 -46 -9 -67 -132 -178
c-49 -44 -67 -74 -67 -92c0 -13 20 -21 25 -21c30 0 36 17 36 34c0 7 -1 14 -1 20c0 14 10 26 34 26c19 0 37 -7 50 -23c7 -9 13 -20 13 -36c0 -29 -19 -96 -114 -96c-38 0 -60 6 -92 24zM290 480c25 0 85 -41 85 -59s-1 -26 -10 -36c-12 -13 -32 -27 -54 -27
c-21 0 -44 10 -51 21c-6 9 -21 18 -21 30c0 9 3 21 5 28c4 14 12 43 46 43z" />
    <glyph glyph-name="Agrave" unicode="&#xc0;" horiz-adv-x="510" 
d="M325 167c-13 -5 -96 -34 -155 -47c-9 -2 -10 -4 -13 -11c-3 -8 -17 -32 -17 -96c0 -10 2 -24 2 -29c0 -4 -2 -7 -7 -10c-10 -6 -22 -23 -41 -23c-4 0 -11 1 -19 5l-12 6c-34 17 -34 43 -34 74c0 20 2 39 9 71c2 9 2 11 2 12c0 2 -1 3 -6 6c-19 11 -30 19 -30 33
c0 11 3 35 15 55c5 8 10 9 18 9c10 0 17 -2 32 -10c4 -2 6 -3 8 -3s4 2 9 11c81 146 160 285 274 451c11 16 25 18 44 20c8 1 27 6 45 6c15 0 30 -3 40 -11c5 -4 12 -19 12 -23c0 -15 -14 -81 -14 -94c0 -7 -1 -20 -3 -32c-11 -64 -21 -216 -21 -225c0 -5 0 -9 5 -9
c2 0 16 3 31 3c29 0 61 -6 78 -25c6 -7 8 -11 8 -16s-2 -9 -5 -13c-21 -28 -47 -29 -70 -29c-19 0 -36 0 -48 -12c-3 -3 -4 -4 -6 -22c-2 -22 -6 -99 -6 -163c0 -61 19 -80 19 -89c0 -18 -19 -38 -38 -38c-20 0 -49 5 -66 22c-11 11 -20 75 -20 122c0 41 5 108 5 121
c0 6 0 9 -3 9s-10 -1 -22 -6zM369 521c-56 -94 -115 -203 -154 -281c-6 -12 -7 -14 -7 -17c0 -2 2 -3 5 -3c5 0 47 11 68 19c8 3 41 16 64 24c6 2 8 6 8 12c0 16 28 230 28 245c0 7 0 12 -2 12s-4 -1 -10 -11zM418 868c8 -7 40 -30 47 -35l85 -59c23 -16 29 -21 29 -30
c0 -7 -6 -20 -6 -31c0 -9 -12 -17 -23 -17c-13 0 -29 5 -43 14l-100 64c-21 13 -38 21 -50 26c-20 8 -20 22 -20 40c0 14 16 46 42 46c12 0 17 -6 20 -6c2 0 9 -4 19 -12z" />
    <glyph glyph-name="Aacute" unicode="&#xc1;" horiz-adv-x="510" 
d="M325 167c-13 -5 -96 -34 -155 -47c-9 -2 -10 -4 -13 -11c-3 -8 -17 -32 -17 -96c0 -10 2 -24 2 -29c0 -4 -2 -7 -7 -10c-10 -6 -22 -23 -41 -23c-4 0 -11 1 -19 5l-12 6c-34 17 -34 43 -34 74c0 20 2 39 9 71c2 9 2 11 2 12c0 2 -1 3 -6 6c-19 11 -30 19 -30 33
c0 11 3 35 15 55c5 8 10 9 18 9c10 0 17 -2 32 -10c4 -2 6 -3 8 -3s4 2 9 11c81 146 160 285 274 451c11 16 25 18 44 20c8 1 27 6 45 6c15 0 30 -3 40 -11c5 -4 12 -19 12 -23c0 -15 -14 -81 -14 -94c0 -7 -1 -20 -3 -32c-11 -64 -21 -216 -21 -225c0 -5 0 -9 5 -9
c2 0 16 3 31 3c29 0 61 -6 78 -25c6 -7 8 -11 8 -16s-2 -9 -5 -13c-21 -28 -47 -29 -70 -29c-19 0 -36 0 -48 -12c-3 -3 -4 -4 -6 -22c-2 -22 -6 -99 -6 -163c0 -61 19 -80 19 -89c0 -18 -19 -38 -38 -38c-20 0 -49 5 -66 22c-11 11 -20 75 -20 122c0 41 5 108 5 121
c0 6 0 9 -3 9s-10 -1 -22 -6zM369 521c-56 -94 -115 -203 -154 -281c-6 -12 -7 -14 -7 -17c0 -2 2 -3 5 -3c5 0 47 11 68 19c8 3 41 16 64 24c6 2 8 6 8 12c0 16 28 230 28 245c0 7 0 12 -2 12s-4 -1 -10 -11zM348 807l61 24c60 24 79 34 89 43c5 5 13 6 20 6
c13 0 26 -5 35 -14c10 -10 13 -17 13 -36c0 -10 -2 -19 -5 -25c-8 -14 -33 -24 -80 -38l-99 -30c-10 -3 -17 -4 -26 -4c-7 0 -17 2 -22 5c-11 7 -30 28 -30 38c0 6 1 11 6 17c4 5 10 7 15 7c2 0 15 4 23 7z" />
    <glyph glyph-name="Acircumflex" unicode="&#xc2;" horiz-adv-x="510" 
d="M325 167c-13 -5 -96 -34 -155 -47c-9 -2 -10 -4 -13 -11c-3 -8 -17 -32 -17 -96c0 -10 2 -24 2 -29c0 -4 -2 -7 -7 -10c-10 -6 -22 -23 -41 -23c-4 0 -11 1 -19 5l-12 6c-34 17 -34 43 -34 74c0 20 2 39 9 71c2 9 2 11 2 12c0 2 -1 3 -6 6c-19 11 -30 19 -30 33
c0 11 3 35 15 55c5 8 10 9 18 9c10 0 17 -2 32 -10c4 -2 6 -3 8 -3s4 2 9 11c81 146 160 285 274 451c11 16 25 18 44 20c8 1 27 6 45 6c15 0 30 -3 40 -11c5 -4 12 -19 12 -23c0 -15 -14 -81 -14 -94c0 -7 -1 -20 -3 -32c-11 -64 -21 -216 -21 -225c0 -5 0 -9 5 -9
c2 0 16 3 31 3c29 0 61 -6 78 -25c6 -7 8 -11 8 -16s-2 -9 -5 -13c-21 -28 -47 -29 -70 -29c-19 0 -36 0 -48 -12c-3 -3 -4 -4 -6 -22c-2 -22 -6 -99 -6 -163c0 -61 19 -80 19 -89c0 -18 -19 -38 -38 -38c-20 0 -49 5 -66 22c-11 11 -20 75 -20 122c0 41 5 108 5 121
c0 6 0 9 -3 9s-10 -1 -22 -6zM369 521c-56 -94 -115 -203 -154 -281c-6 -12 -7 -14 -7 -17c0 -2 2 -3 5 -3c5 0 47 11 68 19c8 3 41 16 64 24c6 2 8 6 8 12c0 16 28 230 28 245c0 7 0 12 -2 12s-4 -1 -10 -11zM475 783c-2 0 -4 0 -11 -3c-66 -29 -80 -37 -87 -44
c-3 -3 -7 -4 -12 -4c-18 0 -26 11 -34 15s-13 13 -13 32c0 25 6 25 11 32c4 6 14 12 58 27l88 31c7 2 12 3 20 3c13 0 29 -6 32 -12s6 -4 12 -15l59 -101c8 -13 12 -21 12 -27c0 -11 -12 -16 -16 -21c-7 -8 -12 -13 -23 -13c-8 0 -24 5 -36 21l-54 74c-2 3 -4 5 -6 5z" />
    <glyph glyph-name="Atilde" unicode="&#xc3;" horiz-adv-x="510" 
d="M325 167c-13 -5 -96 -34 -155 -47c-9 -2 -10 -4 -13 -11c-3 -8 -17 -32 -17 -96c0 -10 2 -24 2 -29c0 -4 -2 -7 -7 -10c-10 -6 -22 -23 -41 -23c-4 0 -11 1 -19 5l-12 6c-34 17 -34 43 -34 74c0 20 2 39 9 71c2 9 2 11 2 12c0 2 -1 3 -6 6c-19 11 -30 19 -30 33
c0 11 3 35 15 55c5 8 10 9 18 9c10 0 17 -2 32 -10c4 -2 6 -3 8 -3s4 2 9 11c81 146 160 285 274 451c11 16 25 18 44 20c8 1 27 6 45 6c15 0 30 -3 40 -11c5 -4 12 -19 12 -23c0 -15 -14 -81 -14 -94c0 -7 -1 -20 -3 -32c-11 -64 -21 -216 -21 -225c0 -5 0 -9 5 -9
c2 0 16 3 31 3c29 0 61 -6 78 -25c6 -7 8 -11 8 -16s-2 -9 -5 -13c-21 -28 -47 -29 -70 -29c-19 0 -36 0 -48 -12c-3 -3 -4 -4 -6 -22c-2 -22 -6 -99 -6 -163c0 -61 19 -80 19 -89c0 -18 -19 -38 -38 -38c-20 0 -49 5 -66 22c-11 11 -20 75 -20 122c0 41 5 108 5 121
c0 6 0 9 -3 9s-10 -1 -22 -6zM369 521c-56 -94 -115 -203 -154 -281c-6 -12 -7 -14 -7 -17c0 -2 2 -3 5 -3c5 0 47 11 68 19c8 3 41 16 64 24c6 2 8 6 8 12c0 16 28 230 28 245c0 7 0 12 -2 12s-4 -1 -10 -11zM441 774c-5 8 -10 13 -17 13s-17 -4 -33 -14
c-5 -3 -12 -4 -20 -4c-21 0 -47 9 -47 24c0 9 -8 25 -8 37c0 8 2 13 12 17l62 23c20 7 33 10 46 10c28 0 45 -17 67 -48c12 -17 17 -23 30 -23c9 0 18 3 30 8c7 3 31 10 46 10c22 0 30 -10 33 -25c2 -10 5 -15 5 -21c0 -5 -3 -10 -11 -15c-20 -13 -62 -46 -108 -46
c-20 0 -41 6 -61 22c-10 8 -18 20 -26 32z" />
    <glyph glyph-name="Adieresis" unicode="&#xc4;" horiz-adv-x="510" 
d="M325 167c-13 -5 -96 -34 -155 -47c-9 -2 -10 -4 -13 -11c-3 -8 -17 -32 -17 -96c0 -10 2 -24 2 -29c0 -4 -2 -7 -7 -10c-10 -6 -22 -23 -41 -23c-4 0 -11 1 -19 5l-12 6c-34 17 -34 43 -34 74c0 20 2 39 9 71c2 9 2 11 2 12c0 2 -1 3 -6 6c-19 11 -30 19 -30 33
c0 11 3 35 15 55c5 8 10 9 18 9c10 0 17 -2 32 -10c4 -2 6 -3 8 -3s4 2 9 11c81 146 160 285 274 451c11 16 25 18 44 20c8 1 27 6 45 6c15 0 30 -3 40 -11c5 -4 12 -19 12 -23c0 -15 -14 -81 -14 -94c0 -7 -1 -20 -3 -32c-11 -64 -21 -216 -21 -225c0 -5 0 -9 5 -9
c2 0 16 3 31 3c29 0 61 -6 78 -25c6 -7 8 -11 8 -16s-2 -9 -5 -13c-21 -28 -47 -29 -70 -29c-19 0 -36 0 -48 -12c-3 -3 -4 -4 -6 -22c-2 -22 -6 -99 -6 -163c0 -61 19 -80 19 -89c0 -18 -19 -38 -38 -38c-20 0 -49 5 -66 22c-11 11 -20 75 -20 122c0 41 5 108 5 121
c0 6 0 9 -3 9s-10 -1 -22 -6zM369 521c-56 -94 -115 -203 -154 -281c-6 -12 -7 -14 -7 -17c0 -2 2 -3 5 -3c5 0 47 11 68 19c8 3 41 16 64 24c6 2 8 6 8 12c0 16 28 230 28 245c0 7 0 12 -2 12s-4 -1 -10 -11zM401 828c8 -14 11 -26 11 -35c0 -23 -20 -38 -21 -48
c-1 -7 -21 -21 -48 -21c-16 0 -32 5 -43 21c-9 13 -11 21 -11 24c0 5 0 10 1 18c1 10 9 35 13 41c9 15 22 22 44 22c15 0 45 -7 54 -22zM558 809c20 0 51 -9 55 -27c3 -14 12 -23 12 -39c0 -14 -19 -42 -30 -48c-6 -3 -17 -5 -30 -5c-19 0 -39 7 -44 21c-5 15 -21 22 -21 46
c0 11 9 53 39 53c3 0 12 -1 19 -1z" />
    <glyph glyph-name="Aring" unicode="&#xc5;" horiz-adv-x="510" 
d="M325 167c-13 -5 -96 -34 -155 -47c-9 -2 -10 -4 -13 -11c-3 -8 -17 -32 -17 -96c0 -10 2 -24 2 -29c0 -4 -2 -7 -7 -10c-10 -6 -22 -23 -41 -23c-4 0 -11 1 -19 5l-12 6c-34 17 -34 43 -34 74c0 20 2 39 9 71c2 9 2 11 2 12c0 2 -1 3 -6 6c-19 11 -30 19 -30 33
c0 11 3 35 15 55c5 8 10 9 18 9c10 0 17 -2 32 -10c4 -2 6 -3 8 -3s5 2 10 11c81 146 153 254 267 420c11 16 25 18 44 20c16 2 29 7 49 7c18 -1 32 -4 42 -12c4 -3 12 -18 12 -22c0 -15 -13 -81 -14 -94c-1 -12 -2 -19 -4 -31c-11 -65 -20 -190 -20 -196c0 -5 0 -9 5 -9
c2 0 16 3 31 3c29 0 61 -6 78 -25c6 -7 8 -11 8 -16s-2 -9 -5 -13c-21 -28 -47 -29 -70 -29c-19 0 -36 0 -48 -12c-3 -3 -4 -4 -6 -22c-2 -22 -6 -99 -6 -163c0 -61 19 -80 19 -89c0 -18 -19 -38 -38 -38c-20 0 -49 5 -66 22c-11 11 -20 75 -20 122c0 41 5 108 5 121
c0 6 0 9 -3 9s-10 -1 -22 -6zM368 496c-56 -94 -83 -127 -151 -254c-8 -15 -9 -17 -9 -19s2 -3 5 -3c5 0 47 11 68 19c8 3 41 16 64 24c6 2 9 6 9 12c0 10 26 214 26 220c0 7 0 12 -2 12s-4 -1 -10 -11zM468 874c59 0 94 -39 96 -54c1 -8 2 -18 2 -26
c0 -61 -33 -114 -90 -114c-21 0 -59 7 -75 17c-28 17 -40 42 -40 61c0 31 33 97 65 110c10 4 26 6 42 6zM479 815c-1 2 -2 3 -3 3c-2 0 -3 -1 -7 -7c-5 -7 -21 -33 -21 -54c0 -16 6 -22 8 -22c1 0 2 1 5 5c5 7 23 34 23 51c0 10 -2 18 -5 24z" />
    <glyph glyph-name="AE" unicode="&#xc6;" horiz-adv-x="736" 
d="M339 193c-40 -12 -102 -26 -151 -37c-9 -2 -14 -5 -22 -22c-18 -39 -37 -115 -37 -129c0 -10 -10 -11 -13 -19c-5 -13 -10 -18 -26 -18c-47 0 -57 10 -70 27c-6 8 -8 18 -8 30c0 32 16 68 32 105c3 7 5 12 5 14c0 3 -3 5 -5 5c-6 0 -30 8 -30 21c0 27 2 39 10 54
c11 20 14 23 30 23c9 0 22 -1 41 -1c10 0 13 4 20 15c98 153 252 314 316 397c10 13 13 17 25 18c19 2 42 11 66 11c7 0 37 -4 46 -14c8 -9 10 -15 10 -22c0 -6 -4 -19 -4 -22s2 -5 6 -5c3 0 8 1 30 6c40 9 100 19 152 19c11 0 60 -5 70 -13c12 -9 33 -32 42 -46
c4 -6 5 -12 5 -18c0 -16 -15 -29 -45 -29c-19 0 -27 14 -61 14c-89 0 -152 -24 -219 -41c-8 -2 -12 -5 -14 -17c-6 -38 -15 -79 -21 -105c-4 -18 -6 -29 -6 -34c0 -3 2 -5 5 -5s8 1 28 7c14 4 63 13 101 13c28 0 55 -4 71 -17c12 -10 25 -31 25 -47c0 -13 -8 -23 -30 -23
c-11 0 -15 -3 -23 -3c-5 0 -18 4 -28 4c-16 0 -58 -8 -151 -43c-16 -6 -17 -8 -19 -18c-9 -48 -25 -132 -25 -180c0 -25 9 -28 15 -28c9 0 27 2 106 38c42 19 54 42 109 62c19 7 25 8 31 8c12 0 76 -22 76 -43c0 -4 -2 -13 -5 -17c-5 -7 -40 -28 -47 -32
c-81 -48 -170 -98 -312 -98c-35 0 -65 18 -79 39c-7 10 -10 32 -10 59c0 44 7 99 12 134c2 13 3 22 3 25s-1 4 -4 4c-4 0 -10 -2 -23 -6zM417 501c-63 -82 -108 -134 -161 -214c-8 -12 -10 -15 -10 -17c0 -1 1 -2 2 -2c2 0 5 0 19 4c41 12 62 19 104 34c17 6 19 8 21 21
c9 56 27 117 38 165c4 17 5 21 5 23s-1 3 -2 3c-2 0 -10 -9 -16 -17z" />
    <glyph glyph-name="Ccedilla" unicode="&#xc7;" horiz-adv-x="472" 
d="M240 -53c0 -19 -8 -38 -17 -51c-21 -31 -46 -62 -99 -62c-19 0 -44 5 -65 13c-53 20 -63 49 -63 60c0 24 22 31 29 31c8 0 11 -3 19 -5c16 -4 27 -11 29 -22c1 -6 11 -10 18 -10c29 0 59 58 59 76c0 7 -1 12 -11 18c-29 17 -72 45 -79 79c-5 23 -6 44 -6 61
c0 39 9 85 14 99c55 155 149 334 301 421c21 12 59 19 87 19c18 0 31 -2 49 -9c25 -10 20 -14 34 -27c31 -28 39 -48 39 -61c0 -7 -4 -22 -17 -51c-18 -40 -23 -54 -27 -65c-5 -15 -16 -23 -39 -23c-4 0 -11 1 -18 2c-22 4 -28 5 -43 17c-12 9 -17 20 -17 29
c0 26 33 51 35 74c1 6 4 12 7 18s5 9 5 12c0 2 -2 3 -4 3c-4 0 -34 -8 -64 -36c-38 -36 -46 -46 -109 -131c-55 -74 -97 -172 -124 -265c-1 -4 -4 -24 -4 -44c0 -11 1 -32 11 -42c18 -18 22 -22 34 -22c10 0 29 6 45 14c61 31 126 103 144 117c14 11 19 12 48 12
c25 0 39 -7 51 -26c5 -8 7 -11 7 -19c0 -6 -6 -8 -14 -16c-33 -33 -85 -97 -153 -133c-28 -15 -51 -22 -85 -26c-9 -1 -10 -2 -10 -6c0 -2 3 -15 3 -23z" />
    <glyph glyph-name="Egrave" unicode="&#xc8;" horiz-adv-x="508" 
d="M332 416c29 11 62 18 92 18c28 0 59 -5 89 -23c19 -11 20 -28 20 -37c0 -17 -48 -24 -56 -24c-11 0 -23 3 -32 3c-61 0 -103 -27 -161 -43c-22 -6 -27 -8 -31 -18c-15 -38 -71 -146 -71 -207c0 -16 4 -29 12 -29s42 6 69 18c31 14 50 20 65 27c34 15 109 73 163 73
c4 0 8 0 14 -2c7 -2 11 -6 15 -10c11 -11 33 -20 33 -35c0 -4 -5 -11 -12 -14c-5 -2 -14 -6 -19 -11c-10 -10 -21 -18 -27 -21c-90 -48 -185 -101 -325 -101c-12 0 -70 17 -91 48c-7 10 -10 26 -10 45c0 46 15 97 23 123c11 35 26 70 39 105c-7 8 -13 23 -13 34
c0 9 2 17 24 23c19 5 20 6 27 22s18 40 33 82c4 11 5 15 5 17s-1 4 -3 4s-9 -2 -20 -2c-7 0 -20 3 -32 13c-11 9 -24 31 -24 46c0 7 3 12 11 14c65 17 119 39 177 60c44 16 175 52 263 52c21 0 40 -2 52 -8c31 -16 55 -40 55 -60c0 -10 -4 -19 -21 -20c-15 -1 -19 -7 -27 -7
c-13 0 -25 13 -56 13c-65 0 -180 -35 -220 -47c-7 -2 -8 -3 -11 -11l-32 -84c-9 -23 -11 -27 -11 -31c0 -1 1 -2 2 -2c3 0 6 1 22 7zM326 864c8 -7 40 -30 47 -35l85 -59c23 -16 29 -21 29 -30c0 -7 -6 -20 -6 -31c0 -9 -12 -17 -23 -17c-13 0 -29 5 -43 14l-100 64
c-21 13 -38 21 -50 26c-20 8 -20 22 -20 40c0 14 16 46 42 46c12 0 17 -6 20 -6c2 0 9 -4 19 -12z" />
    <glyph glyph-name="Eacute" unicode="&#xc9;" horiz-adv-x="508" 
d="M332 416c29 11 62 18 92 18c28 0 59 -5 89 -23c19 -11 20 -28 20 -37c0 -17 -48 -24 -56 -24c-11 0 -23 3 -32 3c-61 0 -103 -27 -161 -43c-22 -6 -27 -8 -31 -18c-15 -38 -71 -146 -71 -207c0 -16 4 -29 12 -29s42 6 69 18c31 14 50 20 65 27c34 15 109 73 163 73
c4 0 8 0 14 -2c7 -2 11 -6 15 -10c11 -11 33 -20 33 -35c0 -4 -5 -11 -12 -14c-5 -2 -14 -6 -19 -11c-10 -10 -21 -18 -27 -21c-90 -48 -185 -101 -325 -101c-12 0 -70 17 -91 48c-7 10 -10 26 -10 45c0 46 15 97 23 123c11 35 26 70 39 105c-7 8 -13 23 -13 34
c0 9 2 17 24 23c19 5 20 6 27 22s18 40 33 82c4 11 5 15 5 17s-1 4 -3 4s-9 -2 -20 -2c-7 0 -20 3 -32 13c-11 9 -24 31 -24 46c0 7 3 12 11 14c65 17 119 39 177 60c44 16 175 52 263 52c21 0 40 -2 52 -8c31 -16 55 -40 55 -60c0 -10 -4 -19 -21 -20c-15 -1 -19 -7 -27 -7
c-13 0 -25 13 -56 13c-65 0 -180 -35 -220 -47c-7 -2 -8 -3 -11 -11l-32 -84c-9 -23 -11 -27 -11 -31c0 -1 1 -2 2 -2c3 0 6 1 22 7zM341 726l53 36c20 14 68 51 76 65c4 7 17 11 31 11c9 0 16 -2 25 -7c13 -7 15 -14 19 -31c2 -9 3 -12 3 -17c0 -18 -12 -30 -68 -64
l-91 -55c-8 -5 -15 -8 -23 -8c-4 0 -8 -2 -12 -2c-20 0 -50 24 -50 30s0 11 3 18c2 5 11 11 13 11s13 7 21 13z" />
    <glyph glyph-name="Ecircumflex" unicode="&#xca;" horiz-adv-x="508" 
d="M332 416c29 11 62 18 92 18c28 0 59 -5 89 -23c19 -11 20 -28 20 -37c0 -17 -48 -24 -56 -24c-11 0 -23 3 -32 3c-61 0 -103 -27 -161 -43c-22 -6 -27 -8 -31 -18c-15 -38 -71 -146 -71 -207c0 -16 4 -29 12 -29s42 6 69 18c31 14 50 20 65 27c34 15 109 73 163 73
c4 0 8 0 14 -2c7 -2 11 -6 15 -10c11 -11 33 -20 33 -35c0 -4 -5 -11 -12 -14c-5 -2 -14 -6 -19 -11c-10 -10 -21 -18 -27 -21c-90 -48 -185 -101 -325 -101c-12 0 -70 17 -91 48c-7 10 -10 26 -10 45c0 46 15 97 23 123c11 35 26 70 39 105c-7 8 -13 23 -13 34
c0 9 2 17 24 23c19 5 20 6 27 22s18 40 33 82c4 11 5 15 5 17s-1 4 -3 4s-9 -2 -20 -2c-7 0 -20 3 -32 13c-11 9 -24 31 -24 46c0 7 3 12 11 14c65 17 119 39 177 60c44 16 175 52 263 52c21 0 40 -2 52 -8c31 -16 55 -40 55 -60c0 -10 -4 -19 -21 -20c-15 -1 -19 -7 -27 -7
c-13 0 -25 13 -56 13c-65 0 -180 -35 -220 -47c-7 -2 -8 -3 -11 -11l-32 -84c-9 -23 -11 -27 -11 -31c0 -1 1 -2 2 -2c3 0 6 1 22 7zM437 764c-3 4 -5 6 -8 6s-5 -2 -11 -6c-59 -42 -78 -61 -86 -69c-6 -6 -15 -10 -26 -10c-18 0 -17 7 -26 10c-17 6 -23 24 -23 39
c0 26 9 22 12 30c2 5 11 15 54 42l89 56c9 5 18 8 31 8c9 0 17 -2 23 -8c3 -3 6 -5 11 -12l59 -86c10 -15 12 -20 12 -25c0 -7 -5 -11 -10 -22c-2 -5 -11 -14 -23 -14c-5 0 -11 2 -19 5c-7 3 -12 5 -21 15z" />
    <glyph glyph-name="Edieresis" unicode="&#xcb;" horiz-adv-x="508" 
d="M332 416c29 11 62 18 92 18c28 0 59 -5 89 -23c19 -11 20 -28 20 -37c0 -17 -48 -24 -56 -24c-11 0 -23 3 -32 3c-61 0 -103 -27 -161 -43c-22 -6 -27 -8 -31 -18c-15 -38 -71 -146 -71 -207c0 -16 4 -29 12 -29s42 6 69 18c31 14 50 20 65 27c34 15 109 73 163 73
c4 0 8 0 14 -2c7 -2 11 -6 15 -10c11 -11 33 -20 33 -35c0 -4 -5 -11 -12 -14c-5 -2 -14 -6 -19 -11c-10 -10 -21 -18 -27 -21c-90 -48 -185 -101 -325 -101c-12 0 -70 17 -91 48c-7 10 -10 26 -10 45c0 46 15 97 23 123c11 35 26 70 39 105c-7 8 -13 23 -13 34
c0 9 2 17 24 23c19 5 20 6 27 22s18 40 33 82c4 11 5 15 5 17s-1 4 -3 4s-9 -2 -20 -2c-7 0 -20 3 -32 13c-11 9 -24 31 -24 46c0 7 3 12 11 14c65 17 119 39 177 60c44 16 175 52 263 52c21 0 40 -2 52 -8c31 -16 55 -40 55 -60c0 -10 -4 -19 -21 -20c-15 -1 -19 -7 -27 -7
c-13 0 -25 13 -56 13c-65 0 -180 -35 -220 -47c-7 -2 -8 -3 -11 -11l-32 -84c-9 -23 -11 -27 -11 -31c0 -1 1 -2 2 -2c3 0 6 1 22 7zM364 820c8 -14 11 -26 11 -35c0 -23 -20 -38 -21 -48c-1 -7 -21 -21 -48 -21c-16 0 -32 5 -43 21c-9 13 -11 21 -11 24c0 5 0 10 1 18
c1 10 9 35 13 41c9 15 22 22 44 22c15 0 45 -7 54 -22zM506 830c20 0 51 -9 55 -27c3 -14 12 -23 12 -39c0 -14 -19 -42 -30 -48c-6 -3 -17 -5 -30 -5c-19 0 -39 7 -44 21c-5 15 -21 22 -21 46c0 11 9 53 39 53c3 0 12 -1 19 -1z" />
    <glyph glyph-name="Igrave" unicode="&#xcc;" horiz-adv-x="254" 
d="M132 -28c-9 -1 -11 -18 -27 -18c-12 0 -18 10 -24 11c-11 2 -23 13 -29 16c-2 1 -15 3 -15 14c0 5 9 60 18 75c4 7 5 11 8 23c39 155 91 284 139 435c11 35 10 10 39 95c4 13 25 16 40 16c36 0 82 -16 82 -38c0 -52 -15 -37 -35 -76c-2 -4 -6 -9 -9 -17
c-12 -32 -154 -424 -154 -452c0 -5 2 -8 2 -15c0 -16 -4 -66 -35 -69zM256 838c8 -7 40 -30 47 -35l85 -59c23 -16 29 -21 29 -30c0 -7 -6 -20 -6 -31c0 -9 -12 -17 -23 -17c-13 0 -29 5 -43 14l-100 64c-21 13 -38 21 -50 26c-20 8 -20 22 -20 40c0 14 16 46 42 46
c12 0 17 -6 20 -6c2 0 9 -4 19 -12z" />
    <glyph glyph-name="Iacute" unicode="&#xcd;" horiz-adv-x="254" 
d="M132 -28c-9 -1 -11 -18 -27 -18c-12 0 -18 10 -24 11c-11 2 -23 13 -29 16c-2 1 -15 3 -15 14c0 5 9 60 18 75c4 7 5 11 8 23c39 155 91 284 139 435c11 35 10 10 39 95c4 13 25 16 40 16c36 0 82 -16 82 -38c0 -52 -15 -37 -35 -76c-2 -4 -6 -9 -9 -17
c-12 -32 -154 -424 -154 -452c0 -5 2 -8 2 -15c0 -16 -4 -66 -35 -69zM312 761l61 24c60 24 79 34 89 43c5 5 13 6 20 6c13 0 26 -5 35 -14c10 -10 13 -17 13 -36c0 -10 -2 -19 -5 -25c-8 -14 -33 -24 -80 -38l-99 -30c-10 -3 -17 -4 -26 -4c-7 0 -17 2 -22 5
c-11 7 -30 28 -30 38c0 6 1 11 6 17c4 5 10 7 15 7c2 0 15 4 23 7z" />
    <glyph glyph-name="Icircumflex" unicode="&#xce;" horiz-adv-x="254" 
d="M132 -28c-9 -1 -11 -18 -27 -18c-12 0 -18 10 -24 11c-11 2 -23 13 -29 16c-2 1 -15 3 -15 14c0 5 9 60 18 75c4 7 5 11 8 23c39 155 91 284 139 435c11 35 10 10 39 95c4 13 25 16 40 16c36 0 82 -16 82 -38c0 -52 -15 -37 -35 -76c-2 -4 -6 -9 -9 -17
c-12 -32 -154 -424 -154 -452c0 -5 2 -8 2 -15c0 -16 -4 -66 -35 -69zM361 763c-2 0 -4 0 -11 -3c-66 -29 -80 -37 -87 -44c-3 -3 -7 -4 -12 -4c-18 0 -26 11 -34 15s-13 13 -13 32c0 25 6 25 11 32c4 6 14 12 58 27l88 31c7 2 12 3 20 3c13 0 29 -6 32 -12s6 -4 12 -15
l59 -101c8 -13 12 -21 12 -27c0 -11 -12 -16 -16 -21c-7 -8 -12 -13 -23 -13c-8 0 -24 5 -36 21l-54 74c-2 3 -4 5 -6 5z" />
    <glyph glyph-name="Idieresis" unicode="&#xcf;" horiz-adv-x="254" 
d="M132 -28c-9 -1 -11 -18 -27 -18c-12 0 -18 10 -24 11c-11 2 -23 13 -29 16c-2 1 -15 3 -15 14c0 5 9 60 18 75c4 7 5 11 8 23c39 155 91 284 139 435c11 35 10 10 39 95c4 13 25 16 40 16c36 0 82 -16 82 -38c0 -52 -15 -37 -35 -76c-2 -4 -6 -9 -9 -17
c-12 -32 -154 -424 -154 -452c0 -5 2 -8 2 -15c0 -16 -4 -66 -35 -69zM309 815c8 -14 11 -26 11 -35c0 -23 -20 -38 -21 -48c-1 -7 -21 -21 -48 -21c-16 0 -32 5 -43 21c-9 13 -11 21 -11 24c0 5 0 10 1 18c1 10 9 35 13 41c9 15 22 22 44 22c15 0 45 -7 54 -22zM436 783
c20 0 51 -9 55 -27c3 -14 12 -23 12 -39c0 -14 -19 -42 -30 -48c-6 -3 -17 -5 -30 -5c-19 0 -39 7 -44 21c-5 15 -21 22 -21 46c0 11 9 53 39 53c3 0 12 -1 19 -1z" />
    <glyph glyph-name="Eth" unicode="&#xd0;" horiz-adv-x="572" 
d="M111 124c12 50 32 112 32 115c0 1 -2 3 -3 3c-4 0 -19 -2 -23 -2c-18 0 -33 5 -33 20c0 40 15 56 25 65c19 18 68 11 73 24l20 52c7 18 8 23 8 26c0 1 -1 4 -3 4c-4 0 -12 -3 -18 -3c-16 0 -37 11 -37 43c0 16 4 32 10 40c8 11 11 14 63 50c54 38 137 75 213 75
c70 0 104 -21 148 -54c33 -25 63 -54 63 -111c0 -40 -15 -81 -28 -107c-7 -14 -8 -20 -18 -41c-65 -137 -142 -274 -268 -333c-30 -14 -41 -17 -64 -17c-37 0 -63 9 -67 9c-9 0 1 -6 -34 -6c-14 0 -25 4 -44 17c-22 15 -16 21 -32 27c-36 14 -79 40 -79 71c0 13 7 22 29 22
c11 0 33 -3 40 -3c5 0 10 -3 15 -3c7 0 8 1 12 17zM257 247c-13 -35 -22 -65 -31 -101c-13 -51 -18 -84 -18 -88c0 -6 5 -6 18 -6c7 0 49 2 86 39c92 92 154 199 201 318c21 53 23 63 23 78c0 11 -2 75 -64 75c-32 0 -71 -19 -83 -22c-4 -1 -5 -2 -5 -4c0 -1 1 -2 1 -7
c0 -10 -15 -20 -19 -29l-53 -117c-6 -14 -9 -20 -9 -22c0 -1 1 -3 3 -3c11 0 32 5 61 5c5 0 12 -7 14 -10c7 -10 10 -21 10 -31c0 -23 -17 -38 -20 -45c-4 -8 -17 -10 -32 -12l-70 -7c-9 -1 -10 -3 -13 -11z" />
    <glyph glyph-name="Ntilde" unicode="&#xd1;" horiz-adv-x="598" 
d="M482 4c-18 -18 -34 -27 -53 -27c-12 0 -33 5 -47 13c-40 23 -45 28 -57 65c-25 77 -42 220 -56 311c-4 26 -5 31 -8 31s-4 -1 -13 -31c-50 -167 -57 -192 -70 -254c-9 -42 -14 -73 -14 -95c0 -20 -3 -46 -46 -46c-7 0 -14 0 -23 2c-15 3 -17 7 -28 13c-9 5 -21 13 -21 22
c0 5 7 42 14 68c28 103 81 273 94 322l7 26c5 17 38 147 42 167c3 15 20 11 20 18c0 4 -17 31 -17 47c0 9 4 17 15 22c7 3 34 10 56 10c12 0 24 -2 31 -9c4 -4 7 -8 9 -14c58 -175 50 -347 89 -522c4 -18 6 -23 8 -23s5 5 13 24c43 102 72 210 105 319c7 23 13 35 18 54
c9 35 7 71 17 106c6 20 9 25 26 25c7 0 17 -1 29 -4c17 -4 28 -2 39 -11c20 -16 28 -28 28 -41c0 -10 -8 -26 -11 -32c-4 -8 -6 -14 -14 -38c-45 -134 -87 -290 -167 -490c-4 -10 -9 -22 -15 -28zM427 738c-5 8 -10 13 -17 13s-17 -4 -33 -14c-5 -3 -12 -4 -20 -4
c-21 0 -47 9 -47 24c0 9 -8 25 -8 37c0 8 2 13 12 17l62 23c20 7 33 10 46 10c28 0 45 -17 67 -48c12 -17 17 -23 30 -23c9 0 18 3 30 8c7 3 31 10 46 10c22 0 30 -10 33 -25c2 -10 5 -15 5 -21c0 -5 -3 -10 -11 -15c-20 -13 -62 -46 -108 -46c-20 0 -41 6 -61 22
c-10 8 -18 20 -26 32z" />
    <glyph glyph-name="Ograve" unicode="&#xd2;" horiz-adv-x="490" 
d="M456 598c55 -49 72 -108 72 -171c0 -27 -4 -52 -10 -77c-28 -116 -66 -229 -131 -312c-19 -24 -73 -63 -143 -63c-19 0 -47 4 -68 11c-22 7 -50 32 -64 52c-24 35 -33 64 -33 115c0 137 47 239 119 346c31 46 59 79 84 98c38 29 55 36 66 36c9 0 19 -3 31 -8
c26 -11 35 -13 43 -14c7 -1 18 1 34 -13zM368 536c-4 0 -6 0 -24 -19c-67 -71 -116 -153 -143 -241c-12 -39 -17 -84 -17 -127c0 -27 7 -55 19 -73c9 -14 18 -20 31 -20c29 0 52 25 58 34c47 71 124 243 124 357c0 7 -1 71 -34 81c-10 3 -11 8 -14 8zM366 822
c8 -7 40 -30 47 -35l85 -59c23 -16 29 -21 29 -30c0 -7 -6 -20 -6 -31c0 -9 -12 -17 -23 -17c-13 0 -29 5 -43 14l-100 64c-21 13 -38 21 -50 26c-20 8 -20 22 -20 40c0 14 16 46 42 46c12 0 17 -6 20 -6c2 0 9 -4 19 -12z" />
    <glyph glyph-name="Oacute" unicode="&#xd3;" horiz-adv-x="490" 
d="M456 598c55 -49 72 -108 72 -171c0 -27 -4 -52 -10 -77c-28 -116 -66 -229 -131 -312c-19 -24 -73 -63 -143 -63c-19 0 -47 4 -68 11c-22 7 -50 32 -64 52c-24 35 -33 64 -33 115c0 137 47 239 119 346c31 46 59 79 84 98c38 29 55 36 66 36c9 0 19 -3 31 -8
c26 -11 35 -13 43 -14c7 -1 18 1 34 -13zM368 536c-4 0 -6 0 -24 -19c-67 -71 -116 -153 -143 -241c-12 -39 -17 -84 -17 -127c0 -27 7 -55 19 -73c9 -14 18 -20 31 -20c29 0 52 25 58 34c47 71 124 243 124 357c0 7 -1 71 -34 81c-10 3 -11 8 -14 8zM360 751l61 24
c60 24 79 34 89 43c5 5 13 6 20 6c13 0 26 -5 35 -14c10 -10 13 -17 13 -36c0 -10 -2 -19 -5 -25c-8 -14 -33 -24 -80 -38l-99 -30c-10 -3 -17 -4 -26 -4c-7 0 -17 2 -22 5c-11 7 -30 28 -30 38c0 6 1 11 6 17c4 5 10 7 15 7c2 0 15 4 23 7z" />
    <glyph glyph-name="Ocircumflex" unicode="&#xd4;" horiz-adv-x="490" 
d="M456 598c55 -49 72 -108 72 -171c0 -27 -4 -52 -10 -77c-28 -116 -66 -229 -131 -312c-19 -24 -73 -63 -143 -63c-19 0 -47 4 -68 11c-22 7 -50 32 -64 52c-24 35 -33 64 -33 115c0 137 47 239 119 346c31 46 59 79 84 98c38 29 55 36 66 36c9 0 19 -3 31 -8
c26 -11 35 -13 43 -14c7 -1 18 1 34 -13zM368 536c-4 0 -6 0 -24 -19c-67 -71 -116 -153 -143 -241c-12 -39 -17 -84 -17 -127c0 -27 7 -55 19 -73c9 -14 18 -20 31 -20c29 0 52 25 58 34c47 71 124 243 124 357c0 7 -1 71 -34 81c-10 3 -11 8 -14 8zM445 743
c-2 0 -4 0 -11 -3c-66 -29 -80 -37 -87 -44c-3 -3 -7 -4 -12 -4c-18 0 -26 11 -34 15s-13 13 -13 32c0 25 6 25 11 32c4 6 14 12 58 27l88 31c7 2 12 3 20 3c13 0 29 -6 32 -12s6 -4 12 -15l59 -101c8 -13 12 -21 12 -27c0 -11 -12 -16 -16 -21c-7 -8 -12 -13 -23 -13
c-8 0 -24 5 -36 21l-54 74c-2 3 -4 5 -6 5z" />
    <glyph glyph-name="Otilde" unicode="&#xd5;" horiz-adv-x="490" 
d="M456 598c55 -49 72 -108 72 -171c0 -27 -4 -52 -10 -77c-28 -116 -66 -229 -131 -312c-19 -24 -73 -63 -143 -63c-19 0 -47 4 -68 11c-22 7 -50 32 -64 52c-24 35 -33 64 -33 115c0 137 47 239 119 346c31 46 59 79 84 98c38 29 55 36 66 36c9 0 19 -3 31 -8
c26 -11 35 -13 43 -14c7 -1 18 1 34 -13zM368 536c-4 0 -6 0 -24 -19c-67 -71 -116 -153 -143 -241c-12 -39 -17 -84 -17 -127c0 -27 7 -55 19 -73c9 -14 18 -20 31 -20c29 0 52 25 58 34c47 71 124 243 124 357c0 7 -1 71 -34 81c-10 3 -11 8 -14 8zM405 716
c-5 8 -10 13 -17 13s-17 -4 -33 -14c-5 -3 -12 -4 -20 -4c-21 0 -47 9 -47 24c0 9 -8 25 -8 37c0 8 2 13 12 17l62 23c20 7 33 10 46 10c28 0 45 -17 67 -48c12 -17 17 -23 30 -23c9 0 18 3 30 8c7 3 31 10 46 10c22 0 30 -10 33 -25c2 -10 5 -15 5 -21c0 -5 -3 -10 -11 -15
c-20 -13 -62 -46 -108 -46c-20 0 -41 6 -61 22c-10 8 -18 20 -26 32z" />
    <glyph glyph-name="Odieresis" unicode="&#xd6;" horiz-adv-x="490" 
d="M456 598c55 -49 72 -108 72 -171c0 -27 -4 -52 -10 -77c-28 -116 -66 -229 -131 -312c-19 -24 -73 -63 -143 -63c-19 0 -47 4 -68 11c-22 7 -50 32 -64 52c-24 35 -33 64 -33 115c0 137 47 239 119 346c31 46 59 79 84 98c38 29 55 36 66 36c9 0 19 -3 31 -8
c26 -11 35 -13 43 -14c7 -1 18 1 34 -13zM368 536c-4 0 -6 0 -24 -19c-67 -71 -116 -153 -143 -241c-12 -39 -17 -84 -17 -127c0 -27 7 -55 19 -73c9 -14 18 -20 31 -20c29 0 52 25 58 34c47 71 124 243 124 357c0 7 -1 71 -34 81c-10 3 -11 8 -14 8zM381 787
c8 -14 11 -26 11 -35c0 -23 -20 -38 -21 -48c-1 -7 -21 -21 -48 -21c-16 0 -32 5 -43 21c-9 13 -11 21 -11 24c0 5 0 10 1 18c1 10 9 35 13 41c9 15 22 22 44 22c15 0 45 -7 54 -22zM519 750c20 0 51 -9 55 -27c3 -14 12 -23 12 -39c0 -14 -19 -42 -30 -48
c-6 -3 -17 -5 -30 -5c-19 0 -39 7 -44 21c-5 15 -21 22 -21 46c0 11 9 53 39 53c3 0 12 -1 19 -1z" />
    <glyph glyph-name="multiply" unicode="&#xd7;" horiz-adv-x="590" 
d="M348 348c56 45 100 74 134 112c8 9 16 9 28 9c15 0 36 -5 44 -5c12 0 19 -5 30 -17c6 -7 9 -14 9 -20c0 -2 0 -6 -3 -10c-21 -27 -47 -41 -83 -66c-44 -30 -82 -65 -131 -107c-7 -6 -8 -9 -8 -11c0 -3 1 -6 3 -11c19 -47 48 -108 72 -140c11 -15 17 -25 17 -29
c0 -8 -3 -13 -11 -19c-16 -12 -22 -14 -33 -14c-15 0 -30 8 -39 9c-12 1 -20 5 -26 14c-25 37 -38 65 -51 97c-12 30 -13 30 -15 30s-5 -2 -34 -28c-31 -27 -59 -54 -74 -87c-5 -11 -12 -22 -30 -22c-9 0 -4 3 -25 3c-22 0 -24 13 -35 24c-8 8 -18 15 -18 23
c0 20 16 42 45 68c16 14 93 79 124 110c7 7 10 11 10 16c0 2 -1 6 -2 9c-13 38 -31 106 -42 133c-8 19 -10 26 -10 33c0 12 5 30 48 30c45 0 40 -13 53 -19c11 -5 14 -17 14 -23c0 -14 4 -33 20 -88c2 -7 4 -12 6 -12c4 0 5 2 13 8z" />
    <glyph glyph-name="Oslash" unicode="&#xd8;" horiz-adv-x="540" 
d="M520 582c3 0 5 1 8 3c6 4 13 6 22 6s35 -3 46 -23c6 -11 12 -10 12 -29c0 -9 -10 -18 -17 -23c-27 -19 -29 -21 -29 -25c0 -3 3 -14 5 -30c1 -10 3 -36 3 -56c0 -29 -32 -221 -137 -357c-31 -40 -73 -75 -162 -75c-33 0 -79 3 -113 31c-6 5 -8 6 -11 6s-8 -4 -11 -6
c-5 -4 -14 -9 -25 -9c-7 0 -17 1 -25 4c-13 5 -13 13 -18 19c-8 9 -11 16 -11 23c0 15 12 22 31 41c6 6 9 10 9 13c0 8 -8 22 -8 85c0 113 45 217 105 312c24 38 88 119 139 133c22 6 28 7 43 7c23 0 33 -11 46 -11c11 0 13 4 25 4c25 0 47 -20 65 -38c4 -4 6 -5 8 -5z
M434 358c-73 -87 -129 -157 -204 -244c-12 -14 -15 -18 -15 -21c0 -2 1 -6 7 -15c10 -14 22 -26 36 -26c30 0 53 6 73 36c49 75 98 172 120 259c4 15 6 24 6 28c0 3 -1 4 -2 4c-3 0 -5 -2 -21 -21zM215 230l224 262c8 9 12 13 12 17c0 1 -2 5 -4 8c-4 6 -18 21 -32 21
c-9 0 -14 0 -19 2c-7 3 -8 6 -11 6s-5 -1 -13 -9c-73 -73 -124 -154 -154 -244c-5 -14 -14 -35 -18 -56c-1 -6 -2 -11 -2 -15c0 -3 1 -5 3 -5s6 4 14 13z" />
    <glyph glyph-name="Ugrave" unicode="&#xd9;" horiz-adv-x="600" 
d="M185 90c3 0 14 8 19 14c4 5 9 10 15 16c171 174 271 317 319 395c11 18 15 32 24 46c6 9 19 29 46 29c4 0 14 -2 24 -3c11 -1 18 -2 27 -15l14 -21c5 -8 6 -13 6 -17c0 -12 -5 -13 -9 -24c-15 -42 -41 -72 -59 -120c-52 -138 -70 -266 -70 -417c0 -10 -9 -15 -21 -15
c-17 0 -22 6 -31 9c-15 5 -27 14 -39 21c-17 10 -22 13 -22 24c0 7 0 16 4 23c3 5 4 8 5 15c6 51 11 117 18 156c3 17 3 18 3 20c0 1 -1 2 -2 2s-6 -5 -15 -16c-55 -66 -131 -151 -194 -205c-14 -12 -36 -19 -52 -19c-40 0 -43 21 -75 30c-22 6 -32 12 -37 24
c-3 7 -5 37 -5 64c0 64 17 127 26 155c36 112 85 221 126 333c7 19 11 22 14 28c4 8 15 30 36 30c16 0 15 -4 38 -13c37 -14 37 -29 37 -49c0 -8 -6 -15 -10 -25c-59 -148 -137 -274 -158 -417c-3 -20 -4 -47 -4 -52c0 -4 1 -6 2 -6zM448 828c8 -7 40 -30 47 -35l85 -59
c23 -16 29 -21 29 -30c0 -7 -6 -20 -6 -31c0 -9 -12 -17 -23 -17c-13 0 -29 5 -43 14l-100 64c-21 13 -38 21 -50 26c-20 8 -20 22 -20 40c0 14 16 46 42 46c12 0 17 -6 20 -6c2 0 9 -4 19 -12z" />
    <glyph glyph-name="Uacute" unicode="&#xda;" horiz-adv-x="600" 
d="M185 90c3 0 14 8 19 14c4 5 9 10 15 16c171 174 271 317 319 395c11 18 15 32 24 46c6 9 19 29 46 29c4 0 14 -2 24 -3c11 -1 18 -2 27 -15l14 -21c5 -8 6 -13 6 -17c0 -12 -5 -13 -9 -24c-15 -42 -41 -72 -59 -120c-52 -138 -70 -266 -70 -417c0 -10 -9 -15 -21 -15
c-17 0 -22 6 -31 9c-15 5 -27 14 -39 21c-17 10 -22 13 -22 24c0 7 0 16 4 23c3 5 4 8 5 15c6 51 11 117 18 156c3 17 3 18 3 20c0 1 -1 2 -2 2s-6 -5 -15 -16c-55 -66 -131 -151 -194 -205c-14 -12 -36 -19 -52 -19c-40 0 -43 21 -75 30c-22 6 -32 12 -37 24
c-3 7 -5 37 -5 64c0 64 17 127 26 155c36 112 85 221 126 333c7 19 11 22 14 28c4 8 15 30 36 30c16 0 15 -4 38 -13c37 -14 37 -29 37 -49c0 -8 -6 -15 -10 -25c-59 -148 -137 -274 -158 -417c-3 -20 -4 -47 -4 -52c0 -4 1 -6 2 -6zM462 743l61 24c60 24 79 34 89 43
c5 5 13 6 20 6c13 0 26 -5 35 -14c10 -10 13 -17 13 -36c0 -10 -2 -19 -5 -25c-8 -14 -33 -24 -80 -38l-99 -30c-10 -3 -17 -4 -26 -4c-7 0 -17 2 -22 5c-11 7 -30 28 -30 38c0 6 1 11 6 17c4 5 10 7 15 7c2 0 15 4 23 7z" />
    <glyph glyph-name="Ucircumflex" unicode="&#xdb;" horiz-adv-x="600" 
d="M185 90c3 0 14 8 19 14c4 5 9 10 15 16c171 174 271 317 319 395c11 18 15 32 24 46c6 9 19 29 46 29c4 0 14 -2 24 -3c11 -1 18 -2 27 -15l14 -21c5 -8 6 -13 6 -17c0 -12 -5 -13 -9 -24c-15 -42 -41 -72 -59 -120c-52 -138 -70 -266 -70 -417c0 -10 -9 -15 -21 -15
c-17 0 -22 6 -31 9c-15 5 -27 14 -39 21c-17 10 -22 13 -22 24c0 7 0 16 4 23c3 5 4 8 5 15c6 51 11 117 18 156c3 17 3 18 3 20c0 1 -1 2 -2 2s-6 -5 -15 -16c-55 -66 -131 -151 -194 -205c-14 -12 -36 -19 -52 -19c-40 0 -43 21 -75 30c-22 6 -32 12 -37 24
c-3 7 -5 37 -5 64c0 64 17 127 26 155c36 112 85 221 126 333c7 19 11 22 14 28c4 8 15 30 36 30c16 0 15 -4 38 -13c37 -14 37 -29 37 -49c0 -8 -6 -15 -10 -25c-59 -148 -137 -274 -158 -417c-3 -20 -4 -47 -4 -52c0 -4 1 -6 2 -6zM513 761c-2 0 -4 0 -11 -3
c-66 -29 -80 -37 -87 -44c-3 -3 -7 -4 -12 -4c-18 0 -26 11 -34 15s-13 13 -13 32c0 25 6 25 11 32c4 6 14 12 58 27l88 31c7 2 12 3 20 3c13 0 29 -6 32 -12s6 -4 12 -15l59 -101c8 -13 12 -21 12 -27c0 -11 -12 -16 -16 -21c-7 -8 -12 -13 -23 -13c-8 0 -24 5 -36 21
l-54 74c-2 3 -4 5 -6 5z" />
    <glyph glyph-name="Udieresis" unicode="&#xdc;" horiz-adv-x="600" 
d="M185 90c3 0 14 8 19 14c4 5 9 10 15 16c171 174 271 317 319 395c11 18 15 32 24 46c6 9 19 29 46 29c4 0 14 -2 24 -3c11 -1 18 -2 27 -15l14 -21c5 -8 6 -13 6 -17c0 -12 -5 -13 -9 -24c-15 -42 -41 -72 -59 -120c-52 -138 -70 -266 -70 -417c0 -10 -9 -15 -21 -15
c-17 0 -22 6 -31 9c-15 5 -27 14 -39 21c-17 10 -22 13 -22 24c0 7 0 16 4 23c3 5 4 8 5 15c6 51 11 117 18 156c3 17 3 18 3 20c0 1 -1 2 -2 2s-6 -5 -15 -16c-55 -66 -131 -151 -194 -205c-14 -12 -36 -19 -52 -19c-40 0 -43 21 -75 30c-22 6 -32 12 -37 24
c-3 7 -5 37 -5 64c0 64 17 127 26 155c36 112 85 221 126 333c7 19 11 22 14 28c4 8 15 30 36 30c16 0 15 -4 38 -13c37 -14 37 -29 37 -49c0 -8 -6 -15 -10 -25c-59 -148 -137 -274 -158 -417c-3 -20 -4 -47 -4 -52c0 -4 1 -6 2 -6zM467 805c8 -14 11 -26 11 -35
c0 -23 -20 -38 -21 -48c-1 -7 -21 -21 -48 -21c-16 0 -32 5 -43 21c-9 13 -11 21 -11 24c0 5 0 10 1 18c1 10 9 35 13 41c9 15 22 22 44 22c15 0 45 -7 54 -22zM594 773c20 0 51 -9 55 -27c3 -14 12 -23 12 -39c0 -14 -19 -42 -30 -48c-6 -3 -17 -5 -30 -5
c-19 0 -39 7 -44 21c-5 15 -21 22 -21 46c0 11 9 53 39 53c3 0 12 -1 19 -1z" />
    <glyph glyph-name="Yacute" unicode="&#xdd;" horiz-adv-x="502" 
d="M326 190c-21 -14 -52 -28 -83 -28c-9 0 -19 1 -28 5c-22 10 -52 31 -62 40c-25 22 -42 47 -42 61c0 3 3 65 6 105c1 12 4 17 4 35c0 22 9 34 10 46c1 15 27 179 47 213c4 7 6 9 20 9c19 0 47 -8 60 -9c22 -2 27 -31 27 -38c0 -26 -17 -46 -22 -71
c-15 -76 -34 -173 -40 -238c-4 -43 -5 -58 -5 -64c0 -11 1 -12 5 -12c3 0 11 2 19 7c119 75 163 143 217 245c11 21 17 36 32 61c14 24 28 45 34 53c5 6 7 8 15 8c15 0 53 -5 74 -28c8 -9 13 -26 13 -32c0 -4 -1 -8 -6 -15c-139 -194 -226 -469 -277 -850
c-4 -30 -5 -34 -8 -38c-2 -3 -6 -3 -10 -3c-10 0 -26 4 -32 5c-30 5 -56 16 -60 35c-2 10 -3 19 -3 29c0 41 15 83 23 120c4 18 7 39 11 59c16 84 42 177 67 264c6 21 8 28 8 30c0 1 -1 2 -2 2c-2 0 -6 -2 -12 -6zM384 737l61 24c60 24 79 34 89 43c5 5 13 6 20 6
c13 0 26 -5 35 -14c10 -10 13 -17 13 -36c0 -10 -2 -19 -5 -25c-8 -14 -33 -24 -80 -38l-99 -30c-10 -3 -17 -4 -26 -4c-7 0 -17 2 -22 5c-11 7 -30 28 -30 38c0 6 1 11 6 17c4 5 10 7 15 7c2 0 15 4 23 7z" />
    <glyph glyph-name="Thorn" unicode="&#xde;" horiz-adv-x="500" 
d="M390 576c32 10 67 18 101 18c37 0 58 -1 82 -22c21 -18 30 -42 30 -94c0 -32 -34 -99 -52 -128c-48 -77 -91 -127 -185 -201c-14 -11 -62 -21 -101 -21c-23 0 -42 3 -57 11c-6 3 -7 3 -9 3s-3 -2 -7 -16c-7 -25 -14 -47 -18 -63c-7 -29 -14 -53 -14 -64
c0 -7 -3 -13 -10 -18s-23 -10 -33 -10c-4 0 -26 2 -32 10c-7 10 -23 8 -35 24c-4 5 -5 8 -5 12c0 6 16 72 44 146c11 28 18 57 18 60s-1 4 -8 11c-10 9 -13 14 -13 22c0 3 1 9 7 12c14 6 17 23 39 30c6 2 7 3 10 11c8 23 16 43 20 56c2 5 3 8 3 10s-1 3 -5 5
c-10 5 -23 22 -24 26c-1 5 -5 9 -5 13c0 14 10 24 24 36c15 12 23 17 47 29c10 5 11 7 15 17c22 55 42 109 69 162c4 8 17 18 34 18c21 0 22 -8 34 -9c32 -3 40 -15 40 -30c0 -11 -3 -19 -9 -32c-4 -8 -4 -9 -4 -12c0 -5 -5 -15 -9 -20c-2 -3 -4 -5 -4 -6s1 -2 2 -2
c4 0 7 2 20 6zM446 504c-37 -11 -84 -27 -129 -59c-7 -5 -8 -7 -12 -16c-21 -48 -52 -120 -67 -163c-4 -11 -6 -17 -6 -21c0 -6 5 -9 15 -19s18 -16 24 -16c3 0 7 1 10 3l23 17c53 42 98 95 136 151c51 76 56 119 56 123c0 5 -3 6 -10 6c-14 0 -30 -3 -40 -6z" />
    <glyph glyph-name="germandbls" unicode="&#xdf;" horiz-adv-x="434" 
d="M104 -2c-27 -80 -71 -219 -76 -288c-1 -14 -15 -25 -32 -31c-12 -4 -26 -11 -37 -11c-9 0 -19 5 -33 15c-8 6 -11 17 -11 30c0 22 9 56 12 64c6 16 11 28 16 45c5 16 9 20 14 43c11 49 100 294 135 387c26 68 63 155 82 206c6 16 20 20 29 36c13 24 45 70 81 105
c13 13 60 61 116 61c36 0 58 -20 75 -25c28 -8 36 -24 36 -39c0 -13 -7 -27 -11 -36c-6 -14 0 -18 -41 -87c-24 -41 -43 -67 -65 -92c-7 -8 -9 -10 -9 -12c0 -3 4 -3 5 -3c14 0 58 -13 58 -85c0 -31 -15 -77 -36 -123c-37 -80 -79 -150 -167 -174c-11 -3 -23 -4 -34 -4
c-31 0 -60 10 -85 29c-4 3 -8 5 -11 5c-4 0 -7 -4 -11 -16zM177 201c-8 -23 -18 -49 -27 -71c-6 -15 -8 -20 -8 -22s2 -2 5 -2c18 0 32 -13 43 -28c8 -11 11 -23 21 -23s19 6 26 12c35 30 57 66 79 120c9 22 22 55 22 82c0 10 -2 21 -7 21c-4 0 -9 -3 -14 -8
c-6 -6 -35 -26 -39 -30c-16 -16 -58 -50 -85 -50c-3 0 -7 1 -9 2s-3 1 -4 1s-2 -1 -3 -4zM396 562c4 9 4 11 4 13s-1 3 -2 3c-2 0 -7 -2 -12 -6c-43 -34 -89 -88 -111 -151c-6 -16 -8 -21 -10 -23c-3 -3 -8 -6 -10 -6c-1 0 -3 -2 -5 -6c-4 -8 -12 -29 -20 -50
c-1 -2 -3 -8 -3 -9s1 -2 2 -2c2 0 5 2 24 21c66 66 122 168 143 216z" />
    <glyph glyph-name="agrave" unicode="&#xe0;" horiz-adv-x="468" 
d="M320 124c-2 0 -4 -2 -11 -9l-42 -40c-63 -60 -117 -79 -141 -79c-9 0 -19 3 -33 12c-11 7 -26 18 -49 37c-17 14 -26 35 -26 58c0 59 65 200 203 300c49 35 100 62 159 78c11 3 18 4 27 4c28 0 54 -14 74 -34c7 -7 13 -15 17 -23c2 -4 5 -8 17 -11c24 -6 36 -14 36 -27
c0 -4 -1 -10 -4 -14c-44 -58 -95 -131 -114 -205c-6 -24 -13 -54 -13 -84c0 -25 4 -50 19 -72c2 -3 3 -8 3 -10c0 -9 -9 -17 -27 -19c-8 -1 -11 -4 -22 -4c-23 0 -50 12 -58 28c-14 29 -15 61 -15 69c0 29 2 39 2 42c0 2 0 3 -2 3zM423 407c-5 0 -13 -3 -20 -7
c-91 -47 -164 -101 -219 -168c-6 -9 -73 -97 -73 -136c0 -7 1 -14 6 -14c4 0 21 7 39 24c84 80 193 150 242 244c7 12 17 25 28 36c4 4 6 9 6 12c0 5 -3 9 -9 9zM440 658c8 -7 40 -30 47 -35l85 -59c23 -16 29 -21 29 -30c0 -7 -6 -20 -6 -31c0 -9 -12 -17 -23 -17
c-13 0 -29 5 -43 14l-100 64c-21 13 -38 21 -50 26c-20 8 -20 22 -20 40c0 14 16 46 42 46c12 0 17 -6 20 -6c2 0 9 -4 19 -12z" />
    <glyph glyph-name="aacute" unicode="&#xe1;" horiz-adv-x="468" 
d="M320 124c-2 0 -4 -2 -11 -9l-42 -40c-63 -60 -117 -79 -141 -79c-9 0 -19 3 -33 12c-11 7 -26 18 -49 37c-17 14 -26 35 -26 58c0 59 65 200 203 300c49 35 100 62 159 78c11 3 18 4 27 4c28 0 54 -14 74 -34c7 -7 13 -15 17 -23c2 -4 5 -8 17 -11c24 -6 36 -14 36 -27
c0 -4 -1 -10 -4 -14c-44 -58 -95 -131 -114 -205c-6 -24 -13 -54 -13 -84c0 -25 4 -50 19 -72c2 -3 3 -8 3 -10c0 -9 -9 -17 -27 -19c-8 -1 -11 -4 -22 -4c-23 0 -50 12 -58 28c-14 29 -15 61 -15 69c0 29 2 39 2 42c0 2 0 3 -2 3zM423 407c-5 0 -13 -3 -20 -7
c-91 -47 -164 -101 -219 -168c-6 -9 -73 -97 -73 -136c0 -7 1 -14 6 -14c4 0 21 7 39 24c84 80 193 150 242 244c7 12 17 25 28 36c4 4 6 9 6 12c0 5 -3 9 -9 9zM416 605l61 24c60 24 79 34 89 43c5 5 13 6 20 6c13 0 26 -5 35 -14c10 -10 13 -17 13 -36
c0 -10 -2 -19 -5 -25c-8 -14 -33 -24 -80 -38l-99 -30c-10 -3 -17 -4 -26 -4c-7 0 -17 2 -22 5c-11 7 -30 28 -30 38c0 6 1 11 6 17c4 5 10 7 15 7c2 0 15 4 23 7z" />
    <glyph glyph-name="acircumflex" unicode="&#xe2;" horiz-adv-x="468" 
d="M320 124c-2 0 -4 -2 -11 -9l-42 -40c-63 -60 -117 -79 -141 -79c-9 0 -19 3 -33 12c-11 7 -26 18 -49 37c-17 14 -26 35 -26 58c0 59 65 200 203 300c49 35 100 62 159 78c11 3 18 4 27 4c28 0 54 -14 74 -34c7 -7 13 -15 17 -23c2 -4 5 -8 17 -11c24 -6 36 -14 36 -27
c0 -4 -1 -10 -4 -14c-44 -58 -95 -131 -114 -205c-6 -24 -13 -54 -13 -84c0 -25 4 -50 19 -72c2 -3 3 -8 3 -10c0 -9 -9 -17 -27 -19c-8 -1 -11 -4 -22 -4c-23 0 -50 12 -58 28c-14 29 -15 61 -15 69c0 29 2 39 2 42c0 2 0 3 -2 3zM423 407c-5 0 -13 -3 -20 -7
c-91 -47 -164 -101 -219 -168c-6 -9 -73 -97 -73 -136c0 -7 1 -14 6 -14c4 0 21 7 39 24c84 80 193 150 242 244c7 12 17 25 28 36c4 4 6 9 6 12c0 5 -3 9 -9 9zM499 591c-2 0 -4 0 -11 -3c-66 -29 -80 -37 -87 -44c-3 -3 -7 -4 -12 -4c-18 0 -26 11 -34 15s-13 13 -13 32
c0 25 6 25 11 32c4 6 14 12 58 27l88 31c7 2 12 3 20 3c13 0 29 -6 32 -12s6 -4 12 -15l59 -101c7 -12 12 -21 12 -27c0 -11 -12 -16 -16 -21c-7 -8 -12 -13 -23 -13c-8 0 -24 5 -36 21l-54 74c-2 3 -4 5 -6 5z" />
    <glyph glyph-name="atilde" unicode="&#xe3;" horiz-adv-x="468" 
d="M320 124c-2 0 -4 -2 -11 -9l-42 -40c-63 -60 -117 -79 -141 -79c-9 0 -19 3 -33 12c-11 7 -26 18 -49 37c-17 14 -26 35 -26 58c0 59 65 200 203 300c49 35 100 62 159 78c11 3 18 4 27 4c28 0 54 -14 74 -34c7 -7 13 -15 17 -23c2 -4 5 -8 17 -11c24 -6 36 -14 36 -27
c0 -4 -1 -10 -4 -14c-44 -58 -95 -131 -114 -205c-6 -24 -13 -54 -13 -84c0 -25 4 -50 19 -72c2 -3 3 -8 3 -10c0 -9 -9 -17 -27 -19c-8 -1 -11 -4 -22 -4c-23 0 -50 12 -58 28c-14 29 -15 61 -15 69c0 29 2 39 2 42c0 2 0 3 -2 3zM423 407c-5 0 -13 -3 -20 -7
c-91 -47 -164 -101 -219 -168c-6 -9 -73 -97 -73 -136c0 -7 1 -14 6 -14c4 0 21 7 39 24c84 80 193 150 242 244c7 12 17 25 28 36c4 4 6 9 6 12c0 5 -3 9 -9 9zM481 570c-5 8 -10 13 -17 13s-17 -4 -33 -14c-5 -3 -12 -4 -20 -4c-21 0 -47 9 -47 24c0 9 -8 25 -8 37
c0 8 2 13 12 17l62 23c20 7 33 10 46 10c28 0 45 -17 67 -48c12 -17 17 -23 30 -23c9 0 18 3 30 8c7 3 31 10 46 10c22 0 30 -10 33 -25c2 -10 5 -15 5 -21c0 -5 -3 -10 -11 -15c-20 -13 -62 -46 -108 -46c-20 0 -41 6 -61 22c-10 8 -18 20 -26 32z" />
    <glyph glyph-name="adieresis" unicode="&#xe4;" horiz-adv-x="468" 
d="M320 124c-2 0 -4 -2 -11 -9l-42 -40c-63 -60 -117 -79 -141 -79c-9 0 -19 3 -33 12c-11 7 -26 18 -49 37c-17 14 -26 35 -26 58c0 59 65 200 203 300c49 35 100 62 159 78c11 3 18 4 27 4c28 0 54 -14 74 -34c7 -7 13 -15 17 -23c2 -4 5 -8 17 -11c24 -6 36 -14 36 -27
c0 -4 -1 -10 -4 -14c-44 -58 -95 -131 -114 -205c-6 -24 -13 -54 -13 -84c0 -25 4 -50 19 -72c2 -3 3 -8 3 -10c0 -9 -9 -17 -27 -19c-8 -1 -11 -4 -22 -4c-23 0 -50 12 -58 28c-14 29 -15 61 -15 69c0 29 2 39 2 42c0 2 0 3 -2 3zM423 407c-5 0 -13 -3 -20 -7
c-91 -47 -164 -101 -219 -168c-6 -9 -73 -97 -73 -136c0 -7 1 -14 6 -14c4 0 21 7 39 24c84 80 193 150 242 244c7 12 17 25 28 36c4 4 6 9 6 12c0 5 -3 9 -9 9zM449 657c8 -14 11 -26 11 -35c0 -23 -20 -38 -21 -48c-1 -7 -21 -21 -48 -21c-16 0 -32 5 -43 21
c-9 13 -11 21 -11 24c0 5 0 10 1 18c1 10 9 35 13 41c9 15 22 20 44 20c15 0 45 -5 54 -20zM576 625c20 0 51 -9 55 -27c3 -14 12 -23 12 -39c0 -14 -19 -42 -30 -48c-6 -3 -17 -5 -30 -5c-19 0 -39 7 -44 21c-5 15 -21 22 -21 46c0 11 9 53 39 53c3 0 12 -1 19 -1z" />
    <glyph glyph-name="aring" unicode="&#xe5;" horiz-adv-x="468" 
d="M320 124c-2 0 -4 -2 -11 -9l-42 -40c-63 -60 -117 -79 -141 -79c-9 0 -19 3 -33 12c-11 7 -26 18 -49 37c-17 14 -26 35 -26 58c0 59 65 200 203 300c49 35 100 62 159 78c11 3 18 4 27 4c28 0 54 -14 74 -34c7 -7 13 -15 17 -23c2 -4 5 -8 17 -11c24 -6 36 -14 36 -27
c0 -4 -1 -10 -4 -14c-44 -58 -95 -131 -114 -205c-6 -24 -13 -54 -13 -84c0 -25 4 -50 19 -72c2 -3 3 -8 3 -10c0 -9 -9 -17 -27 -19c-8 -1 -11 -4 -22 -4c-23 0 -50 12 -58 28c-14 29 -15 61 -15 69c0 29 2 39 2 42c0 2 0 3 -2 3zM423 407c-5 0 -13 -3 -20 -7
c-91 -47 -164 -101 -219 -168c-6 -9 -73 -97 -73 -136c0 -7 1 -14 6 -14c4 0 21 7 39 24c84 80 193 150 242 244c7 12 17 25 28 36c4 4 6 9 6 12c0 5 -3 9 -9 9zM533 694c59 0 94 -39 96 -54c1 -8 2 -18 2 -26c0 -61 -33 -114 -90 -114c-21 0 -59 7 -75 17
c-28 17 -40 42 -40 61c0 31 33 97 65 110c10 4 26 6 42 6zM544 635c-1 2 -2 3 -3 3c-2 0 -3 -1 -7 -7c-5 -7 -21 -33 -21 -54c0 -16 6 -22 8 -22c1 0 2 1 5 5c5 7 23 34 23 51c0 10 -2 18 -5 24z" />
    <glyph glyph-name="ae" unicode="&#xe6;" horiz-adv-x="616" 
d="M262 71c-13 -15 -26 -28 -40 -38c-21 -15 -57 -35 -91 -35c-14 0 -23 1 -83 43c-10 7 -30 33 -30 71c0 101 98 228 182 302c17 15 110 92 189 92c36 0 47 -14 55 -14c4 0 5 2 9 10c6 13 14 17 26 17c17 0 35 -12 41 -12c14 0 37 12 64 12c15 0 49 -2 64 -21
c16 -20 23 -30 23 -58c0 -38 -30 -94 -37 -104c-74 -107 -162 -191 -243 -227c-9 -4 -11 -9 -11 -17c0 -11 5 -23 18 -23c16 0 53 8 96 36c52 34 90 67 138 104c17 13 55 33 70 33c8 0 16 -3 26 -11c7 -6 10 -15 10 -23c0 -11 -4 -21 -10 -26c-24 -20 -56 -56 -85 -80
c-35 -29 -73 -56 -137 -89c-23 -12 -58 -21 -96 -21c-21 0 -43 2 -65 9c-50 16 -69 45 -69 75c0 3 0 5 -2 5s-4 -1 -12 -10zM376 420c-103 -62 -200 -145 -241 -258c-8 -22 -19 -43 -19 -67c0 -11 3 -17 8 -17c6 0 23 4 33 14c36 36 73 71 104 100c40 38 83 110 110 159
l30 55c6 11 8 19 8 23s-1 5 -4 5c-5 0 -19 -8 -29 -14zM544 433c-46 -46 -72 -91 -111 -165c-9 -17 -13 -27 -13 -31c0 -2 1 -3 3 -3c3 0 11 4 44 39c39 42 77 84 97 131c6 14 7 20 7 27c0 6 -4 12 -7 12c-5 0 -12 -2 -20 -10z" />
    <glyph glyph-name="ccedilla" unicode="&#xe7;" horiz-adv-x="346" 
d="M295 360c11 20 13 24 13 26c0 3 -2 3 -4 3s-78 -90 -117 -160c-9 -16 -57 -108 -57 -147c0 -9 1 -11 10 -11c27 0 70 22 121 60c64 48 101 67 126 67c13 0 28 -6 41 -20c7 -8 9 -11 9 -18c0 -3 -3 -7 -3 -9c0 -6 0 -9 -11 -13c-18 -6 -42 -21 -107 -74
c-30 -25 -63 -47 -94 -60c-7 -3 -8 -5 -8 -8s1 -5 5 -11s5 -11 5 -19c0 -22 -12 -42 -22 -55c-16 -21 -48 -49 -95 -49c-37 0 -112 28 -112 61c0 13 16 33 36 33c8 0 17 -3 23 -11c4 -5 9 -6 17 -14c4 -4 10 -6 14 -6c14 0 28 12 48 46c6 10 7 14 7 16c0 3 -2 5 -10 7
c-47 12 -80 44 -84 52c-8 16 -11 31 -11 47c0 27 8 51 17 75c3 8 4 24 11 39c14 30 100 197 179 252c23 16 33 17 49 17c44 0 116 -32 123 -56c2 -7 3 -13 3 -19c0 -17 -34 -78 -34 -103c0 -13 -12 -21 -26 -21c-13 0 -24 3 -37 13l-23 18c-8 7 -11 12 -11 22s5 23 9 30z
" />
    <glyph glyph-name="egrave" unicode="&#xe8;" horiz-adv-x="366" 
d="M411 98c-30 -28 -72 -59 -148 -102c-14 -8 -27 -11 -44 -11c-30 0 -63 13 -109 37c-25 13 -43 41 -54 73c-8 23 -13 47 -13 70c0 14 2 27 6 41c29 101 95 187 169 266c22 23 61 47 114 47c20 0 45 -4 67 -12c31 -11 40 -41 40 -67c0 -40 -30 -95 -53 -123
c-62 -76 -134 -152 -222 -205c-10 -6 -11 -7 -11 -12c0 -6 9 -25 18 -29c6 -3 12 -5 19 -5c30 0 67 26 79 33c62 36 105 89 156 119c10 6 18 8 26 8c20 0 37 -14 37 -29c0 -19 0 -22 -7 -29c-23 -20 -40 -42 -70 -70zM331 429c0 5 -2 6 -5 6c-5 0 -19 -8 -42 -31
c-42 -42 -80 -85 -111 -150c-10 -21 -11 -25 -11 -28c0 -2 2 -3 3 -3c2 0 4 0 17 12c47 43 83 82 112 121c15 20 10 20 22 39s15 25 15 34zM328 732c8 -7 40 -30 47 -35l85 -59c23 -16 29 -21 29 -30c0 -7 -6 -20 -6 -31c0 -9 -12 -17 -23 -17c-13 0 -29 5 -43 14l-100 64
c-21 13 -38 21 -50 26c-20 8 -20 22 -20 40c0 14 16 46 42 46c12 0 17 -6 20 -6c2 0 9 -4 19 -12z" />
    <glyph glyph-name="eacute" unicode="&#xe9;" horiz-adv-x="366" 
d="M411 98c-30 -28 -72 -59 -148 -102c-14 -8 -27 -11 -44 -11c-30 0 -63 13 -109 37c-25 13 -43 41 -54 73c-8 23 -13 47 -13 70c0 14 2 27 6 41c29 101 95 187 169 266c22 23 61 47 114 47c20 0 45 -4 67 -12c31 -11 40 -41 40 -67c0 -40 -30 -95 -53 -123
c-62 -76 -134 -152 -222 -205c-10 -6 -11 -7 -11 -12c0 -6 9 -25 18 -29c6 -3 12 -5 19 -5c30 0 67 26 79 33c62 36 105 89 156 119c10 6 18 8 26 8c20 0 37 -14 37 -29c0 -19 0 -22 -7 -29c-23 -20 -40 -42 -70 -70zM331 429c0 5 -2 6 -5 6c-5 0 -19 -8 -42 -31
c-42 -42 -80 -85 -111 -150c-10 -21 -11 -25 -11 -28c0 -2 2 -3 3 -3c2 0 4 0 17 12c47 43 83 82 112 121c15 20 10 20 22 39s15 25 15 34zM360 649l61 24c60 24 79 34 89 43c5 5 13 6 20 6c13 0 26 -5 35 -14c10 -10 13 -17 13 -36c0 -10 -2 -19 -5 -25
c-8 -14 -33 -24 -80 -38l-99 -30c-10 -3 -17 -4 -26 -4c-7 0 -17 2 -22 5c-11 7 -30 28 -30 38c0 6 1 11 6 17c4 5 10 7 15 7c2 0 15 4 23 7z" />
    <glyph glyph-name="ecircumflex" unicode="&#xea;" horiz-adv-x="366" 
d="M411 98c-30 -28 -72 -59 -148 -102c-14 -8 -27 -11 -44 -11c-30 0 -63 13 -109 37c-25 13 -43 41 -54 73c-8 23 -13 47 -13 70c0 14 2 27 6 41c29 101 95 187 169 266c22 23 61 47 114 47c20 0 45 -4 67 -12c31 -11 40 -41 40 -67c0 -40 -30 -95 -53 -123
c-62 -76 -134 -152 -222 -205c-10 -6 -11 -7 -11 -12c0 -6 9 -25 18 -29c6 -3 12 -5 19 -5c30 0 67 26 79 33c62 36 105 89 156 119c10 6 18 8 26 8c20 0 37 -14 37 -29c0 -19 0 -22 -7 -29c-23 -20 -40 -42 -70 -70zM331 429c0 5 -2 6 -5 6c-5 0 -19 -8 -42 -31
c-42 -42 -80 -85 -111 -150c-10 -21 -11 -25 -11 -28c0 -2 2 -3 3 -3c2 0 4 0 17 12c47 43 83 82 112 121c15 20 10 20 22 39s15 25 15 34zM409 639c-2 0 -4 0 -11 -3c-66 -29 -80 -37 -87 -44c-3 -3 -7 -4 -12 -4c-18 0 -26 11 -34 15s-13 13 -13 32c0 25 6 25 11 32
c4 6 14 12 58 27l88 31c7 2 12 3 20 3c13 0 29 -6 32 -12s6 -4 12 -15l59 -101c7 -12 12 -21 12 -27c0 -11 -12 -16 -16 -21c-7 -8 -12 -13 -23 -13c-8 0 -24 5 -36 21l-54 74c-2 3 -4 5 -6 5z" />
    <glyph glyph-name="edieresis" unicode="&#xeb;" horiz-adv-x="366" 
d="M411 98c-30 -28 -72 -59 -148 -102c-14 -8 -27 -11 -44 -11c-30 0 -63 13 -109 37c-25 13 -43 41 -54 73c-8 23 -13 47 -13 70c0 14 2 27 6 41c29 101 95 187 169 266c22 23 61 47 114 47c20 0 45 -4 67 -12c31 -11 40 -41 40 -67c0 -40 -30 -95 -53 -123
c-62 -76 -134 -152 -222 -205c-10 -6 -11 -7 -11 -12c0 -6 9 -25 18 -29c6 -3 12 -5 19 -5c30 0 67 26 79 33c62 36 105 89 156 119c10 6 18 8 26 8c20 0 37 -14 37 -29c0 -19 0 -22 -7 -29c-23 -20 -40 -42 -70 -70zM331 429c0 5 -2 6 -5 6c-5 0 -19 -8 -42 -31
c-42 -42 -80 -85 -111 -150c-10 -21 -11 -25 -11 -28c0 -2 2 -3 3 -3c2 0 4 0 17 12c47 43 83 82 112 121c15 20 10 20 22 39s15 25 15 34zM379 709c8 -14 11 -26 11 -35c0 -23 -20 -38 -21 -48c-1 -7 -21 -21 -48 -21c-16 0 -32 5 -43 21c-9 13 -11 21 -11 24
c0 5 0 10 1 18c1 10 9 35 13 41c9 15 22 20 44 20c15 0 45 -5 54 -20zM506 677c20 0 51 -9 55 -27c3 -14 12 -23 12 -39c0 -14 -19 -42 -30 -48c-6 -3 -17 -5 -30 -5c-19 0 -39 7 -44 21c-5 15 -21 22 -21 46c0 11 9 53 39 53c3 0 12 -1 19 -1z" />
    <glyph glyph-name="igrave" unicode="&#xec;" horiz-adv-x="220" 
d="M207 109c12 8 28 23 53 23c36 0 47 -15 47 -29c0 -8 -1 -17 -16 -31l-41 -38c-17 -15 -59 -48 -101 -48c-23 0 -46 8 -67 32c-16 18 -37 47 -37 96c0 28 7 55 16 81c7 19 11 35 17 49c31 72 59 142 95 217c11 23 34 30 57 30c12 0 30 -1 46 -12c6 -4 11 -15 11 -25
c0 -40 -54 -98 -64 -121c-16 -37 -44 -104 -58 -139c-4 -10 -23 -63 -23 -97c0 -12 0 -20 8 -20c9 0 25 9 57 32zM218 688c8 -7 40 -30 47 -35l85 -59c23 -16 29 -21 29 -30c0 -7 -6 -20 -6 -31c0 -9 -12 -17 -23 -17c-13 0 -29 5 -43 14l-100 64c-21 13 -38 21 -50 26
c-20 8 -20 22 -20 40c0 14 16 46 42 46c12 0 17 -6 20 -6c2 0 9 -4 19 -12z" />
    <glyph glyph-name="iacute" unicode="&#xed;" horiz-adv-x="220" 
d="M207 109c12 8 28 23 53 23c36 0 47 -15 47 -29c0 -8 -1 -17 -16 -31l-41 -38c-17 -15 -59 -48 -101 -48c-23 0 -46 8 -67 32c-16 18 -37 47 -37 96c0 28 7 55 16 81c7 19 11 35 17 49c31 72 59 142 95 217c11 23 34 30 57 30c12 0 30 -1 46 -12c6 -4 11 -15 11 -25
c0 -40 -54 -98 -64 -121c-16 -37 -44 -104 -58 -139c-4 -10 -23 -63 -23 -97c0 -12 0 -20 8 -20c9 0 25 9 57 32zM254 619l61 24c60 24 79 34 89 43c5 5 13 6 20 6c13 0 26 -5 35 -14c10 -10 13 -17 13 -36c0 -10 -2 -19 -5 -25c-8 -14 -33 -24 -80 -38l-99 -30
c-10 -3 -17 -4 -26 -4c-7 0 -17 2 -22 5c-11 7 -30 28 -30 38c0 6 1 11 6 17c4 5 10 7 15 7c2 0 15 4 23 7z" />
    <glyph glyph-name="icircumflex" unicode="&#xee;" horiz-adv-x="220" 
d="M207 109c12 8 28 23 53 23c36 0 47 -15 47 -29c0 -8 -1 -17 -16 -31l-41 -38c-17 -15 -59 -48 -101 -48c-23 0 -46 8 -67 32c-16 18 -37 47 -37 96c0 28 7 55 16 81c7 19 11 35 17 49c31 72 59 142 95 217c11 23 34 30 57 30c12 0 30 -1 46 -12c6 -4 11 -15 11 -25
c0 -40 -54 -98 -64 -121c-16 -37 -44 -104 -58 -139c-4 -10 -23 -63 -23 -97c0 -12 0 -20 8 -20c9 0 25 9 57 32zM293 605c-2 0 -4 0 -11 -3c-66 -29 -80 -37 -87 -44c-3 -3 -7 -4 -12 -4c-18 0 -26 11 -34 15s-13 13 -13 32c0 25 6 25 11 32c4 6 14 12 58 27l88 31
c7 2 12 3 20 3c13 0 29 -6 32 -12s6 -4 12 -15l59 -101c7 -12 12 -21 12 -27c0 -11 -12 -16 -16 -21c-7 -8 -12 -13 -23 -13c-8 0 -24 5 -36 21l-54 74c-2 3 -4 5 -6 5z" />
    <glyph glyph-name="idieresis" unicode="&#xef;" horiz-adv-x="220" 
d="M207 109c12 8 28 23 53 23c36 0 47 -15 47 -29c0 -8 -1 -17 -16 -31l-41 -38c-17 -15 -59 -48 -101 -48c-23 0 -46 8 -67 32c-16 18 -37 47 -37 96c0 28 7 55 16 81c7 19 11 35 17 49c31 72 59 142 95 217c11 23 34 30 57 30c12 0 30 -1 46 -12c6 -4 11 -15 11 -25
c0 -40 -54 -98 -64 -121c-16 -37 -44 -104 -58 -139c-4 -10 -23 -63 -23 -97c0 -12 0 -20 8 -20c9 0 25 9 57 32zM251 691c8 -14 11 -26 11 -35c0 -23 -20 -38 -21 -48c-1 -7 -21 -21 -48 -21c-16 0 -32 5 -43 21c-9 13 -11 21 -11 24c0 5 0 10 1 18c1 10 9 35 13 41
c9 15 22 20 44 20c15 0 45 -5 54 -20zM378 659c20 0 51 -9 55 -27c3 -14 12 -23 12 -39c0 -14 -19 -42 -30 -48c-6 -3 -17 -5 -30 -5c-19 0 -39 7 -44 21c-5 15 -21 22 -21 46c0 11 9 53 39 53c3 0 12 -1 19 -1z" />
    <glyph glyph-name="eth" unicode="&#xf0;" horiz-adv-x="400" 
d="M237 482c-10 -7 -26 -17 -40 -17c-10 0 -20 6 -28 17s-10 17 -10 25c0 15 10 25 13 27c11 7 -1 4 23 20c8 5 23 14 31 18c19 9 19 10 19 12s0 4 -8 14l-25 28c-14 14 -48 42 -56 55c-5 8 -7 13 -7 22c0 14 9 25 20 27c13 2 20 14 35 14c7 0 13 -2 44 -22
c19 -12 31 -20 31 -33c0 -3 3 -8 10 -15l26 -31c13 -16 14 -16 17 -16c4 0 40 25 65 37c6 3 12 4 18 4c13 0 24 -3 42 -21c5 -5 8 -11 8 -15c0 -14 -19 -24 -19 -32c0 -16 -52 -38 -63 -44c-4 -2 -7 -3 -7 -6c0 -4 4 -11 8 -21c29 -72 35 -120 35 -197
c0 -110 -54 -248 -155 -329c-15 -12 -32 -21 -56 -21c-34 0 -43 3 -69 17c-46 25 -57 20 -73 56c-11 25 -16 55 -16 85c0 76 30 160 68 206c13 16 33 44 39 52c12 17 47 53 92 53c14 0 27 -3 40 -9c14 -7 20 -13 24 -13c1 0 2 1 2 3s-3 18 -12 45c-8 23 -12 33 -15 33
s-5 0 -18 -7c-15 -8 -20 -12 -33 -21zM310 291c-2 0 -8 4 -11 16c-2 6 -9 37 -15 54c-4 11 -9 15 -12 15c-8 0 -24 -10 -35 -27c-52 -81 -87 -136 -87 -232c0 -35 11 -55 27 -55c14 0 30 16 35 21c20 20 52 55 79 122c16 39 23 75 23 80c0 3 -2 6 -4 6z" />
    <glyph glyph-name="ntilde" unicode="&#xf1;" horiz-adv-x="420" 
d="M134 115c41 59 84 112 130 160c61 63 72 75 80 93c14 32 20 46 41 46s27 -8 38 -9c28 -3 35 -27 35 -37c0 -4 -6 -19 -10 -26c-35 -58 -53 -96 -68 -145c-6 -19 -12 -68 -12 -88c0 -7 2 -21 7 -40c2 -8 7 -15 31 -31c12 -8 18 -20 18 -31c0 -13 -11 -25 -33 -25
c-20 0 -52 4 -66 18s-32 23 -41 36c-13 19 -17 45 -17 68c0 7 1 22 1 26c0 3 -1 4 -2 4c-2 0 -4 -2 -14 -16l-52 -72c-17 -24 -27 -24 -40 -39c-7 -8 -20 -14 -37 -14c-10 0 -25 4 -32 8c-22 12 -50 31 -61 45c-4 5 -9 18 -9 29c0 22 9 43 11 62c3 28 34 97 49 133
c29 69 52 116 96 182c5 7 9 17 16 23c8 7 26 11 45 11c22 0 43 -6 51 -23c4 -8 5 -16 5 -23c0 -16 -13 -33 -26 -48c-22 -24 -41 -48 -68 -99c-12 -22 -35 -72 -66 -153c-11 -29 -12 -32 -12 -34c0 -1 0 -2 1 -2s4 1 11 11zM361 576c-5 8 -10 13 -17 13s-17 -4 -33 -14
c-5 -3 -12 -4 -20 -4c-21 0 -47 9 -47 24c0 9 -8 25 -8 37c0 8 2 13 12 17l62 23c20 7 33 10 46 10c28 0 45 -17 67 -48c12 -17 17 -23 30 -23c9 0 18 3 30 8c7 3 31 10 46 10c22 0 30 -10 33 -25c2 -10 5 -15 5 -21c0 -5 -3 -10 -11 -15c-20 -13 -62 -46 -108 -46
c-20 0 -41 6 -61 22c-10 8 -18 20 -26 32z" />
    <glyph glyph-name="ograve" unicode="&#xf2;" horiz-adv-x="368" 
d="M354 455c15 -39 21 -46 44 -46c15 0 37 3 74 3c47 0 78 -18 78 -35c0 -10 -8 -14 -18 -18c-14 -5 -12 -10 -27 -13c-25 -4 -46 -13 -73 -17c-14 -2 -27 -2 -37 -2c-4 0 -7 -3 -9 -11c-26 -106 -60 -190 -122 -258c-24 -26 -55 -61 -98 -61c-11 0 -23 3 -33 8
c-39 19 -71 43 -80 67c-11 28 -15 55 -15 82c0 81 42 156 86 222c7 11 17 19 24 29c30 43 73 94 123 94c21 0 47 -6 68 -24c9 -8 12 -12 15 -20zM270 403c-3 0 -9 -1 -17 -12c-49 -64 -123 -180 -123 -258c0 -5 1 -18 5 -29c3 -8 11 -21 16 -21c6 0 13 3 25 21
c54 81 109 161 109 258c0 11 0 25 -4 28c-5 4 -7 7 -8 10c-1 2 -2 3 -3 3zM282 682c8 -7 40 -30 47 -35l85 -59c23 -16 29 -21 29 -30c0 -7 -6 -20 -6 -31c0 -9 -12 -17 -23 -17c-13 0 -29 5 -43 14l-100 64c-21 13 -38 21 -50 26c-20 8 -20 22 -20 40c0 14 16 46 42 46
c12 0 17 -6 20 -6c2 0 9 -4 19 -12z" />
    <glyph glyph-name="oacute" unicode="&#xf3;" horiz-adv-x="368" 
d="M354 455c15 -39 21 -46 44 -46c15 0 37 3 74 3c47 0 78 -18 78 -35c0 -10 -8 -14 -18 -18c-14 -5 -12 -10 -27 -13c-25 -4 -46 -13 -73 -17c-14 -2 -27 -2 -37 -2c-4 0 -7 -3 -9 -11c-26 -106 -60 -190 -122 -258c-24 -26 -55 -61 -98 -61c-11 0 -23 3 -33 8
c-39 19 -71 43 -80 67c-11 28 -15 55 -15 82c0 81 42 156 86 222c7 11 17 19 24 29c30 43 73 94 123 94c21 0 47 -6 68 -24c9 -8 12 -12 15 -20zM270 403c-3 0 -9 -1 -17 -12c-49 -64 -123 -180 -123 -258c0 -5 1 -18 5 -29c3 -8 11 -21 16 -21c6 0 13 3 25 21
c54 81 109 161 109 258c0 11 0 25 -4 28c-5 4 -7 7 -8 10c-1 2 -2 3 -3 3zM286 621l61 24c60 24 79 34 89 43c5 5 13 6 20 6c13 0 26 -5 35 -14c10 -10 13 -17 13 -36c0 -10 -2 -19 -5 -25c-8 -14 -33 -24 -80 -38l-99 -30c-10 -3 -17 -4 -26 -4c-7 0 -17 2 -22 5
c-11 7 -30 28 -30 38c0 6 1 11 6 17c4 5 10 7 15 7c2 0 15 4 23 7z" />
    <glyph glyph-name="ocircumflex" unicode="&#xf4;" horiz-adv-x="368" 
d="M354 455c15 -39 21 -46 44 -46c15 0 37 3 74 3c47 0 78 -18 78 -35c0 -10 -8 -14 -18 -18c-14 -5 -12 -10 -27 -13c-25 -4 -46 -13 -73 -17c-14 -2 -27 -2 -37 -2c-4 0 -7 -3 -9 -11c-26 -106 -60 -190 -122 -258c-24 -26 -55 -61 -98 -61c-11 0 -23 3 -33 8
c-39 19 -71 43 -80 67c-11 28 -15 55 -15 82c0 81 42 156 86 222c7 11 17 19 24 29c30 43 73 94 123 94c21 0 47 -6 68 -24c9 -8 12 -12 15 -20zM270 403c-3 0 -9 -1 -17 -12c-49 -64 -123 -180 -123 -258c0 -5 1 -18 5 -29c3 -8 11 -21 16 -21c6 0 13 3 25 21
c54 81 109 161 109 258c0 11 0 25 -4 28c-5 4 -7 7 -8 10c-1 2 -2 3 -3 3zM333 607c-2 0 -4 0 -11 -3c-66 -29 -80 -37 -87 -44c-3 -3 -7 -4 -12 -4c-18 0 -26 11 -34 15s-13 13 -13 32c0 25 6 25 11 32c4 6 14 12 58 27l88 31c7 2 12 3 20 3c13 0 29 -6 32 -12s6 -4 12 -15
l59 -101c7 -12 12 -21 12 -27c0 -11 -12 -16 -16 -21c-7 -8 -12 -13 -23 -13c-8 0 -24 5 -36 21l-54 74c-2 3 -4 5 -6 5z" />
    <glyph glyph-name="otilde" unicode="&#xf5;" horiz-adv-x="368" 
d="M354 455c15 -39 21 -46 44 -46c15 0 37 3 74 3c47 0 78 -18 78 -35c0 -10 -8 -14 -18 -18c-14 -5 -12 -10 -27 -13c-25 -4 -46 -13 -73 -17c-14 -2 -27 -2 -37 -2c-4 0 -7 -3 -9 -11c-26 -106 -60 -190 -122 -258c-24 -26 -55 -61 -98 -61c-11 0 -23 3 -33 8
c-39 19 -71 43 -80 67c-11 28 -15 55 -15 82c0 81 42 156 86 222c7 11 17 19 24 29c30 43 73 94 123 94c21 0 47 -6 68 -24c9 -8 12 -12 15 -20zM270 403c-3 0 -9 -1 -17 -12c-49 -64 -123 -180 -123 -258c0 -5 1 -18 5 -29c3 -8 11 -21 16 -21c6 0 13 3 25 21
c54 81 109 161 109 258c0 11 0 25 -4 28c-5 4 -7 7 -8 10c-1 2 -2 3 -3 3zM319 588c-5 8 -10 13 -17 13s-17 -4 -33 -14c-5 -3 -12 -4 -20 -4c-21 0 -47 9 -47 24c0 9 -8 25 -8 37c0 8 2 13 12 17l62 23c20 7 33 10 46 10c28 0 45 -17 67 -48c12 -17 17 -23 30 -23
c9 0 18 3 30 8c7 3 31 10 46 10c22 0 30 -10 33 -25c2 -10 5 -15 5 -21c0 -5 -3 -10 -11 -15c-20 -13 -62 -46 -108 -46c-20 0 -41 6 -61 22c-10 8 -18 20 -26 32z" />
    <glyph glyph-name="odieresis" unicode="&#xf6;" horiz-adv-x="368" 
d="M354 455c15 -39 21 -46 44 -46c15 0 37 3 74 3c47 0 78 -18 78 -35c0 -10 -8 -14 -18 -18c-14 -5 -12 -10 -27 -13c-25 -4 -46 -13 -73 -17c-14 -2 -27 -2 -37 -2c-4 0 -7 -3 -9 -11c-26 -106 -60 -190 -122 -258c-24 -26 -55 -61 -98 -61c-11 0 -23 3 -33 8
c-39 19 -71 43 -80 67c-11 28 -15 55 -15 82c0 81 42 156 86 222c7 11 17 19 24 29c30 43 73 94 123 94c21 0 47 -6 68 -24c9 -8 12 -12 15 -20zM270 403c-3 0 -9 -1 -17 -12c-49 -64 -123 -180 -123 -258c0 -5 1 -18 5 -29c3 -8 11 -21 16 -21c6 0 13 3 25 21
c54 81 109 161 109 258c0 11 0 25 -4 28c-5 4 -7 7 -8 10c-1 2 -2 3 -3 3zM317 689c8 -14 11 -26 11 -35c0 -23 -20 -38 -21 -48c-1 -7 -21 -21 -48 -21c-16 0 -32 5 -43 21c-9 13 -11 21 -11 24c0 5 0 10 1 18c1 10 9 35 13 41c9 15 22 20 44 20c15 0 45 -5 54 -20z
M444 657c20 0 51 -9 55 -27c3 -14 12 -23 12 -39c0 -14 -19 -42 -30 -48c-6 -3 -17 -5 -30 -5c-19 0 -39 7 -44 21c-5 15 -21 22 -21 46c0 11 9 53 39 53c3 0 12 -1 19 -1z" />
    <glyph glyph-name="divide" unicode="&#xf7;" horiz-adv-x="590" 
d="M560 295c0 -24 -2 -39 -8 -52c-5 -11 -20 -11 -42 -11s-145 -7 -244 -7c-59 0 -111 2 -127 10c-28 14 -28 57 -28 69c0 11 14 19 40 19c17 0 67 -7 156 -7c58 0 89 4 134 4c19 0 39 5 60 5c19 0 41 -2 55 -20c3 -4 4 -7 4 -10zM355 511c31 0 80 -42 80 -56
c0 -21 -10 -98 -61 -98c-11 0 -85 18 -85 54c0 37 17 56 29 88c3 8 17 12 37 12zM324 163c24 -23 35 -36 35 -61c0 -39 -8 -65 -62 -65c-36 0 -39 13 -53 27c-17 17 -28 21 -28 41c0 10 11 83 57 83c11 0 29 -4 51 -25z" />
    <glyph glyph-name="oslash" unicode="&#xf8;" horiz-adv-x="406" 
d="M398 456c10 10 23 20 38 20c6 0 13 -3 21 -9c10 -8 20 -25 20 -37c0 -13 -11 -12 -30 -27c-14 -11 -17 -15 -17 -19s3 -10 3 -25c0 -9 0 -17 -3 -35c-21 -127 -79 -228 -114 -273c-10 -13 -54 -64 -114 -64c-35 0 -80 24 -92 33c-4 3 -7 6 -10 6c-2 0 -4 -1 -6 -3
c-20 -18 -39 -25 -51 -25c-8 0 -12 3 -17 9c-4 4 -17 38 -17 40c0 15 24 23 38 34c4 3 10 6 10 10c0 8 -12 28 -12 72c0 80 51 157 82 199c16 22 27 34 36 46c50 66 87 94 129 94c24 0 54 -13 79 -38c8 -8 10 -7 13 -10c2 -2 4 -3 6 -3s5 2 8 5zM173 210
c44 47 103 113 151 166c9 10 9 11 9 13c0 1 -1 2 -3 3c-5 2 -14 7 -20 18c-3 5 -5 7 -6 7c-3 0 -11 -3 -24 -19c-65 -80 -98 -127 -123 -191c-2 -5 -3 -8 -3 -10c0 -1 1 -2 2 -2c2 0 3 0 17 15zM298 244c-9 -11 -109 -119 -118 -130l-16 -17c-6 -6 -8 -9 -8 -13
c0 -8 15 -17 21 -17c14 0 33 9 41 19c44 54 67 100 89 154c4 10 4 12 4 13s-1 2 -2 2s-4 -3 -11 -11z" />
    <glyph glyph-name="ugrave" unicode="&#xf9;" horiz-adv-x="420" 
d="M251 50c-32 -34 -73 -68 -99 -68c-7 0 -44 5 -72 22c-38 23 -39 46 -39 79c0 35 13 79 23 113c8 27 10 45 16 62c21 58 33 121 69 184c11 20 29 30 50 30c16 0 44 -9 51 -24c4 -9 11 -17 11 -27c0 -9 -6 -21 -21 -32c-7 -5 -20 -14 -27 -43c-22 -87 -64 -184 -74 -255
c-1 -7 -2 -16 -2 -18s0 -5 2 -5c3 0 8 3 16 11c32 32 28 34 44 51c61 65 115 138 146 219c5 13 9 17 20 23c9 5 17 8 25 8c17 0 28 -10 36 -13c23 -9 29 -18 29 -29c0 -12 -2 -18 -6 -26c-30 -60 -61 -144 -72 -221c-4 -29 -6 -47 -6 -57c0 -15 2 -30 9 -47
c4 -10 10 -23 10 -35c0 -8 -3 -24 -28 -24c-17 0 -37 9 -52 19c-17 11 -20 5 -28 24s-10 39 -10 57c0 13 2 36 2 38s-1 3 -3 3s-3 -1 -20 -19zM282 642c8 -7 40 -30 47 -35l85 -59c23 -16 29 -21 29 -30c0 -7 -6 -20 -6 -31c0 -9 -12 -17 -23 -17c-13 0 -29 5 -43 14
l-100 64c-21 13 -38 21 -50 26c-20 8 -20 22 -20 40c0 14 16 46 42 46c12 0 17 -6 20 -6c2 0 9 -4 19 -12z" />
    <glyph glyph-name="uacute" unicode="&#xfa;" horiz-adv-x="420" 
d="M251 50c-32 -34 -73 -68 -99 -68c-7 0 -44 5 -72 22c-38 23 -39 46 -39 79c0 35 13 79 23 113c8 27 10 45 16 62c21 58 33 121 69 184c11 20 29 30 50 30c16 0 44 -9 51 -24c4 -9 11 -17 11 -27c0 -9 -6 -21 -21 -32c-7 -5 -20 -14 -27 -43c-22 -87 -64 -184 -74 -255
c-1 -7 -2 -16 -2 -18s0 -5 2 -5c3 0 8 3 16 11c32 32 28 34 44 51c61 65 115 138 146 219c5 13 9 17 20 23c9 5 17 8 25 8c17 0 28 -10 36 -13c23 -9 29 -18 29 -29c0 -12 -2 -18 -6 -26c-30 -60 -61 -144 -72 -221c-4 -29 -6 -47 -6 -57c0 -15 2 -30 9 -47
c4 -10 10 -23 10 -35c0 -8 -3 -24 -28 -24c-17 0 -37 9 -52 19c-17 11 -20 5 -28 24s-10 39 -10 57c0 13 2 36 2 38s-1 3 -3 3s-3 -1 -20 -19zM300 585l61 24c60 24 79 34 89 43c5 5 13 6 20 6c13 0 26 -5 35 -14c10 -10 13 -17 13 -36c0 -10 -2 -19 -5 -25
c-8 -14 -33 -24 -80 -38l-99 -30c-10 -3 -17 -4 -26 -4c-7 0 -17 2 -22 5c-11 7 -30 28 -30 38c0 6 1 11 6 17c4 5 10 7 15 7c2 0 15 4 23 7z" />
    <glyph glyph-name="ucircumflex" unicode="&#xfb;" horiz-adv-x="420" 
d="M251 50c-32 -34 -73 -68 -99 -68c-7 0 -44 5 -72 22c-38 23 -39 46 -39 79c0 35 13 79 23 113c8 27 10 45 16 62c21 58 33 121 69 184c11 20 29 30 50 30c16 0 44 -9 51 -24c4 -9 11 -17 11 -27c0 -9 -6 -21 -21 -32c-7 -5 -20 -14 -27 -43c-22 -87 -64 -184 -74 -255
c-1 -7 -2 -16 -2 -18s0 -5 2 -5c3 0 8 3 16 11c32 32 28 34 44 51c61 65 115 138 146 219c5 13 9 17 20 23c9 5 17 8 25 8c17 0 28 -10 36 -13c23 -9 29 -18 29 -29c0 -12 -2 -18 -6 -26c-30 -60 -61 -144 -72 -221c-4 -29 -6 -47 -6 -57c0 -15 2 -30 9 -47
c4 -10 10 -23 10 -35c0 -8 -3 -24 -28 -24c-17 0 -37 9 -52 19c-17 11 -20 5 -28 24s-10 39 -10 57c0 13 2 36 2 38s-1 3 -3 3s-3 -1 -20 -19zM369 579c-2 0 -4 0 -11 -3c-66 -29 -80 -37 -87 -44c-3 -3 -7 -4 -12 -4c-18 0 -26 11 -34 15s-13 13 -13 32c0 25 6 25 11 32
c4 6 14 12 58 27l88 31c7 2 12 3 20 3c13 0 29 -6 32 -12s6 -4 12 -15l59 -101c7 -12 12 -21 12 -27c0 -11 -12 -16 -16 -21c-7 -8 -12 -13 -23 -13c-8 0 -24 5 -36 21l-54 74c-2 3 -4 5 -6 5z" />
    <glyph glyph-name="udieresis" unicode="&#xfc;" horiz-adv-x="420" 
d="M251 50c-32 -34 -73 -68 -99 -68c-7 0 -44 5 -72 22c-38 23 -39 46 -39 79c0 35 13 79 23 113c8 27 10 45 16 62c21 58 33 121 69 184c11 20 29 30 50 30c16 0 44 -9 51 -24c4 -9 11 -17 11 -27c0 -9 -6 -21 -21 -32c-7 -5 -20 -14 -27 -43c-22 -87 -64 -184 -74 -255
c-1 -7 -2 -16 -2 -18s0 -5 2 -5c3 0 8 3 16 11c32 32 28 34 44 51c61 65 115 138 146 219c5 13 9 17 20 23c9 5 17 8 25 8c17 0 28 -10 36 -13c23 -9 29 -18 29 -29c0 -12 -2 -18 -6 -26c-30 -60 -61 -144 -72 -221c-4 -29 -6 -47 -6 -57c0 -15 2 -30 9 -47
c4 -10 10 -23 10 -35c0 -8 -3 -24 -28 -24c-17 0 -37 9 -52 19c-17 11 -20 5 -28 24s-10 39 -10 57c0 13 2 36 2 38s-1 3 -3 3s-3 -1 -20 -19zM351 663c8 -14 11 -26 11 -35c0 -23 -20 -38 -21 -48c-1 -7 -21 -21 -48 -21c-16 0 -32 5 -43 21c-9 13 -11 21 -11 24
c0 5 0 10 1 18c1 10 9 35 13 41c9 15 22 20 44 20c15 0 45 -5 54 -20zM450 583c20 0 51 -9 55 -27c3 -14 12 -23 12 -39c0 -14 -19 -42 -30 -48c-6 -3 -17 -5 -30 -5c-19 0 -39 7 -44 21c-5 15 -21 22 -21 46c0 11 9 53 39 53c3 0 12 -1 19 -1z" />
    <glyph glyph-name="yacute" unicode="&#xfd;" horiz-adv-x="436" 
d="M152 114c2 0 6 1 12 5s29 15 64 56c12 14 21 21 36 39c31 38 79 68 125 192c3 9 13 34 36 34c13 0 21 -9 40 -10c14 -1 25 -2 34 -17c5 -8 7 -15 7 -21c0 -14 -6 -31 -19 -50l-24 -35c-25 -37 -39 -70 -59 -126l-54 -148c-7 -20 -8 -24 -8 -26s1 -4 6 -5
c8 -2 22 -8 22 -22c0 -9 -5 -18 -8 -22c-66 -88 -98 -183 -117 -276c-8 -40 -15 -111 -68 -117c-9 -1 -22 -3 -35 -3c-10 0 -21 2 -32 9c-14 9 -18 25 -18 41c0 29 15 64 19 73c23 52 52 112 84 168c6 30 37 128 62 207c3 10 5 16 5 18c0 3 -1 4 -3 4c-3 0 -11 -6 -26 -18
c-24 -19 -54 -36 -64 -36c-48 0 -86 17 -111 46c-7 8 -9 24 -9 35c0 57 33 157 39 174c20 56 47 113 64 174c4 14 21 33 43 33c4 0 7 0 12 -1c17 -3 33 -4 46 -13c9 -6 14 -18 14 -28c0 -14 -6 -27 -11 -36c-7 -13 -19 -24 -25 -37c-34 -74 -44 -123 -69 -200
c-8 -25 -13 -45 -13 -57c0 -3 1 -4 3 -4zM312 573l61 24c60 24 79 34 89 43c5 5 13 6 20 6c13 0 26 -5 35 -14c10 -10 13 -17 13 -36c0 -10 -2 -19 -5 -25c-8 -14 -33 -24 -80 -38l-99 -30c-10 -3 -17 -4 -26 -4c-7 0 -17 2 -22 5c-11 7 -30 28 -30 38c0 6 1 11 6 17
c4 5 10 7 15 7c2 0 15 4 23 7z" />
    <glyph glyph-name="thorn" unicode="&#xfe;" horiz-adv-x="456" 
d="M263 380c53 53 70 64 94 76c12 6 19 8 30 8c27 0 58 -18 87 -38c16 -11 21 -30 21 -50c0 -26 -5 -43 -9 -56c-3 -10 -1 -20 -8 -38c-33 -84 -86 -211 -163 -274c-7 -6 -18 -9 -30 -9c-9 0 -32 2 -60 17c-24 13 -39 28 -58 58c-7 11 -8 12 -10 12s-6 -6 -17 -27
c-33 -63 -85 -209 -111 -283c-6 -17 1 -48 -33 -48c-7 0 -19 3 -26 3c-16 0 -32 3 -40 13c-9 11 -16 14 -16 26c0 5 1 9 6 24c63 189 182 422 295 802c11 37 12 49 12 59c0 20 22 17 43 25c8 3 16 5 25 5c21 0 45 -11 45 -31c0 -21 -22 -87 -45 -156
c-12 -35 -38 -106 -41 -113c-2 -5 -3 -8 -3 -10s1 -3 2 -3s2 0 10 8zM257 86c3 0 6 3 11 9c25 31 71 111 104 228c7 25 8 30 8 32s-1 3 -2 3c-3 0 -9 -3 -20 -12c-51 -41 -99 -99 -127 -146c-3 -5 -4 -15 -4 -26c0 -23 6 -54 18 -76c5 -9 9 -12 12 -12z" />
    <glyph glyph-name="ydieresis" unicode="&#xff;" horiz-adv-x="436" 
d="M152 114c2 0 6 1 12 5s29 15 64 56c12 14 21 21 36 39c31 38 79 68 125 192c3 9 13 34 36 34c13 0 21 -9 40 -10c14 -1 25 -2 34 -17c5 -8 7 -15 7 -21c0 -14 -6 -31 -19 -50l-24 -35c-25 -37 -39 -70 -59 -126l-54 -148c-7 -20 -8 -24 -8 -26s1 -4 6 -5
c8 -2 22 -8 22 -22c0 -9 -5 -18 -8 -22c-66 -88 -98 -183 -117 -276c-8 -40 -15 -111 -68 -117c-9 -1 -22 -3 -35 -3c-10 0 -21 2 -32 9c-14 9 -18 25 -18 41c0 29 15 64 19 73c23 52 52 112 84 168c6 30 37 128 62 207c3 10 5 16 5 18c0 3 -1 4 -3 4c-3 0 -11 -6 -26 -18
c-24 -19 -54 -36 -64 -36c-48 0 -86 17 -111 46c-7 8 -9 24 -9 35c0 57 33 157 39 174c20 56 47 113 64 174c4 14 21 33 43 33c4 0 7 0 12 -1c17 -3 33 -4 46 -13c9 -6 14 -18 14 -28c0 -14 -6 -27 -11 -36c-7 -13 -19 -24 -25 -37c-34 -74 -44 -123 -69 -200
c-8 -25 -13 -45 -13 -57c0 -3 1 -4 3 -4zM347 649c8 -14 11 -26 11 -35c0 -23 -20 -38 -21 -48c-1 -7 -21 -21 -48 -21c-16 0 -32 5 -43 21c-9 13 -11 21 -11 24c0 5 0 10 1 18c1 10 9 35 13 41c9 15 22 20 44 20c15 0 45 -5 54 -20zM474 617c20 0 51 -9 55 -27
c3 -14 12 -23 12 -39c0 -14 -19 -42 -30 -48c-6 -3 -17 -5 -30 -5c-19 0 -39 7 -44 21c-5 15 -21 22 -21 46c0 11 9 53 39 53c3 0 12 -1 19 -1z" />
    <glyph glyph-name="dotlessi" unicode="&#x131;" horiz-adv-x="220" 
d="M207 109c12 8 28 23 53 23c36 0 47 -15 47 -29c0 -8 -1 -17 -16 -31l-41 -38c-17 -15 -59 -48 -101 -48c-23 0 -46 8 -67 32c-16 18 -37 47 -37 96c0 28 7 55 16 81c7 19 11 35 17 49c31 72 59 142 95 217c11 23 34 30 57 30c12 0 30 -1 46 -12c6 -4 11 -15 11 -25
c0 -40 -54 -98 -64 -121c-16 -37 -44 -104 -58 -139c-4 -10 -23 -63 -23 -97c0 -12 0 -20 8 -20c9 0 25 9 57 32z" />
    <glyph glyph-name="IJ" unicode="&#x132;" horiz-adv-x="654" 
d="M132 -28c-9 -1 -11 -18 -27 -18c-12 0 -18 10 -24 11c-11 2 -23 13 -29 16c-2 1 -15 3 -15 14c0 5 9 60 18 75c4 7 5 11 8 23c39 155 91 284 139 435c11 35 10 10 39 95c4 13 25 16 40 16c36 0 82 -16 82 -38c0 -52 -15 -37 -35 -76c-2 -4 -6 -9 -9 -17
c-12 -32 -154 -424 -154 -452c0 -5 2 -8 2 -15c0 -16 -4 -66 -35 -69zM750 544c-61 -129 -118 -263 -161 -404c-13 -43 -40 -101 -56 -126c-33 -52 -82 -99 -131 -99c-37 0 -52 19 -74 26c-65 21 -80 100 -80 166c0 36 4 68 8 85c2 9 17 57 44 57c20 0 22 -4 34 -4
c29 0 48 -30 48 -45c0 -17 -15 -32 -19 -49c-7 -29 -13 -13 -13 -63c0 -55 18 -84 26 -84c11 0 30 7 58 52c25 39 35 63 60 134c64 186 87 242 137 351c8 18 15 32 15 35s-2 4 -5 4c-4 0 -57 -14 -73 -18c-4 -1 -9 -4 -14 -7c-15 -9 -39 -14 -67 -14c-20 0 -55 0 -62 25
c-2 7 -11 6 -11 21c0 14 5 27 7 38c1 7 4 12 19 12c19 0 45 2 123 19c83 18 119 24 147 24c18 0 31 -2 59 -22c14 -10 25 -19 25 -31c0 -39 -29 -51 -44 -83z" />
    <glyph glyph-name="ij" unicode="&#x133;" horiz-adv-x="478" 
d="M210 102c26 14 79 41 81 48c34 91 73 183 102 278c3 10 11 17 19 24c11 9 19 10 44 10c14 0 33 -2 41 -11c6 -7 13 -17 13 -26c0 -6 -4 -12 -9 -22c-26 -53 -45 -98 -69 -155c-5 -12 -8 -21 -8 -26c0 -2 0 -3 2 -3c3 0 7 2 20 14c23 21 45 38 59 47c7 4 20 13 36 13
c21 0 36 -3 36 -22c0 -12 -4 -27 -13 -35c-14 -13 -25 -22 -33 -29c-70 -61 -126 -134 -180 -210c-14 -19 -26 -42 -32 -56c-40 -101 -68 -188 -111 -296c-6 -15 -21 -39 -48 -39c-14 0 -25 6 -36 9c-28 8 -36 32 -36 51c0 11 3 21 5 27c47 122 119 227 157 341
c-17 -15 -59 -48 -101 -48c-23 0 -46 8 -67 32c-16 18 -37 47 -37 96c0 28 7 55 16 81c7 19 11 35 17 49c31 72 59 142 95 217c11 23 34 30 57 30c12 0 30 -1 46 -12c6 -4 11 -15 11 -25c0 -40 -54 -98 -64 -121c-16 -37 -44 -104 -58 -139c-4 -10 -23 -63 -23 -97
c0 -12 0 -20 8 -20c9 0 25 6 60 25zM621 640c0 -35 -25 -33 -31 -53c-7 -22 -18 -25 -35 -25c-25 0 -60 15 -73 39c-6 11 -9 34 -9 44c0 4 2 10 7 16c12 14 34 29 62 29c18 0 37 -6 59 -24c12 -10 20 -19 20 -26zM317 704c18 0 45 -6 58 -19c9 -9 13 -23 13 -35
c0 -8 -2 -17 -6 -21c-11 -11 -38 -50 -70 -50c-31 0 -51 17 -56 27c-6 11 -8 23 -8 36c0 16 4 32 13 43c11 13 32 19 56 19z" />
    <glyph glyph-name="Lslash" unicode="&#x141;" horiz-adv-x="450" 
d="M466 619c-23 0 -86 -13 -94 -14h-4c-44 -4 -159 -16 -217 -40c-29 -12 -35 -28 -47 -33c-2 -1 -4 -1 -6 -1h-5c-4 0 -10 -1 -17 -3c-4 -2 -8 -2 -11 -2c-9 0 -13 5 -16 12c-1 4 -2 8 -2 12c0 19 12 43 30 65c9 10 26 19 46 27c81 33 216 50 263 52c61 2 120 2 189 11
c6 0 10 -3 13 -9c2 -5 2 -11 2 -17c0 -12 -2 -26 -7 -34c-7 -14 -18 -22 -25 -25c-6 -2 -13 -5 -21 -5c-12 0 -69 4 -71 4zM247 73c68 20 106 34 166 59c5 2 11 3 17 3c35 0 84 -29 84 -47c0 -3 5 -13 5 -19c0 -5 -1 -10 -4 -14c-10 -15 -38 -8 -63 -14
c-92 -22 -183 -74 -293 -74c-50 0 -81 42 -96 63c-4 5 -5 11 -5 18c0 24 17 54 20 72c1 6 3 17 9 35c45 135 113 266 170 395c3 7 18 14 34 14c21 0 25 -10 38 -13c29 -8 40 -21 40 -34c0 -14 -11 -31 -12 -37c-2 -9 0 -12 -9 -20c-18 -15 -32 -45 -49 -82
c-15 -33 -77 -193 -108 -278c-4 -11 -8 -24 -8 -31c0 -5 1 -9 6 -9c14 1 27 4 58 13z" />
    <glyph glyph-name="lslash" unicode="&#x142;" horiz-adv-x="232" 
d="M518 717c-23 0 -86 -13 -94 -14h-4c-44 -4 -159 -16 -217 -40c-29 -12 -35 -28 -47 -33c-2 -1 -4 -1 -6 -1h-5c-4 0 -10 -1 -17 -3c-4 -2 -8 -2 -11 -2c-9 0 -13 5 -16 12c-1 4 -2 8 -2 12c0 19 12 43 30 65c9 10 26 19 46 27c81 33 216 50 263 52c61 2 120 2 189 11
c6 0 10 -3 13 -9c2 -5 2 -11 2 -17c0 -12 -2 -26 -7 -34c-7 -14 -18 -22 -25 -25c-6 -2 -13 -5 -21 -5c-12 0 -69 4 -71 4zM142 61c2 0 5 1 8 3c57 38 91 110 143 110c14 0 50 -9 50 -32c0 -14 -10 -20 -19 -29c-22 -23 -92 -131 -167 -131c-6 0 -12 1 -18 2
c-37 8 -65 25 -83 44c-20 21 -24 36 -24 67c0 54 22 103 41 152c35 91 103 220 162 324c12 29 20 87 68 87c14 0 24 1 34 1c19 0 37 -9 42 -17c5 -10 9 -21 9 -31c0 -13 -4 -25 -11 -36c-75 -119 -158 -228 -207 -356c-17 -44 -37 -74 -37 -136c0 -18 5 -22 9 -22z" />
    <glyph glyph-name="OE" unicode="&#x152;" horiz-adv-x="750" 
d="M559 384c32 11 82 27 121 27c22 0 44 -5 66 -13c24 -9 25 -17 25 -28c0 -20 -6 -50 -47 -50c-11 0 -19 2 -32 2c-56 0 -132 -37 -177 -50c-14 -4 -16 -8 -20 -19c-17 -47 -39 -101 -64 -161c-3 -7 -5 -12 -5 -15c0 -4 2 -5 8 -5s15 1 41 6c51 10 113 31 138 44
c23 12 77 47 123 47c10 0 22 -2 29 -6c22 -13 31 -28 31 -42c0 -10 -5 -19 -13 -25c-14 -10 -29 -15 -47 -25c-17 -9 -205 -92 -323 -92c-49 0 -60 13 -65 13c-20 0 -39 -17 -98 -17c-18 0 -54 2 -74 13c-76 42 -90 109 -90 164c0 115 41 237 119 347c68 96 123 133 156 133
c54 0 102 -8 133 -37c4 -3 9 -9 12 -9c8 0 6 3 42 14c78 26 185 54 279 54c11 0 22 -3 31 -4c55 -6 70 -32 70 -54c0 -6 -3 -17 -5 -23c-4 -10 -13 -13 -25 -13c-20 0 -48 8 -81 8c-78 0 -171 -27 -234 -52c-18 -7 -19 -10 -22 -23l-19 -91c-2 -10 -3 -16 -3 -19s1 -4 3 -4
c3 0 5 1 17 5zM437 485c-24 12 -33 47 -33 59c0 4 -2 7 -8 7c-5 0 -12 -3 -24 -14c-80 -74 -135 -167 -165 -268c-11 -37 -14 -86 -14 -120c0 -10 2 -94 47 -94c34 0 76 32 133 179c7 18 10 26 10 30c0 2 -1 5 -4 10c-9 14 -10 21 -10 44c0 10 13 14 27 16c8 1 10 1 14 11
c22 55 36 123 36 130c0 5 -1 6 -9 10z" />
    <glyph glyph-name="oe" unicode="&#x153;" horiz-adv-x="578" 
d="M271 62c-30 -45 -66 -63 -99 -63c-11 0 -21 1 -31 5c-95 38 -103 98 -103 144c0 84 51 174 103 250c27 39 81 118 155 118c23 0 48 -8 73 -29c32 -27 28 -37 34 -37c4 0 5 6 24 22c29 25 80 47 126 47c30 0 87 -12 87 -71c0 -39 -22 -88 -44 -118
c-59 -80 -124 -154 -227 -213c-7 -4 -7 -6 -7 -11c0 -13 21 -32 26 -32c11 0 22 4 39 12c76 36 168 125 200 145c8 5 17 7 27 7c22 0 46 -10 46 -32c0 -16 -8 -23 -71 -80c-56 -50 -135 -105 -180 -125c-11 -5 -19 -5 -31 -5c-40 0 -76 19 -109 40c-11 7 -21 20 -24 26
c-2 4 -3 6 -6 6s-4 0 -8 -6zM284 422c-3 0 -5 -2 -19 -20c-36 -46 -133 -182 -133 -265c0 -33 17 -51 23 -51s15 5 52 57c43 61 105 173 105 242c0 20 -1 21 -15 28c-10 5 -7 9 -13 9zM404 247c47 43 66 77 103 118c25 28 35 56 35 67c0 4 -3 6 -7 6c-5 0 -10 -1 -21 -10
c-59 -48 -99 -102 -131 -167c-13 -26 -13 -30 -13 -32c0 -3 2 -4 4 -4s8 2 30 22z" />
    <glyph glyph-name="Scaron" unicode="&#x160;" horiz-adv-x="432" 
d="M340 508c0 -37 9 -84 13 -101c15 -63 57 -199 70 -276c4 -24 7 -42 7 -60c0 -40 -13 -77 -64 -96c-13 -5 -28 -5 -44 -5c-98 0 -189 58 -252 136c-13 16 -22 24 -29 34c-19 27 -29 62 -29 83c0 17 5 36 22 43c3 1 7 2 12 2c19 0 42 -8 59 -18c20 -12 39 -32 39 -40
c0 -13 -5 -23 -5 -35c0 -32 59 -85 95 -105c28 -16 44 -21 51 -21c24 0 29 25 29 32c0 25 -2 61 -4 74c-17 111 -55 198 -76 308c-6 31 -10 51 -10 75c0 7 1 14 3 23c6 27 8 94 70 94c148 0 190 -88 200 -146c3 -17 5 -21 5 -29c0 -12 -6 -21 -29 -21c-4 0 -8 0 -23 4
c-26 7 -42 27 -54 39c-7 7 -9 39 -18 56c-5 10 -13 15 -19 15c-8 0 -19 -31 -19 -65zM348 863c3 0 13 2 19 2c12 0 23 -4 25 -13c1 -7 21 -40 34 -60c4 -6 6 -9 11 -9s12 2 32 13l63 33c8 4 16 7 23 7c15 0 26 -10 26 -26c0 -7 1 -13 1 -19c0 -11 -3 -19 -24 -32l-110 -68
c-8 -5 -11 -4 -15 -6s-8 -3 -12 -3c-13 0 -28 9 -34 17l-48 69c-16 23 -22 40 -22 53c0 12 5 23 18 36c3 3 6 6 13 6z" />
    <glyph glyph-name="scaron" unicode="&#x161;" horiz-adv-x="296" 
d="M258 421c-10 -12 -20 -26 -28 -41c-10 -18 -15 -35 -15 -58c0 -28 6 -84 20 -171c9 -56 17 -102 17 -126c0 -18 -37 -57 -83 -57c-9 0 -17 1 -29 6c-70 29 -118 82 -150 137c-4 7 -7 13 -7 18c0 13 16 40 49 40c10 0 18 -1 25 -4c15 -7 21 -12 24 -16
c16 -22 30 -57 52 -82c7 -8 11 -12 13 -12s2 1 2 3c0 4 -1 10 -13 77c-13 71 -23 165 -23 180c0 27 12 84 36 122c28 45 70 66 95 66c62 0 90 -18 112 -42c16 -17 21 -48 21 -67c0 -28 -8 -57 -29 -84c-9 -12 -12 -13 -22 -13c-19 0 -38 8 -49 17c-12 10 -17 23 -17 33
c0 5 1 10 3 13c5 9 17 31 17 48c0 6 -1 11 -3 15s-4 7 -7 7c-2 0 -5 -2 -11 -9zM267 721c3 0 13 2 19 2c12 0 23 -4 25 -13c1 -7 21 -40 34 -60c4 -6 6 -9 11 -9s12 2 32 13l63 33c8 4 16 7 23 7c15 0 26 -10 26 -26c0 -7 1 -13 1 -19c0 -11 -3 -19 -24 -32l-110 -68
c-8 -5 -11 -4 -15 -6s-8 -3 -12 -3c-13 0 -28 9 -34 17l-48 69c-16 23 -22 40 -22 53c0 12 5 23 18 36c3 3 6 6 13 6z" />
    <glyph glyph-name="Ydieresis" unicode="&#x178;" horiz-adv-x="502" 
d="M326 190c-21 -14 -52 -28 -83 -28c-9 0 -19 1 -28 5c-22 10 -52 31 -62 40c-25 22 -42 47 -42 61c0 3 3 65 6 105c1 12 4 17 4 35c0 22 9 34 10 46c1 15 27 179 47 213c4 7 6 9 20 9c19 0 47 -8 60 -9c22 -2 27 -31 27 -38c0 -26 -17 -46 -22 -71
c-15 -76 -34 -173 -40 -238c-4 -43 -5 -58 -5 -64c0 -11 1 -12 5 -12c3 0 11 2 19 7c119 75 163 143 217 245c11 21 17 36 32 61c14 24 28 45 34 53c5 6 7 8 15 8c15 0 53 -5 74 -28c8 -9 13 -26 13 -32c0 -4 -1 -8 -6 -15c-139 -194 -226 -469 -277 -850
c-4 -30 -5 -34 -8 -38c-2 -3 -6 -3 -10 -3c-10 0 -26 4 -32 5c-30 5 -56 16 -60 35c-2 10 -3 19 -3 29c0 41 15 83 23 120c4 18 7 39 11 59c16 84 42 177 67 264c6 21 8 28 8 30c0 1 -1 2 -2 2c-2 0 -6 -2 -12 -6zM405 819c8 -14 11 -26 11 -35c0 -23 -20 -38 -21 -48
c-1 -7 -21 -21 -48 -21c-16 0 -32 5 -43 21c-9 13 -11 21 -11 24c0 5 0 10 1 18c1 10 9 35 13 41c9 15 22 22 44 22c15 0 45 -7 54 -22zM532 787c20 0 51 -9 55 -27c3 -14 12 -23 12 -39c0 -14 -19 -42 -30 -48c-6 -3 -17 -5 -30 -5c-19 0 -39 7 -44 21c-5 15 -21 22 -21 46
c0 11 9 53 39 53c3 0 12 -1 19 -1z" />
    <glyph glyph-name="Zcaron" unicode="&#x17d;" horiz-adv-x="560" 
d="M540 365c34 -5 63 -17 81 -39c4 -5 6 -11 6 -19c0 -13 -7 -27 -24 -27c-7 0 -10 3 -52 3c-77 0 -144 -24 -214 -35c-69 -59 -164 -104 -200 -176c-3 -6 -4 -12 -4 -16s18 -15 35 -15c18 0 37 -9 56 -9c80 0 172 42 236 63c12 4 19 5 30 5c17 0 43 -4 49 -16
c9 -17 33 -38 33 -54c0 -4 -2 -13 -17 -13c-8 0 -9 3 -15 3c-4 0 3 -2 -21 -12c-62 -26 -157 -57 -257 -57c-70 0 -143 16 -209 58c-11 7 -46 54 -46 75c0 18 1 23 6 32c14 25 46 58 114 114c9 7 13 9 13 13c0 3 -3 2 -16 7c-14 5 -22 10 -26 15c-7 9 -10 16 -10 23
c0 8 3 16 3 24c0 13 10 28 34 28c18 0 67 -18 79 -18c13 0 62 6 70 11c80 50 209 135 263 215c4 6 5 9 5 13c0 9 -63 16 -97 16c-63 0 -112 -18 -129 -52c-4 -8 -14 -10 -28 -10c-24 0 -55 11 -67 34c-8 16 -13 38 -13 45c0 5 0 8 6 12c43 28 121 53 207 53
c63 0 130 -13 189 -47c7 -4 57 -45 57 -64c0 -37 -7 -48 -49 -90c-13 -13 -23 -29 -78 -74c-12 -10 -15 -12 -15 -15c0 -4 8 -3 15 -4zM451 879c3 0 13 2 19 2c12 0 23 -4 25 -13c1 -7 21 -40 34 -60c4 -6 6 -9 11 -9s12 2 32 13l63 33c8 4 16 7 23 7c15 0 26 -10 26 -26
c0 -7 1 -13 1 -19c0 -11 -3 -19 -24 -32l-110 -68c-8 -5 -11 -4 -15 -6s-8 -3 -12 -3c-13 0 -28 9 -34 17l-48 69c-16 23 -22 40 -22 53c0 12 5 23 18 36c3 3 6 6 13 6z" />
    <glyph glyph-name="zcaron" unicode="&#x17e;" horiz-adv-x="384" 
d="M377 307c0 -2 2 -3 14 -5c24 -4 52 -17 62 -29c7 -8 10 -13 10 -20c0 -8 -9 -18 -31 -18c-32 0 -103 -10 -161 -28c-30 -9 -31 -10 -66 -47c-25 -27 -51 -56 -67 -72c-6 -6 -11 -12 -11 -20c0 -5 1 -8 7 -11c9 -4 15 -5 20 -5c7 0 14 2 24 5c9 3 24 7 38 7
c34 0 73 38 118 38c18 0 36 -6 56 -23c7 -6 11 -13 11 -19s-5 -15 -15 -19c-55 -22 -133 -60 -215 -60c-41 0 -83 12 -114 30c-26 15 -35 43 -35 66c0 11 1 20 4 26c12 27 35 49 56 73c7 8 14 14 14 17c0 2 -3 3 -6 4c-17 6 -28 12 -35 26c-8 16 -12 24 -12 34
c0 13 14 24 36 24c27 0 41 -14 70 -14c57 0 92 67 130 87c29 15 43 38 43 40s-1 3 -3 3c-3 0 -6 -1 -12 -3c-11 -4 -20 -6 -29 -7c-34 -4 -63 -21 -86 -47c-3 -3 -7 -5 -12 -5c-27 0 -55 27 -55 62c0 16 7 31 24 35c46 11 105 32 161 32c41 0 89 -14 102 -29
c9 -11 23 -18 27 -30c3 -8 4 -15 4 -21c0 -30 -28 -49 -58 -70c-6 -4 -8 -5 -8 -7zM300 685c3 0 13 2 19 2c12 0 23 -4 25 -13c1 -7 21 -40 34 -60c4 -6 6 -9 11 -9s12 2 32 13l63 33c8 4 16 7 23 7c15 0 26 -10 26 -26c0 -7 1 -13 1 -19c0 -11 -3 -19 -24 -32l-110 -68
c-8 -5 -11 -4 -15 -6s-8 -3 -12 -3c-13 0 -28 9 -34 17l-48 69c-16 23 -22 40 -22 53c0 12 5 23 18 36c3 3 6 6 13 6z" />
    <glyph glyph-name="florin" unicode="&#x192;" horiz-adv-x="420" 
d="M-40 -100c20 0 43 12 59 29c17 19 24 29 51 94c38 92 66 170 89 230c3 8 4 11 4 15c0 2 0 4 -3 6c-12 8 -55 14 -55 46c0 7 -2 15 -2 23s4 22 22 22c15 0 61 -5 66 -5c3 0 9 1 12 9l52 132c22 54 79 177 233 177c23 0 59 -5 75 -9c10 -3 17 -7 18 -17c1 -7 4 -14 4 -17
c0 -16 -10 -44 -27 -45c-27 -2 -17 -9 -38 -9c-11 0 -42 5 -49 5c-65 0 -109 -112 -118 -135c-12 -31 -27 -75 -27 -80c0 -6 4 -6 8 -6c5 0 55 6 76 6c15 0 29 -1 35 -4c25 -12 22 -24 32 -37c3 -4 5 -11 5 -17c0 -11 -5 -22 -18 -22c-61 0 -105 -20 -168 -20
c-4 0 -8 -2 -10 -6c-58 -155 -104 -267 -129 -318c-18 -37 -89 -140 -212 -140c-9 0 -36 3 -53 3c-27 0 -70 2 -70 24c0 17 12 28 17 45c6 20 32 26 64 26c59 0 44 -5 57 -5z" />
    <glyph glyph-name="uni02BB" unicode="&#x2bb;" horiz-adv-x="192" 
d="M122 429l60 105c27 48 46 83 49 90c5 12 14 19 34 19c5 0 66 -1 66 -49c0 -21 -13 -48 -17 -53c-12 -14 -24 -30 -34 -47l-60 -101c-8 -13 -20 -21 -39 -21c-14 0 -32 6 -38 7c-21 3 -28 21 -28 29c0 7 1 10 7 21z" />
    <glyph glyph-name="afii57929" unicode="&#x2bc;" horiz-adv-x="192" 
d="M122 429l60 105c27 48 46 83 49 90c5 12 14 19 34 19c5 0 66 -1 66 -49c0 -21 -13 -48 -17 -53c-12 -14 -24 -30 -34 -47l-60 -101c-8 -13 -20 -21 -39 -21c-14 0 -32 6 -38 7c-21 3 -28 21 -28 29c0 7 1 10 7 21z" />
    <glyph glyph-name="circumflex" unicode="&#x2c6;" horiz-adv-x="510" 
d="M421 775c-2 0 -4 0 -11 -3c-66 -29 -80 -37 -87 -44c-3 -3 -7 -4 -12 -4c-18 0 -26 11 -34 15s-13 13 -13 32c0 25 6 25 11 32c4 6 14 12 58 27l88 31c7 2 12 3 20 3c13 0 29 -6 32 -12s6 -4 12 -15l59 -101c7 -12 12 -21 12 -27c0 -11 -12 -16 -16 -21
c-7 -8 -12 -13 -23 -13c-8 0 -24 5 -36 21l-54 74c-2 3 -4 5 -6 5z" />
    <glyph glyph-name="caron" unicode="&#x2c7;" horiz-adv-x="510" 
d="M336 867c3 0 13 2 19 2c12 0 23 -4 25 -13c1 -7 21 -40 34 -60c4 -6 6 -9 11 -9s12 2 32 13l63 33c8 4 16 7 23 7c15 0 26 -10 26 -26c0 -7 1 -13 1 -19c0 -11 -3 -19 -24 -32l-110 -68c-8 -5 -11 -4 -15 -6s-8 -3 -12 -3c-13 0 -28 9 -34 17l-48 69
c-16 23 -22 40 -22 53c0 12 5 23 18 36c3 3 6 6 13 6z" />
    <glyph glyph-name="breve" unicode="&#x2d8;" horiz-adv-x="510" 
d="M351 853c10 -10 24 -38 24 -47c0 -13 1 -18 10 -29s19 -15 29 -15c39 0 84 59 101 65c3 1 8 2 13 2c15 0 30 -9 32 -20c2 -13 12 -17 12 -28c0 -8 -6 -8 -12 -17c-24 -36 -83 -78 -144 -78c-100 0 -135 88 -143 122c-2 8 -4 12 -4 16c0 3 2 8 5 12c9 12 23 7 32 17
c5 5 12 9 21 9c7 0 17 -2 24 -9z" />
    <glyph glyph-name="dotaccent" unicode="&#x2d9;" horiz-adv-x="510" 
d="M427 827c63 0 72 -39 72 -57c0 -5 0 -13 -6 -20c-10 -11 -39 -51 -73 -51c-31 0 -52 18 -57 28c-7 14 -8 22 -8 33c0 17 5 33 15 46c14 19 35 21 57 21z" />
    <glyph glyph-name="ring" unicode="&#x2da;" horiz-adv-x="510" 
d="M423 858c59 0 94 -39 96 -54c1 -8 2 -18 2 -26c0 -61 -33 -114 -90 -114c-21 0 -59 7 -75 17c-28 17 -40 42 -40 61c0 31 33 97 65 110c10 4 26 6 42 6zM434 799c-1 2 -2 3 -3 3c-2 0 -3 -1 -7 -7c-5 -7 -21 -33 -21 -54c0 -16 6 -22 8 -22c1 0 2 1 5 5c5 7 23 34 23 51
c0 10 -2 18 -5 24z" />
    <glyph glyph-name="ogonek" unicode="&#x2db;" horiz-adv-x="348" 
d="M194 31c-26 -31 -50 -67 -50 -100c0 -3 0 -21 13 -21c18 0 12 8 45 8c15 0 42 -3 42 -20c0 -12 -9 -19 -12 -30c-1 -4 0 -9 -5 -16c-11 -15 -35 -18 -66 -18c-90 0 -104 58 -104 88c0 41 23 91 54 126h66z" />
    <glyph glyph-name="tilde" unicode="&#x2dc;" horiz-adv-x="510" 
d="M373 744c-5 8 -10 13 -17 13s-17 -4 -33 -14c-5 -3 -12 -4 -20 -4c-21 0 -47 9 -47 24c0 9 -8 25 -8 37c0 8 2 13 12 17l62 23c20 7 33 10 46 10c28 0 45 -17 67 -48c12 -17 17 -23 30 -23c9 0 18 3 30 8c7 3 31 10 46 10c22 0 30 -10 33 -25c2 -10 5 -15 5 -21
c0 -5 -3 -10 -11 -15c-20 -13 -62 -46 -108 -46c-20 0 -41 6 -61 22c-10 8 -18 20 -26 32z" />
    <glyph glyph-name="hungarumlaut" unicode="&#x2dd;" horiz-adv-x="510" 
d="M445 689c-26 6 -37 21 -37 34c0 6 2 13 21 32c13 13 12 15 24 28l74 80c6 6 28 26 51 26c10 0 20 -4 29 -14c16 -18 28 -21 28 -43c0 -10 -21 -34 -33 -39c-5 -2 -9 -3 -15 -9l-102 -92c-9 -8 -13 -11 -22 -11c-12 0 -14 7 -18 8zM297 777c7 7 24 25 39 46l36 49
c8 11 26 31 48 53c3 3 7 4 11 4c6 0 14 -3 22 -5c12 -3 23 -13 30 -18c15 -11 20 -19 20 -26c0 -11 -11 -20 -15 -32c-1 -3 -5 -8 -14 -11c-3 -1 -30 -28 -37 -36c-23 -26 -52 -59 -59 -69c-3 -4 -17 -19 -35 -19c-6 0 -12 2 -18 4c-20 7 -14 19 -21 29c-3 4 -17 5 -17 15
c0 3 5 11 10 16z" />
    <glyph glyph-name="gravecomb" unicode="&#x300;" horiz-adv-x="1" 
d="M-75 707c8 -7 40 -30 47 -35l85 -59c23 -16 29 -21 29 -30c0 -7 -6 -20 -6 -31c0 -9 -12 -17 -23 -17c-13 0 -29 5 -43 14l-100 64c-21 13 -38 21 -50 26c-20 8 -20 22 -20 40c0 14 16 46 42 46c12 0 17 -6 20 -6c2 0 9 -4 19 -12z" />
    <glyph glyph-name="acutecomb" unicode="&#x301;" horiz-adv-x="1" 
d="M-81 621l61 24c60 24 79 34 89 43c5 5 13 6 20 6c13 0 26 -5 35 -14c10 -10 13 -17 13 -36c0 -10 -2 -19 -5 -25c-8 -14 -33 -24 -80 -38l-99 -30c-10 -3 -17 -4 -26 -4c-7 0 -17 2 -22 5c-11 7 -30 28 -30 38c0 6 1 11 6 17c4 5 10 7 15 7c2 0 15 4 23 7z" />
    <glyph glyph-name="uni0302" unicode="&#x302;" horiz-adv-x="1" 
d="M-24 637c-2 0 -4 0 -11 -3c-66 -29 -80 -37 -87 -44c-3 -3 -7 -4 -12 -4c-18 0 -26 11 -34 15s-13 13 -13 32c0 25 6 25 11 32c4 6 14 12 58 27l88 31c7 2 12 3 20 3c13 0 29 -6 32 -12s6 -4 12 -15l59 -101c7 -12 12 -21 12 -27c0 -11 -12 -16 -16 -21
c-7 -8 -12 -13 -23 -13c-8 0 -24 5 -36 21l-54 74c-2 3 -4 5 -6 5z" />
    <glyph glyph-name="tildecomb" unicode="&#x303;" horiz-adv-x="1" 
d="M-39 600c-5 8 -10 13 -17 13s-17 -4 -33 -14c-5 -3 -12 -4 -20 -4c-21 0 -47 9 -47 24c0 9 -8 25 -8 37c0 8 2 13 12 17l62 23c20 7 33 10 46 10c28 0 45 -17 67 -48c12 -17 17 -23 30 -23c9 0 18 3 30 8c7 3 31 10 46 10c22 0 30 -10 33 -25c2 -10 5 -15 5 -21
c0 -5 -3 -10 -11 -15c-20 -13 -62 -46 -108 -46c-20 0 -41 6 -61 22c-10 8 -18 20 -26 32z" />
    <glyph glyph-name="uni0304" unicode="&#x304;" horiz-adv-x="1" 
d="M-214 691c32 0 45 -3 133 -3c44 0 102 3 128 3c25 0 22 -13 29 -20c5 -5 6 -7 6 -10s-2 -6 -2 -12c0 -11 0 -21 -5 -31c-5 -9 -14 -12 -26 -12c-9 0 -21 1 -35 1s-74 -2 -131 -2c-48 0 -88 0 -108 6c-30 9 -31 46 -31 62c0 12 16 18 42 18z" />
    <glyph glyph-name="uni0306" unicode="&#x306;" horiz-adv-x="1" 
d="M-130 713c10 -10 24 -38 24 -47c0 -13 1 -18 10 -29s19 -15 29 -15c39 0 84 59 101 65c3 1 8 2 13 2c15 0 30 -9 32 -20c2 -13 12 -17 12 -28c0 -8 -6 -8 -12 -17c-24 -36 -83 -78 -144 -78c-100 0 -135 88 -143 122c-2 8 -4 12 -4 16c0 3 2 8 5 12c9 12 23 7 32 17
c5 5 12 9 21 9c7 0 17 -2 24 -9z" />
    <glyph glyph-name="uni0307" unicode="&#x307;" horiz-adv-x="1" 
d="M110 703c18 0 45 -6 58 -19c9 -9 13 -23 13 -35c0 -8 -2 -17 -6 -21c-11 -11 -38 -50 -70 -50c-31 0 -51 17 -56 27c-6 11 -8 23 -8 36c0 16 4 32 13 43c11 13 32 19 56 19z" />
    <glyph glyph-name="uni0308" unicode="&#x308;" horiz-adv-x="1" 
d="M-127 694c8 -14 11 -26 11 -35c0 -23 -20 -38 -21 -48c-1 -7 -21 -21 -48 -21c-16 0 -32 5 -43 21c-9 13 -11 21 -11 24c0 5 0 10 1 18c1 10 9 35 13 41c9 15 22 20 44 20c15 0 45 -5 54 -20zM0 662c20 0 51 -9 55 -27c3 -14 12 -23 12 -39c0 -14 -19 -42 -30 -48
c-6 -3 -17 -5 -30 -5c-19 0 -39 7 -44 21c-5 15 -21 22 -21 46c0 11 9 53 39 53c3 0 12 -1 19 -1z" />
    <glyph glyph-name="uni030A" unicode="&#x30a;" horiz-adv-x="1" 
d="M-76 727c59 0 94 -39 96 -54c1 -8 2 -18 2 -26c0 -61 -33 -114 -90 -114c-21 0 -59 7 -75 17c-28 17 -40 42 -40 61c0 31 33 97 65 110c10 4 26 6 42 6zM-65 668c-1 2 -2 3 -3 3c-2 0 -3 -1 -7 -7c-5 -7 -21 -33 -21 -54c0 -16 6 -22 8 -22c1 0 2 1 5 5c5 7 23 34 23 51
c0 10 -2 18 -5 24z" />
    <glyph glyph-name="uni030B" unicode="&#x30b;" horiz-adv-x="1" 
d="M-60 514c-26 6 -37 21 -37 34c0 6 2 13 21 32c13 13 12 15 24 28l74 80c6 6 28 26 51 26c10 0 20 -4 29 -14c16 -18 28 -21 28 -43c0 -10 -21 -34 -33 -39c-5 -2 -9 -3 -15 -9l-102 -92c-9 -8 -13 -11 -22 -11c-12 0 -14 7 -18 8zM-208 602c7 7 24 25 39 46l36 49
c8 11 26 31 48 53c3 3 7 4 11 4c6 0 14 -3 22 -5c12 -3 23 -13 30 -18c15 -11 20 -19 20 -26c0 -11 -11 -20 -15 -32c-1 -3 -5 -8 -14 -11c-3 -1 -30 -28 -37 -36c-23 -26 -52 -59 -59 -69c-3 -4 -17 -19 -35 -19c-6 0 -12 2 -18 4c-20 7 -14 19 -21 29c-3 4 -17 5 -17 15
c0 3 5 11 10 16z" />
    <glyph glyph-name="uni030C" unicode="&#x30c;" horiz-adv-x="1" 
d="M-60 714c3 0 13 2 19 2c12 0 23 -4 25 -13c1 -7 21 -40 34 -60c4 -6 6 -9 11 -9s12 2 32 13l63 33c8 4 16 7 23 7c15 0 26 -10 26 -26c0 -7 1 -13 1 -19c0 -11 -3 -19 -24 -32l-110 -68c-8 -5 -11 -4 -15 -6s-8 -3 -12 -3c-13 0 -28 9 -34 17l-48 69
c-16 23 -22 40 -22 53c0 12 5 23 18 36c3 3 6 6 13 6z" />
    <glyph glyph-name="uni0312" unicode="&#x312;" horiz-adv-x="1" 
d="M-246 567l50 85c6 10 13 22 34 22c8 0 20 -5 37 -25c9 -11 16 -21 16 -31c0 -3 -1 -8 -3 -11l-48 -75c-5 -8 -16 -20 -32 -20c-7 0 -22 5 -31 6c-22 3 -29 21 -29 31c0 4 1 10 6 18z" />
    <glyph glyph-name="uni0313" unicode="&#x313;" horiz-adv-x="1" 
d="M-208 580l50 85c6 10 13 22 34 22c8 0 20 -5 37 -25c9 -11 16 -21 16 -31c0 -3 -1 -8 -3 -11l-48 -75c-5 -8 -16 -20 -32 -20c-7 0 -22 5 -31 6c-22 3 -29 21 -29 31c0 4 1 10 6 18z" />
    <glyph glyph-name="uni0326" unicode="&#x326;" horiz-adv-x="1" 
d="M-220 -133l50 85c6 10 13 22 34 22c8 0 25 -2 37 -25c9 -11 16 -21 16 -31c0 -3 -1 -8 -3 -11l-48 -75c-5 -8 -16 -20 -32 -20c-7 0 -22 5 -31 6c-22 3 -29 21 -29 31c0 4 1 10 6 18z" />
    <glyph glyph-name="uni0327" unicode="&#x327;" horiz-adv-x="1" 
d="M-293 -39c16 -4 27 -11 29 -22c1 -6 11 -10 18 -10c29 0 59 58 59 76c0 7 -2 11 -4 15l-24 38h77l31 -48c7 -11 10 -23 10 -35c0 -19 -8 -38 -17 -51c-21 -31 -46 -62 -99 -62c-19 0 -42 4 -65 13c-53 20 -63 49 -63 60c0 24 22 31 29 31c8 0 12 -3 19 -5z" />
    <glyph glyph-name="uni0328" unicode="&#x328;" horiz-adv-x="1" 
d="M-153 59c-26 -31 -50 -67 -50 -100c0 -3 0 -21 13 -21c18 0 12 8 45 8c15 0 42 -3 42 -20c0 -12 -9 -19 -12 -30c-1 -4 0 -9 -5 -16c-11 -15 -35 -18 -66 -18c-90 0 -104 58 -104 88c0 41 23 91 54 126h66z" />
    <glyph glyph-name="uni0335" unicode="&#x335;" horiz-adv-x="1" 
d="M-222 217c32 0 45 -3 133 -3c44 0 102 3 128 3c25 0 22 -13 29 -20c5 -5 6 -7 6 -10s-2 -6 -2 -12c0 -11 0 -21 -5 -31c-5 -9 -14 -12 -26 -12c-9 0 -21 1 -35 1s-74 -2 -131 -2c-48 0 -88 0 -108 6c-30 9 -31 46 -31 62c0 12 16 18 42 18z" />
    <glyph glyph-name="uni0336" unicode="&#x336;" horiz-adv-x="1" 
d="M76 190c0 -22 -2 -33 -8 -51c-3 -9 -9 -9 -15 -9h-663c-12 0 -14 0 -23 11c-7 9 -10 24 -10 59c0 11 0 19 30 19h660c13 0 15 -4 24 -13c4 -4 5 -11 5 -16z" />
    <glyph glyph-name="uni0394" unicode="&#x394;" horiz-adv-x="600" 
d="M536 698c7 -3 20 -3 20 -14c0 -2 0 -16 -7 -130c-3 -52 -5 -105 -5 -158c0 -107 7 -216 27 -327c3 -17 4 -18 8 -19c14 -4 19 -17 20 -25c2 -14 3 -23 3 -29c0 -13 -8 -15 -40 -33c-7 -4 -23 -8 -36 -8c-9 0 -22 0 -33 1c-25 2 -131 14 -182 16l-183 5c-16 0 -30 1 -48 1
c-19 0 -38 1 -45 4c-21 9 -30 47 -30 74c0 16 0 21 18 39c14 14 33 39 68 101c87 154 181 306 308 484c10 14 19 24 28 24c13 0 46 8 73 8c32 0 23 -8 36 -14zM448 59c3 0 6 1 6 4s-1 13 -3 32c-4 41 -14 207 -14 448c0 7 -1 13 -3 13c-4 0 -5 -1 -25 -33
c-61 -97 -119 -193 -167 -277c-8 -14 -93 -158 -93 -169c0 -2 1 -4 7 -5s17 -2 78 -2c59 0 147 -4 192 -9c9 -1 20 -2 22 -2z" />
    <glyph glyph-name="uni03A9" unicode="&#x3a9;" horiz-adv-x="722" 
d="M78 7c-9 8 -18 23 -18 43c0 25 11 26 38 26c24 0 58 -4 81 -4c14 0 16 1 16 3s-1 4 -10 14c-46 51 -70 116 -70 192c0 181 133 388 344 388c81 0 144 -9 193 -72c29 -37 51 -50 69 -95c14 -34 20 -70 20 -108c0 -108 -56 -230 -129 -293c-8 -7 -8 -9 -8 -10
c0 -2 2 -2 7 -2s41 3 50 3c18 0 46 -4 46 -19c0 -4 -3 -8 -3 -15c0 -2 2 -4 2 -8c0 -12 -9 -21 -12 -32c-1 -4 -8 -13 -21 -13c-51 0 -53 -3 -84 -3h-57c-11 0 -45 -2 -66 -2c-13 0 -34 4 -34 28c0 14 8 30 10 34c7 13 -1 14 16 24c15 9 40 28 73 63c23 24 98 135 98 259
c0 139 -70 174 -146 174c-115 0 -252 -129 -252 -315c0 -98 34 -146 99 -189c12 -8 15 -14 15 -23c0 -15 -12 -29 -12 -42c0 -8 -15 -19 -52 -19c-14 0 -79 -8 -131 -8c-74 0 -64 14 -72 21z" />
    <glyph glyph-name="uni03BC" unicode="&#x3bc;" horiz-adv-x="510" 
d="M343 62c-4 0 -5 -1 -14 -15c-29 -45 -73 -72 -91 -72c-46 0 -91 24 -101 51c-5 13 -5 23 -5 30c0 8 0 12 -3 12c-2 0 -6 -7 -25 -48c-41 -88 -67 -143 -117 -242c-5 -10 -10 -25 -16 -34c-7 -12 -17 -22 -28 -22c-61 0 -57 16 -62 18c-18 7 -21 19 -21 35
c0 22 8 31 49 78c7 8 18 28 38 65c75 138 155 296 250 505c10 22 18 32 30 32c11 0 10 10 29 10c5 0 12 -2 21 -3c11 -1 25 -5 31 -15c4 -7 6 -16 6 -23c0 -11 -3 -17 -10 -29c-5 -8 -8 -13 -11 -21c-7 -18 -32 -53 -40 -89c-18 -79 -30 -89 -30 -188c0 -23 0 -27 4 -27
c3 0 5 1 11 7c24 24 25 32 71 91c54 69 63 84 101 188c7 19 19 33 42 33c19 0 24 -9 36 -11c26 -4 30 -14 30 -28c0 -13 -5 -26 -7 -30c-32 -70 -59 -143 -70 -220c-3 -19 -8 -38 -8 -57c0 -35 18 -47 18 -77c0 -16 -8 -29 -32 -29c-25 0 -38 10 -46 12c-20 5 -31 13 -31 65
c0 22 3 41 3 43c0 3 -1 5 -2 5z" />
    <glyph glyph-name="pi" unicode="&#x3c0;" horiz-adv-x="576" 
d="M514 382c2 -2 7 -7 7 -18c0 -7 -5 -19 -8 -26c-14 -36 -42 -83 -54 -127c-10 -36 -30 -75 -31 -114c0 -16 3 -45 12 -45c36 0 71 76 101 76c5 0 22 6 39 6c20 0 37 -6 37 -26c0 -16 -12 -35 -20 -43c-25 -25 -43 -49 -63 -64c-26 -19 -44 -27 -70 -27c-12 0 -21 1 -37 6
c-64 20 -106 53 -106 122c0 34 7 63 31 131c7 20 40 90 65 143c0 2 0 4 -3 4c-4 0 -66 -8 -86 -8c-5 0 -7 -2 -8 -6c-11 -46 -60 -155 -64 -168s-15 -25 -17 -35c-6 -32 -35 -92 -45 -139c-3 -15 1 -40 -30 -40c-11 0 -16 -8 -29 -8s-24 9 -42 13c-12 3 -17 12 -17 24
c0 14 4 26 7 33c31 73 52 134 85 212c18 43 23 60 30 76c5 12 7 18 7 21c0 2 -1 3 -3 3c-3 0 -12 -3 -19 -7c-16 -9 -22 -11 -33 -11c-8 0 -22 0 -29 1c-16 2 -38 7 -44 26c-2 6 -13 4 -13 21c0 13 7 27 8 31c2 7 5 11 20 11c27 0 96 13 104 14c54 7 127 16 215 21
c70 4 116 14 169 14c40 0 70 -8 78 -19c4 -6 2 -12 5 -16c5 -6 7 -10 7 -14c0 -10 -9 -18 -10 -26s-7 -11 -15 -12c-8 0 -18 1 -29 1c-28 0 -82 -4 -97 -4c-7 0 -9 0 -9 -2c0 -1 1 -2 4 -5z" />
    <glyph glyph-name="uni2007" unicode="&#x2007;" horiz-adv-x="440" 
 />
    <glyph glyph-name="uni2008" unicode="&#x2008;" horiz-adv-x="284" 
 />
    <glyph glyph-name="uni200B" unicode="&#x200b;" horiz-adv-x="0" 
 />
    <glyph glyph-name="uniFEFF" unicode="&#xfeff;" horiz-adv-x="0" 
 />
    <glyph glyph-name="endash" unicode="&#x2013;" horiz-adv-x="590" 
d="M561 294c0 -24 -2 -39 -8 -52c-5 -11 -20 -11 -42 -11s-145 -7 -244 -7c-59 0 -111 2 -127 10c-28 14 -28 57 -28 69c0 11 14 19 40 19c17 0 67 -7 156 -7c58 0 89 4 134 4c19 0 39 5 60 5c19 0 41 -2 55 -20c3 -4 4 -7 4 -10z" />
    <glyph glyph-name="emdash" unicode="&#x2014;" horiz-adv-x="860" 
d="M831 291c0 -22 -2 -33 -8 -51c-3 -9 -9 -9 -15 -9h-663c-12 0 -14 0 -23 11c-7 9 -10 24 -10 59c0 11 0 19 30 19h660c13 0 15 -4 24 -13c4 -4 5 -11 5 -16z" />
    <glyph glyph-name="quoteleft" unicode="&#x2018;" horiz-adv-x="192" 
d="M122 429l60 105c27 48 46 83 49 90c5 12 14 19 34 19c5 0 66 -1 66 -49c0 -21 -13 -48 -17 -53c-12 -14 -24 -30 -34 -47l-60 -101c-8 -13 -20 -21 -39 -21c-14 0 -32 6 -38 7c-21 3 -28 21 -28 29c0 7 1 10 7 21z" />
    <glyph glyph-name="quoteright" unicode="&#x2019;" horiz-adv-x="192" 
d="M122 429l60 105c27 48 46 83 49 90c5 12 14 19 34 19c5 0 66 -1 66 -49c0 -21 -13 -48 -17 -53c-12 -14 -24 -30 -34 -47l-60 -101c-8 -13 -20 -21 -39 -21c-14 0 -32 6 -38 7c-21 3 -28 21 -28 29c0 7 1 10 7 21z" />
    <glyph glyph-name="quotesinglbase" unicode="&#x201a;" horiz-adv-x="192" 
d="M-56 -106l60 105c27 48 46 83 49 90c5 12 14 19 34 19c5 0 66 -1 66 -49c0 -21 -13 -48 -17 -53c-12 -14 -24 -30 -34 -47l-60 -101c-8 -13 -20 -21 -39 -21c-14 0 -32 6 -38 7c-21 3 -28 21 -28 29c0 7 1 10 7 21z" />
    <glyph glyph-name="quotedblleft" unicode="&#x201c;" horiz-adv-x="350" 
d="M283 429l60 105c27 48 46 83 49 90c5 12 14 19 34 19c5 0 66 -1 66 -49c0 -21 -13 -48 -17 -53c-12 -14 -24 -30 -34 -47l-60 -101c-8 -13 -20 -21 -39 -21c-14 0 -32 6 -38 7c-21 3 -28 21 -28 29c0 7 1 10 7 21zM140 458c21 36 44 73 63 108c10 19 28 57 38 81
c4 10 15 25 38 25c12 0 28 -1 50 -28c13 -16 17 -22 17 -30c0 -5 -2 -10 -4 -13c-21 -31 -41 -67 -49 -83l-50 -96c-5 -10 -25 -23 -46 -23c-14 0 -28 7 -37 7c-21 0 -32 18 -32 30c0 8 5 10 12 22z" />
    <glyph glyph-name="quotedblright" unicode="&#x201d;" horiz-adv-x="350" 
d="M283 429l60 105c27 48 46 83 49 90c5 12 14 19 34 19c5 0 66 -1 66 -49c0 -21 -13 -48 -17 -53c-12 -14 -24 -30 -34 -47l-60 -101c-8 -13 -20 -21 -39 -21c-14 0 -32 6 -38 7c-21 3 -28 21 -28 29c0 7 1 10 7 21zM140 458c21 36 44 73 63 108c10 19 28 57 38 81
c4 10 15 25 38 25c12 0 28 -1 50 -28c13 -16 17 -22 17 -30c0 -5 -2 -10 -4 -13c-21 -31 -41 -67 -49 -83l-50 -96c-5 -10 -25 -23 -46 -23c-14 0 -28 7 -37 7c-21 0 -32 18 -32 30c0 8 5 10 12 22z" />
    <glyph glyph-name="quotedblbase" unicode="&#x201e;" horiz-adv-x="350" 
d="M101 -113l60 105c27 48 46 83 49 90c5 12 14 19 34 19c5 0 66 -1 66 -49c0 -21 -13 -48 -17 -53c-12 -14 -24 -30 -34 -47l-60 -101c-8 -13 -20 -21 -39 -21c-14 0 -32 6 -38 7c-21 3 -28 21 -28 29c0 7 1 10 7 21zM-42 -84c21 36 44 73 63 108c10 19 28 57 38 81
c4 10 15 25 38 25c12 0 28 -1 50 -28c13 -16 17 -22 17 -30c0 -5 -2 -10 -4 -13c-21 -31 -41 -67 -49 -83l-50 -96c-5 -10 -25 -23 -46 -23c-14 0 -28 7 -37 7c-21 0 -32 18 -32 30c0 8 5 10 12 22z" />
    <glyph glyph-name="dagger" unicode="&#x2020;" horiz-adv-x="570" 
d="M281 359c0 4 -1 6 -14 6c-21 0 -101 4 -117 12c-13 7 -20 33 -20 53c0 16 3 21 10 27c5 4 5 13 24 13c5 0 16 -1 25 -2l41 -5c8 -1 44 -4 62 -4c16 0 25 2 27 4s3 4 13 32l38 106c11 32 13 36 24 38c18 3 36 10 55 10c12 0 26 -2 39 -11c9 -6 7 -11 10 -16s4 -9 4 -14
c0 -4 -1 -10 -4 -19l-9 -31c-2 -7 -6 -15 -13 -23c-6 -7 -14 -19 -26 -49c-2 -5 -4 -11 -4 -14c0 -2 2 -2 6 -2c20 0 80 12 122 12c44 0 54 -19 54 -38c0 -22 -11 -32 -14 -44c-2 -7 -7 -13 -20 -13c-41 0 -74 -5 -113 -7c-23 -1 -41 -3 -69 -8c-6 -1 -14 -19 -35 -90
c-31 -104 -68 -194 -99 -299c-6 -20 -8 -28 -26 -28c-27 0 -30 12 -39 21c-7 7 -32 8 -32 26c0 17 7 31 13 61c2 10 12 31 28 85l53 183c4 14 6 23 6 28z" />
    <glyph glyph-name="daggerdbl" unicode="&#x2021;" horiz-adv-x="570" 
d="M371 257c54 0 103 9 126 9c20 0 28 -4 40 -16c8 -8 12 -17 12 -24c0 -15 -13 -27 -13 -45c0 -6 -4 -9 -6 -10c-5 -2 -10 -2 -39 -2c-54 0 -114 -3 -141 -7c-14 -2 -15 -2 -21 -18c-17 -45 -18 -56 -24 -73c-14 -41 -15 -49 -19 -62c-5 -18 -15 -70 -32 -78
c-6 -3 -10 -4 -16 -4c-14 0 -25 8 -31 19c-9 16 -33 5 -33 36c0 18 10 43 17 64c7 22 7 37 20 77c5 15 7 22 7 24c0 4 -1 5 -4 5c-29 0 -52 1 -68 3c-8 1 -43 1 -53 3c-25 5 -30 28 -30 45v12c0 11 7 17 8 22c2 11 9 15 23 15c30 0 88 -8 135 -8c8 0 13 0 17 3
c3 2 7 15 14 38l19 64c5 17 7 26 7 30c0 2 0 4 -7 4c-14 0 -108 2 -126 13c-14 6 -19 33 -19 53c0 11 2 20 5 22c2 2 3 3 5 3c5 7 10 14 27 14c5 0 10 -1 17 -3c3 -1 9 -3 12 -3l56 -4c6 0 34 -3 52 -3c6 0 11 1 13 2s4 3 16 36l31 87c13 37 17 48 23 53c7 6 21 3 31 9
c7 4 19 6 25 6c24 0 49 -15 49 -27c0 -4 3 -10 3 -15c0 -6 0 -11 -12 -50c-3 -10 -10 -20 -14 -25c-8 -11 -13 -19 -20 -37c-5 -14 -7 -20 -7 -23c0 -2 1 -3 4 -3c19 0 72 12 115 12c35 0 63 -8 63 -37c0 -17 -13 -30 -17 -46c-2 -7 -5 -12 -19 -12c-47 0 -104 -8 -120 -8
c-19 0 -52 -3 -62 -8c-8 -4 -23 -42 -30 -73c-3 -11 -8 -30 -13 -44c-2 -6 -3 -10 -3 -12c0 -3 2 -3 7 -3z" />
    <glyph glyph-name="bullet" unicode="&#x2022;" horiz-adv-x="490" 
d="M501 292c0 -122 -97 -280 -265 -280c-35 0 -82 16 -106 35c-31 24 -69 55 -69 143c0 102 95 290 241 290c111 0 126 -52 156 -80c39 -36 43 -89 43 -108z" />
    <glyph glyph-name="ellipsis" unicode="&#x2026;" horiz-adv-x="710" 
d="M553 141c22 0 47 -7 63 -21s24 -32 24 -52c0 -25 -14 -49 -30 -67c-6 -7 -24 -11 -44 -11c-17 0 -29 5 -42 14c-22 15 -28 34 -28 68c0 15 2 30 5 37c4 8 12 15 19 24c3 4 15 8 33 8zM274 62c0 29 14 60 43 75c6 3 14 5 24 5c49 0 67 -31 78 -50c3 -5 4 -11 4 -18
c0 -31 -21 -42 -23 -55c-2 -10 -17 -28 -38 -28s-51 9 -61 16c-25 17 -27 46 -27 55zM162 -2c-10 -1 -23 -8 -42 -8c-11 0 -24 3 -38 14c-12 10 -30 27 -30 46c0 44 12 32 17 53c6 25 14 38 45 38c37 0 46 -15 60 -25c6 -5 24 -8 24 -47c0 -31 -14 -69 -36 -71z" />
    <glyph glyph-name="perthousand" unicode="&#x2030;" horiz-adv-x="1080" 
d="M392 636c36 -9 61 -44 61 -91c0 -61 -22 -128 -64 -180c-22 -27 -50 -53 -98 -53c-67 0 -101 36 -120 64c-23 34 -28 53 -28 79c0 39 18 75 37 114c10 20 56 91 129 91c41 0 55 -17 83 -24zM679 313c41 -15 77 -56 77 -101c0 -66 -21 -117 -57 -172
c-19 -29 -49 -53 -109 -53c-28 0 -76 4 -108 40c-23 26 -37 49 -37 75c0 47 17 86 38 134c7 16 52 90 119 90c14 0 46 -2 77 -13zM714 607c0 -12 -3 -25 -14 -29c-5 -2 -8 -5 -12 -9c-11 -11 -27 -21 -35 -32c-116 -151 -184 -288 -298 -465c-31 -48 -68 -96 -84 -96
c-19 0 -31 0 -49 11c-19 12 -21 19 -21 32c0 31 0 32 25 50c10 7 16 16 42 58l274 434c9 14 28 39 48 61s40 40 61 40c13 0 37 -7 49 -17c8 -7 14 -16 14 -38zM973 309c60 -14 91 -65 91 -102c0 -70 -25 -133 -60 -180c-17 -23 -42 -40 -99 -40c-32 0 -55 1 -98 31
c-38 26 -50 59 -50 93c0 45 22 91 36 119c15 31 46 68 72 83c14 8 29 10 50 10c43 0 41 -10 58 -14zM345 576c-9 5 -12 9 -15 16c-1 3 -2 5 -4 5c-3 0 -8 -4 -15 -15c-29 -46 -65 -102 -65 -155c0 -29 9 -48 25 -48c6 0 13 2 27 26c18 31 56 97 56 146c0 7 -1 13 -2 17
c-1 3 -3 6 -7 8zM633 264c-8 0 -9 -1 -18 -15c-22 -34 -66 -105 -66 -159c0 -10 3 -44 22 -44c12 0 22 12 27 23c8 17 57 101 57 153c0 25 -14 42 -22 42zM934 252c-4 0 -5 -1 -12 -9c-27 -31 -61 -107 -61 -147c0 -45 8 -50 20 -50s30 26 34 35c20 45 33 65 39 78
c5 11 10 28 10 45c0 8 -1 13 -3 20s-3 8 -7 10c-9 5 -12 8 -15 13c-2 3 -3 5 -5 5z" />
    <glyph glyph-name="guilsinglleft" unicode="&#x2039;" horiz-adv-x="255" 
d="M130 225l-36 51c-5 7 -7 35 -7 42c0 10 7 24 13 30l74 82c45 49 49 50 64 50c16 0 33 -7 37 -20c2 -7 8 -11 11 -17c6 -12 10 -20 10 -27c0 -18 -18 -29 -42 -47c-27 -20 -36 -33 -53 -46c-3 -3 -5 -7 -5 -11c0 -3 1 -7 4 -14c15 -35 30 -64 33 -68c6 -8 10 -17 10 -35
c0 -8 -1 -15 -4 -19c-9 -13 -17 -24 -45 -24c-19 0 -30 18 -33 27c-1 3 -14 21 -31 46z" />
    <glyph glyph-name="guilsinglright" unicode="&#x203a;" horiz-adv-x="255" 
d="M87 182c-2 5 -8 10 -8 16c0 4 1 9 4 12l93 99c3 4 5 8 5 13c0 3 -1 6 -3 9c-3 4 -9 16 -12 25s-12 21 -17 32c-6 14 -22 25 -22 36c0 12 22 25 33 41c5 7 20 12 34 12s31 -5 37 -16c19 -35 47 -94 55 -112c5 -11 7 -18 7 -26c0 -22 -14 -41 -21 -48l-102 -101
c-17 -16 -25 -21 -49 -21c-21 0 -28 15 -34 29z" />
    <glyph glyph-name="fraction" unicode="&#x2044;" horiz-adv-x="330" 
d="M502 623c0 -33 -17 -29 -26 -39c-10 -11 -27 -21 -35 -32c-117 -152 -199 -308 -313 -485c-25 -39 -66 -96 -84 -96c-28 0 -49 7 -61 25c-4 6 -6 15 -6 26c0 15 5 29 16 33c5 2 13 7 47 60l298 460c9 14 35 51 62 76c20 19 33 25 49 25c12 0 25 -5 41 -17
c5 -4 12 -15 12 -36z" />
    <glyph glyph-name="uni2070" unicode="&#x2070;" 
d="M303 600c4 0 4 1 11 1c11 0 28 -5 39 -11c18 -10 30 -19 34 -27c13 -25 18 -52 18 -79c0 -49 -19 -98 -26 -116s-10 -25 -12 -32c-5 -17 -11 -33 -53 -100c-27 -43 -72 -73 -112 -73c-34 0 -95 35 -114 74c-4 8 -11 32 -11 59c0 33 11 88 38 147c27 58 67 108 111 160
c5 6 20 10 36 10c9 0 19 -1 27 -5c12 -6 11 -8 14 -8zM166 269c0 -34 6 -36 11 -36c11 0 39 29 65 74c5 9 14 19 19 31c12 29 51 110 51 165c0 19 -6 39 -13 39c-3 0 -4 0 -14 -12c-42 -50 -80 -112 -101 -170c-8 -21 -7 -28 -9 -35c-5 -17 -9 -37 -9 -56z" />
    <glyph glyph-name="uni2074" unicode="&#x2074;" 
d="M211 285c-27 0 -63 3 -94 16c-27 11 -46 55 -46 60c0 11 1 17 9 26c54 61 122 145 204 215c7 6 12 11 14 14c6 9 16 19 34 19c7 0 17 -2 25 -5c26 -10 36 -22 36 -35c0 -15 -11 -31 -11 -44c0 -10 -2 -23 -6 -37c-3 -10 -20 -66 -32 -109c-6 -21 -8 -29 -8 -32
c0 -2 1 -4 4 -4s13 2 25 2c18 0 37 -3 48 -15c7 -8 15 -20 15 -33c0 -11 -9 -15 -22 -16c-18 -2 -34 -2 -73 -10c-9 -2 -11 -3 -14 -14c-8 -30 -9 -62 -14 -93c-1 -7 -3 -18 -19 -18c-28 0 -40 8 -61 22c-12 8 -13 16 -13 24c0 12 10 59 10 62c0 4 -4 5 -11 5zM262 439
c6 18 10 34 10 36c0 1 0 3 -2 3s-3 -1 -22 -25c-26 -33 -44 -57 -67 -85c-5 -6 -10 -12 -10 -14c0 -3 5 -4 19 -4c13 0 35 1 41 2c5 1 8 2 9 8c2 11 11 46 22 79z" />
    <glyph glyph-name="uni2075" unicode="&#x2075;" 
d="M250 484c2 0 14 3 28 3c38 0 78 -13 100 -44c11 -15 15 -34 15 -53c0 -46 -23 -98 -38 -125c-24 -43 -69 -103 -136 -103c-39 0 -80 19 -135 74c-8 8 -19 21 -19 32c0 4 2 9 9 12c14 6 11 19 37 19c17 0 37 -9 40 -11c26 -17 21 -29 36 -44c11 -11 17 -16 21 -16
s7 3 13 9c28 26 42 52 57 90c4 10 5 24 10 37c3 8 8 27 8 43c0 13 -1 19 -6 19c-4 0 -9 -2 -16 -6c-41 -23 -54 -55 -85 -55c-14 0 -30 5 -47 15c-14 8 -17 11 -17 20c0 2 3 8 5 15c19 65 38 127 53 172c4 12 32 27 52 27c11 0 17 -5 22 -5c2 0 9 1 14 2c44 8 108 15 124 15
c39 0 73 -33 73 -49c0 -12 -13 -26 -35 -26c-10 0 -23 4 -36 4c-34 0 -99 -8 -127 -15c-5 -1 -7 -3 -8 -6c-3 -9 -8 -27 -13 -40c-1 -3 -2 -6 -2 -7c0 -2 1 -3 3 -3z" />
    <glyph glyph-name="uni2076" unicode="&#x2076;" 
d="M370 566c-3 0 -5 0 -20 -13c-28 -25 -56 -55 -80 -88c-22 -30 -22 -32 -22 -34s1 -2 3 -2s35 12 66 12c20 0 39 -5 57 -27c21 -25 27 -33 27 -44c0 -5 -1 -11 -4 -20c-27 -82 -92 -138 -131 -163c-17 -11 -34 -14 -57 -14c-25 0 -55 8 -76 25c-37 30 -48 30 -48 70
c0 14 2 27 5 35c28 82 76 197 153 263c21 18 57 65 103 65c32 0 60 -21 64 -31c2 -5 3 -10 3 -14c0 -12 -7 -22 -27 -22c-7 0 -11 2 -16 2zM276 318c14 19 20 33 20 37c0 2 -1 2 -2 2c-2 0 -12 -2 -36 -14c-35 -17 -49 -28 -59 -48c-5 -10 -19 -24 -19 -42c0 -8 4 -14 7 -14
s15 3 49 33c10 9 30 32 40 46z" />
    <glyph glyph-name="uni2077" unicode="&#x2077;" 
d="M187 374c-17 3 -36 10 -41 20c-3 6 -7 18 -7 29c0 12 5 23 23 23c22 0 24 -8 56 -8h11c10 0 14 3 19 10c43 57 61 81 78 115c2 3 3 7 3 9c0 3 -2 5 -11 5c-33 0 -60 -5 -76 -20c-14 -13 0 -41 -38 -41c-54 0 -54 33 -58 51c-3 15 -6 13 -6 25c0 24 34 31 79 38
c33 5 59 8 99 8c32 0 64 -2 80 -11c33 -19 43 -36 43 -52c0 -21 -17 -39 -29 -58c-11 -17 -32 -43 -41 -54c-8 -9 -8 -10 -8 -11c0 -2 1 -2 2 -2s32 0 50 -22c5 -6 9 -15 9 -24c0 -8 -4 -18 -20 -18c-4 0 -13 2 -20 2c-32 0 -48 -8 -72 -12c-6 -1 -7 -2 -12 -9
c-62 -91 -87 -147 -87 -170c0 -5 -2 -14 -11 -15c-8 -1 -5 -12 -31 -12c-6 0 -16 3 -20 5c-15 8 -38 30 -38 40c0 13 6 32 33 78c12 20 38 60 44 68c3 4 4 7 4 8c0 3 -1 4 -7 5z" />
    <glyph glyph-name="uni2078" unicode="&#x2078;" 
d="M369 623c8 -4 19 -11 29 -21c33 -34 50 -80 50 -94c0 -18 -13 -38 -29 -46c-49 -25 -82 -43 -130 -63c-7 -3 -7 -4 -7 -9c0 -17 7 -57 7 -114c0 -50 -8 -98 -37 -103c-16 -3 -20 -6 -35 -6c-7 0 -31 2 -50 13c-43 26 -98 78 -98 134c0 62 53 78 113 115c2 1 6 4 6 9
c0 4 -1 23 -1 25c0 37 2 190 103 190c23 0 62 -9 72 -24c2 -3 3 -4 7 -6zM308 570c-13 -13 -20 -32 -23 -48c-3 -15 -4 -29 -4 -32c0 -2 0 -4 2 -4s6 2 14 6c20 10 38 15 53 27c5 4 8 11 8 18c0 8 -3 15 -7 21c-3 4 -4 4 -5 4s-3 -1 -6 -1c-9 0 -17 6 -21 10c-2 2 -4 3 -5 3
c-2 0 -3 -1 -6 -4zM172 264c6 -9 11 -15 18 -15c4 0 9 7 9 48c0 21 -2 48 -4 48c-3 0 -7 -2 -19 -12c-13 -11 -17 -23 -17 -36c0 -10 3 -17 13 -33z" />
    <glyph glyph-name="uni2079" unicode="&#x2079;" 
d="M245 363c-5 -2 -11 -2 -17 -4c-11 -4 -22 -5 -33 -5c-13 0 -31 7 -39 15c-19 19 -20 8 -37 38c-9 16 -20 23 -20 43c0 3 0 13 4 20c40 73 105 98 193 147c9 5 41 17 69 17c14 0 26 -2 35 -11c5 -5 19 -12 27 -18c18 -13 24 -24 24 -35c0 -12 -8 -23 -16 -34
c-4 -5 -7 -10 -9 -15c-22 -61 -54 -99 -78 -173c-17 -52 -39 -100 -46 -151c-1 -10 -19 -23 -40 -23c-9 0 -18 2 -28 9c-24 17 -31 24 -31 33c0 5 1 8 7 24l42 109c3 8 4 11 4 13s-1 3 -3 3s-3 0 -8 -2zM214 435c52 17 90 55 116 89c15 20 16 24 16 26c0 1 -1 2 -3 2
c-3 0 -9 -2 -23 -9c-42 -21 -95 -56 -128 -92c-9 -10 -10 -14 -10 -18c0 -3 4 -3 6 -3c5 0 14 1 26 5z" />
    <glyph glyph-name="uni2080" unicode="&#x2080;" 
d="M211 257c4 0 4 1 11 1c11 0 28 -5 39 -11c18 -10 30 -19 34 -27c13 -25 18 -52 18 -79c0 -49 -19 -98 -26 -116s-10 -25 -12 -32c-5 -17 -11 -33 -53 -100c-27 -43 -72 -73 -112 -73c-34 0 -95 35 -114 74c-4 8 -11 32 -11 59c0 33 11 88 38 147c27 58 67 108 111 160
c5 6 20 10 36 10c9 0 19 -1 27 -5c12 -6 11 -8 14 -8zM74 -74c0 -34 6 -36 11 -36c11 0 39 29 65 74c5 9 14 19 19 31c12 29 51 110 51 165c0 19 -6 39 -13 39c-3 0 -4 0 -14 -12c-42 -50 -80 -112 -101 -170c-8 -21 -7 -28 -9 -35c-5 -17 -9 -37 -9 -56z" />
    <glyph glyph-name="uni2081" unicode="&#x2081;" horiz-adv-x="364" 
d="M186 78c1 4 2 8 2 9c0 2 -1 2 -2 2s-3 -2 -10 -10c-94 -114 -110 -118 -116 -128c-3 -5 -14 -9 -27 -9c-12 0 -24 3 -32 11c-5 5 -13 7 -17 12c-8 10 -12 15 -12 20c0 7 6 12 14 20c23 23 56 42 73 61c42 47 89 102 135 156c18 21 37 51 52 77c4 7 13 8 24 8
c28 0 68 -17 68 -40c0 -3 0 -4 -4 -14c-44 -110 -66 -227 -96 -344c-6 -23 -3 -44 -10 -62c-6 -15 -17 -18 -44 -18c-21 0 -38 6 -50 17c-4 4 -6 11 -6 17c0 4 2 19 4 27c4 18 10 26 14 41z" />
    <glyph glyph-name="uni2082" unicode="&#x2082;" horiz-adv-x="364" 
d="M231 238c0 4 -1 5 -4 5s-9 -2 -13 -4c-20 -10 -37 -32 -49 -49c-4 -6 -15 -13 -19 -22s-11 -17 -24 -17c-6 0 -12 -2 -18 -2c-44 0 -54 33 -54 48c0 14 12 24 19 36c9 15 37 37 65 52c41 22 46 23 93 23c46 0 93 -50 93 -71c0 -69 -46 -138 -94 -189
c-27 -28 -85 -84 -123 -124c-8 -8 -14 -15 -14 -18c0 -4 8 -4 28 -4c57 0 67 8 79 35c7 16 10 36 49 36c21 0 35 -8 45 -20c4 -5 6 -12 6 -21c0 -26 -15 -62 -25 -74c-16 -19 -52 -24 -133 -24c-54 0 -115 1 -138 20s-31 35 -31 51c0 6 13 25 24 37c51 56 110 109 159 166
c13 15 79 93 79 130z" />
    <glyph glyph-name="uni2083" unicode="&#x2083;" horiz-adv-x="364" 
d="M212 211c3 5 4 9 4 12c0 2 -1 4 -4 4c-1 0 -4 -1 -10 -4c-25 -13 -42 -29 -42 -35c0 -16 -11 -14 -19 -24c-4 -5 -17 -8 -31 -8c-13 0 -26 3 -33 10c-8 8 -18 27 -18 33c0 28 24 39 45 59c6 6 23 7 28 10c21 13 56 33 93 33c34 0 35 -8 45 -12c14 -6 31 -6 42 -28
c4 -8 5 -12 5 -18c0 -9 -1 -18 -5 -26s-5 -16 -10 -24c-24 -38 -34 -49 -60 -71c-8 -7 -10 -10 -10 -12s1 -3 9 -6c37 -14 52 -44 52 -80s-17 -75 -25 -92c-24 -50 -59 -107 -136 -107c-64 0 -119 59 -143 87c-7 8 -12 18 -12 26c0 11 8 20 29 20c10 0 20 2 31 2
s21 -2 30 -12c10 -12 25 -20 25 -34c0 -3 17 -20 28 -20c10 0 41 23 64 76c11 26 18 48 18 63c0 6 0 17 -8 17c-3 0 -7 0 -11 -2c-9 -4 -14 -4 -21 -8c-23 -14 -41 -25 -66 -25c-36 0 -51 21 -51 40c0 4 2 9 4 11c9 8 19 14 30 20s16 12 29 21c52 36 85 73 104 104z" />
    <glyph glyph-name="uni2084" unicode="&#x2084;" 
d="M119 -58c-27 0 -63 3 -94 16c-27 11 -46 55 -46 60c0 11 1 17 9 26c54 61 122 145 204 215c7 6 12 11 14 14c6 9 16 19 34 19c7 0 17 -2 25 -5c26 -10 36 -22 36 -35c0 -15 -11 -31 -11 -44c0 -10 -2 -23 -6 -37c-3 -10 -20 -66 -32 -109c-6 -21 -8 -29 -8 -32
c0 -2 1 -4 4 -4s13 2 25 2c18 0 37 -3 48 -15c7 -8 15 -20 15 -33c0 -11 -9 -15 -22 -16c-18 -2 -34 -2 -73 -10c-9 -2 -11 -3 -14 -14c-8 -30 -9 -62 -14 -93c-1 -7 -3 -18 -19 -18c-28 0 -40 8 -61 22c-12 8 -13 16 -13 24c0 12 10 59 10 62c0 4 -4 5 -11 5zM170 96
c6 18 10 34 10 36c0 1 0 3 -2 3s-3 -1 -22 -25c-26 -33 -44 -57 -67 -85c-5 -6 -10 -12 -10 -14c0 -3 5 -4 19 -4c13 0 35 1 41 2c5 1 8 2 9 8c2 11 11 46 22 79z" />
    <glyph glyph-name="uni2085" unicode="&#x2085;" 
d="M158 141c2 0 14 3 28 3c38 0 78 -13 100 -44c11 -15 15 -34 15 -53c0 -46 -23 -98 -38 -125c-24 -43 -69 -103 -136 -103c-39 0 -80 19 -135 74c-8 8 -19 21 -19 32c0 4 2 9 9 12c14 6 11 19 37 19c17 0 37 -9 40 -11c26 -17 21 -29 36 -44c11 -11 17 -16 21 -16
s7 3 13 9c28 26 42 52 57 90c4 10 5 24 10 37c3 8 8 27 8 43c0 13 -1 19 -6 19c-4 0 -9 -2 -16 -6c-41 -23 -54 -55 -85 -55c-14 0 -30 5 -47 15c-14 8 -17 11 -17 20c0 2 3 8 5 15c19 65 38 127 53 172c4 12 32 27 52 27c11 0 17 -5 22 -5c2 0 9 1 14 2c44 8 108 15 124 15
c39 0 73 -33 73 -49c0 -12 -13 -26 -35 -26c-10 0 -23 4 -36 4c-34 0 -99 -8 -127 -15c-5 -1 -7 -3 -8 -6c-3 -9 -8 -27 -13 -40c-1 -3 -2 -6 -2 -7c0 -2 1 -3 3 -3z" />
    <glyph glyph-name="uni2086" unicode="&#x2086;" 
d="M278 223c-3 0 -5 0 -20 -13c-28 -25 -56 -55 -80 -88c-22 -30 -22 -32 -22 -34s1 -2 3 -2s35 12 66 12c20 0 39 -5 57 -27c21 -25 27 -33 27 -44c0 -5 -1 -11 -4 -20c-27 -82 -92 -138 -131 -163c-17 -11 -34 -14 -57 -14c-25 0 -55 8 -76 25c-37 30 -48 30 -48 70
c0 14 2 27 5 35c28 82 76 197 153 263c21 18 57 65 103 65c32 0 60 -21 64 -31c2 -5 3 -10 3 -14c0 -12 -7 -22 -27 -22c-7 0 -11 2 -16 2zM184 -25c14 19 20 33 20 37c0 2 -1 2 -2 2c-2 0 -12 -2 -36 -14c-35 -17 -49 -28 -59 -48c-5 -10 -19 -24 -19 -42c0 -8 4 -14 7 -14
s15 3 49 33c10 9 30 32 40 46z" />
    <glyph glyph-name="uni2087" unicode="&#x2087;" 
d="M95 31c-17 3 -36 10 -41 20c-3 6 -7 18 -7 29c0 12 5 23 23 23c22 0 24 -8 56 -8h11c10 0 14 3 19 10c43 57 61 81 78 115c2 3 3 7 3 9c0 3 -2 5 -11 5c-33 0 -60 -5 -76 -20c-14 -13 0 -41 -38 -41c-54 0 -54 33 -58 51c-3 15 -6 13 -6 25c0 24 34 31 79 38
c33 5 59 8 99 8c32 0 64 -2 80 -11c33 -19 43 -36 43 -52c0 -21 -17 -39 -29 -58c-11 -17 -32 -43 -41 -54c-8 -9 -8 -10 -8 -11c0 -2 1 -2 2 -2s32 0 50 -22c5 -6 9 -15 9 -24c0 -8 -4 -18 -20 -18c-4 0 -13 2 -20 2c-32 0 -48 -8 -72 -12c-6 -1 -7 -2 -12 -9
c-62 -91 -87 -147 -87 -170c0 -5 -2 -14 -11 -15c-8 -1 -5 -12 -31 -12c-6 0 -16 3 -20 5c-15 8 -38 30 -38 40c0 13 6 32 33 78c12 20 38 60 44 68c3 4 4 7 4 8c0 3 -1 4 -7 5z" />
    </font>
</defs>
</svg>
