<?xml version="1.0" standalone="no"?>
<!DOCTYPE svg PUBLIC "-//W3C//DTD SVG 1.1//EN" "http://www.w3.org/Graphics/SVG/1.1/DTD/svg11.dtd" >
<svg xmlns="http://www.w3.org/2000/svg" xmlns:xlink="http://www.w3.org/1999/xlink" version="1.1">
<metadata>
Created by FontForge 20201107 at Tue Apr 10 14:40:26 2012
 By Unknown

</metadata>
<defs>
<font id="MarketOT-CondMedium" horiz-adv-x="275" >
  <font-face 
    font-family="MarketOT-CondMedium"
    font-weight="500"
    font-stretch="condensed"
    units-per-em="1000"
    panose-1="3 1 6 3 2 1 1 1 1 1"
    ascent="800"
    descent="-200"
    x-height="448"
    cap-height="638"
    bbox="-514 -438 1415 918"
    underline-thickness="64"
    underline-position="-128"
    stemh="71"
    stemv="78"
    unicode-range="U+000D-FEFF"
  />
<missing-glyph horiz-adv-x="344" 
d="M16 0v700h312v-700h-312zM80 64h184v572h-184v-572z" />
    <glyph glyph-name="f_i" unicode="fi" horiz-adv-x="406" 
d="M329 320c4 11 5 14 5 15c0 2 -1 2 -2 2s-3 0 -21 -9c-10 -5 -22 -10 -57 -24s-48 -21 -53 -26s-6 -7 -11 -21c-46 -129 -92 -258 -113 -405c-2 -14 -18 -26 -23 -28c-11 -4 -22 -13 -35 -13c-9 0 -13 1 -18 6c-8 8 -12 5 -12 32c0 61 23 82 39 162c8 39 82 249 82 263
c0 19 -23 32 -32 62c-5 17 -5 21 -5 28c0 5 1 8 5 14s8 6 15 6c25 0 33 -13 44 -13c4 0 8 3 12 13c56 140 95 236 151 335c8 14 29 23 50 23c16 0 27 -4 34 -18c4 -7 6 -13 6 -19c0 -21 -26 -42 -29 -59c-1 -5 -3 -13 -5 -18c-21 -50 -78 -103 -96 -169
c-3 -11 -7 -17 -12 -30c-2 -5 -22 -47 -22 -59c0 -2 2 -3 4 -3c3 0 18 3 53 19c77 36 89 42 104 73c9 19 25 28 50 28c9 0 24 0 32 -8c3 -3 5 -7 5 -12c0 -54 -38 -81 -59 -131c-16 -37 -43 -105 -57 -142c-21 -57 -27 -96 -27 -110c0 -16 4 -18 7 -18c8 0 22 6 51 32
c20 18 28 23 46 23c25 0 33 -7 33 -19c0 -11 -7 -20 -15 -29l-36 -39c-18 -19 -48 -48 -94 -48c-39 0 -64 58 -64 93c0 55 12 92 19 109c8 19 12 38 17 50zM571 665c0 -13 -3 -22 -6 -26l-20 -26c-11 -14 -22 -23 -37 -23c-29 0 -47 4 -47 43c0 54 20 71 61 71
c32 0 49 -10 49 -39z" />
    <glyph glyph-name="f_l" unicode="fl" horiz-adv-x="416" 
d="M303 324c-13 -6 -38 -16 -49 -20c-22 -8 -46 -19 -53 -26c-4 -4 -6 -7 -11 -21c-46 -129 -92 -258 -113 -405c-2 -14 -18 -26 -23 -28c-11 -4 -22 -13 -35 -13c-9 0 -13 1 -18 6c-8 8 -12 5 -12 32c0 61 23 82 39 162c8 39 82 249 82 263c0 19 -23 32 -32 62
c-5 17 -5 21 -5 28c0 5 1 8 5 14s8 6 15 6c25 0 33 -13 44 -13c4 0 8 3 12 13c56 140 95 236 151 335c8 14 29 23 50 23c16 0 27 -4 34 -18c4 -7 6 -13 6 -19c0 -7 -6 -39 -16 -56c-26 -44 -75 -94 -115 -193l-11 -27c-2 -5 -22 -47 -22 -59c0 -2 2 -3 4 -3c5 0 29 7 67 25
c68 32 83 44 181 239c13 26 22 52 29 65c9 18 15 29 38 32c9 1 14 3 30 3c9 0 22 -1 28 -13c2 -4 4 -12 4 -23c0 -20 -4 -30 -19 -56c-81 -141 -169 -270 -225 -419c-12 -32 -19 -48 -27 -72c-9 -26 -12 -62 -12 -71c0 -22 7 -27 10 -27s4 0 13 8c16 15 34 38 52 59
c20 24 39 47 67 47c12 0 15 -1 23 -6c6 -4 11 -10 11 -18c0 -12 -10 -16 -19 -27c-25 -31 -49 -70 -64 -86c-23 -25 -46 -45 -88 -45c-10 0 -22 2 -45 18c-10 7 -21 16 -30 34c-4 8 -7 25 -7 44s1 31 8 58c8 30 12 43 36 105c15 39 25 63 30 73c6 12 6 15 6 16s-1 2 -2 2
c-2 0 -4 0 -22 -8z" />
    <glyph glyph-name="f_r" unicode="fr" horiz-adv-x="467" 
d="M623 415c0 -17 -6 -30 -12 -38c-9 -12 -15 -14 -23 -14s-12 1 -21 5c-5 2 -10 4 -14 4c-3 0 -8 -2 -13 -5c-77 -46 -163 -145 -216 -316c-12 -39 -22 -57 -38 -67c-6 -4 -16 -6 -26 -6c-23 0 -23 8 -32 13c-8 4 -10 12 -10 23s12 40 26 68c18 36 22 46 34 80
c45 128 48 146 48 181c0 15 -6 21 -15 21c-18 0 -54 -12 -78 -17c-9 -2 -14 -7 -21 -26c-34 -92 -72 -204 -103 -310c-21 -71 -32 -115 -45 -141c-14 -28 -18 -32 -31 -32c-23 0 -29 2 -34 7s-3 11 -10 19c-5 6 -6 15 -6 38c0 24 20 41 50 135l26 78c27 83 68 193 68 207
c0 11 -6 14 -24 20c-14 5 -29 10 -33 24c-2 6 -3 8 -5 10s-2 9 -2 21c0 18 8 23 34 23c11 0 28 -1 45 -1c19 0 24 3 28 14c50 136 77 196 135 294c10 17 32 25 51 25c14 0 28 -4 35 -14c4 -6 4 -11 4 -19c0 -28 -20 -49 -26 -65c-21 -56 -67 -104 -86 -145
c-19 -40 -34 -78 -34 -80s1 -4 4 -4c7 0 46 10 74 10c25 0 36 -4 54 -17c26 -19 31 -42 31 -53c0 -4 1 -6 3 -6s3 0 9 7c20 24 63 61 110 81c12 5 19 6 29 6c20 0 39 -7 55 -23c5 -5 5 -7 5 -15z" />
    <glyph glyph-name="f_r_period" unicode="fr&#x2e;" horiz-adv-x="606" 
d="M623 415c0 -17 -6 -30 -12 -38c-9 -12 -15 -14 -23 -14s-12 1 -21 5c-5 2 -10 4 -14 4c-3 0 -8 -2 -13 -5c-77 -46 -163 -145 -216 -316c-12 -39 -22 -57 -38 -67c-6 -4 -16 -6 -26 -6c-23 0 -23 8 -32 13c-8 4 -10 12 -10 23s12 40 26 68c18 36 22 46 34 80
c45 128 48 146 48 181c0 15 -6 21 -15 21c-18 0 -54 -12 -78 -17c-9 -2 -14 -7 -21 -26c-34 -92 -72 -204 -103 -310c-21 -71 -32 -115 -45 -141c-14 -28 -18 -32 -31 -32c-23 0 -29 2 -34 7s-3 11 -10 19c-5 6 -6 15 -6 38c0 24 20 41 50 135l26 78c27 83 68 193 68 207
c0 11 -6 14 -24 20c-14 5 -29 10 -33 24c-2 6 -3 8 -5 10s-2 9 -2 21c0 18 8 23 34 23c11 0 28 -1 45 -1c19 0 24 3 28 14c50 136 77 196 135 294c10 17 32 25 51 25c14 0 28 -4 35 -14c4 -6 4 -11 4 -19c0 -28 -20 -49 -26 -65c-21 -56 -67 -104 -86 -145
c-19 -40 -34 -78 -34 -80s1 -4 4 -4c7 0 46 10 74 10c25 0 36 -4 54 -17c26 -19 31 -42 31 -53c0 -4 1 -6 3 -6s3 0 9 7c20 24 63 61 110 81c12 5 19 6 29 6c20 0 39 -7 55 -23c5 -5 5 -7 5 -15zM554 73c0 -7 -7 -24 -9 -39c-2 -12 -14 -41 -57 -41c-19 0 -21 5 -36 13
c-11 6 -15 18 -15 36c0 16 12 35 20 56c10 27 19 33 45 33c28 0 42 -17 48 -31c3 -7 4 -13 4 -27z" />
    <glyph glyph-name="f_r_period_b_period" unicode="fr&#x2e;b&#x2e;" horiz-adv-x="1137" 
d="M623 415c0 -17 -6 -30 -12 -38c-9 -12 -15 -14 -23 -14s-12 1 -21 5c-5 2 -10 4 -14 4c-3 0 -8 -2 -13 -5c-77 -46 -163 -145 -216 -316c-12 -39 -22 -57 -38 -67c-6 -4 -16 -6 -26 -6c-23 0 -23 8 -32 13c-8 4 -10 12 -10 23s12 40 26 68c18 36 22 46 34 80
c45 128 48 146 48 181c0 15 -6 21 -15 21c-18 0 -54 -12 -78 -17c-9 -2 -14 -7 -21 -26c-34 -92 -72 -204 -103 -310c-21 -71 -32 -115 -45 -141c-14 -28 -18 -32 -31 -32c-23 0 -29 2 -34 7s-3 11 -10 19c-5 6 -6 15 -6 38c0 24 20 41 50 135l26 78c27 83 68 193 68 207
c0 11 -6 14 -24 20c-14 5 -29 10 -33 24c-2 6 -3 8 -5 10s-2 9 -2 21c0 18 8 23 34 23c11 0 28 -1 45 -1c19 0 24 3 28 14c50 136 77 196 135 294c10 17 32 25 51 25c14 0 28 -4 35 -14c4 -6 4 -11 4 -19c0 -28 -20 -49 -26 -65c-21 -56 -67 -104 -86 -145
c-19 -40 -34 -78 -34 -80s1 -4 4 -4c7 0 46 10 74 10c25 0 36 -4 54 -17c26 -19 31 -42 31 -53c0 -4 1 -6 3 -6s3 0 9 7c20 24 63 61 110 81c12 5 19 6 29 6c20 0 39 -7 55 -23c5 -5 5 -7 5 -15zM1004 735c0 -17 -19 -33 -25 -51c-4 -11 -25 -40 -34 -59
c-36 -77 -74 -168 -74 -172c0 -2 2 -3 4 -3s16 7 40 7c23 0 43 -4 54 -37c6 -17 17 -27 17 -49c0 -39 -21 -137 -92 -265c-21 -38 -52 -80 -85 -109c-21 -18 -33 -19 -54 -19c-13 0 -20 1 -30 8c-7 5 -18 16 -26 32c-2 4 -5 6 -8 6c-2 0 -12 -2 -19 -2c-10 0 -16 3 -20 8
s-3 9 -7 16c-3 5 -4 8 -4 12c0 7 1 18 8 37c26 71 55 154 90 239l158 385c11 28 25 54 51 54c19 0 26 -7 40 -11s16 -8 16 -27zM903 376c0 7 -2 10 -5 10c-20 0 -74 -64 -95 -115l-24 -58c-19 -46 -20 -59 -20 -66c0 -6 4 -9 4 -15c0 -9 -9 -25 -9 -52c0 -16 1 -21 5 -21
s10 4 18 15c74 99 120 210 125 278c1 13 1 16 1 24zM1085 73c0 -7 -7 -24 -9 -39c-2 -12 -14 -41 -57 -41c-19 0 -21 5 -36 13c-11 6 -15 18 -15 36c0 16 12 35 20 56c10 27 19 33 45 33c28 0 42 -17 48 -31c3 -7 4 -13 4 -27zM552 73c0 -7 -7 -24 -9 -39
c-2 -12 -14 -41 -57 -41c-19 0 -21 5 -36 13c-11 6 -15 18 -15 36c0 16 12 35 20 56c10 27 19 33 45 33c28 0 42 -17 48 -31c3 -7 4 -13 4 -27z" />
    <glyph glyph-name=".notdef" horiz-adv-x="344" 
d="M16 0v700h312v-700h-312zM80 64h184v572h-184v-572z" />
    <glyph glyph-name=".null" horiz-adv-x="0" 
 />
    <glyph glyph-name="CR" unicode="&#xd;" horiz-adv-x="205" 
 />
    <glyph glyph-name="space" unicode=" " horiz-adv-x="205" 
 />
    <glyph glyph-name="exclam" unicode="!" horiz-adv-x="264" 
d="M305 640c10 -3 9 -12 17 -15c10 -4 19 -15 19 -25c0 -26 -22 -66 -31 -93c-37 -110 -60 -212 -103 -313c-3 -7 -6 -13 -19 -13c-14 0 -23 0 -24 13c-2 25 -19 27 -19 41c0 7 1 12 3 18l13 45c24 95 52 172 71 270c4 21 7 36 13 52c6 15 14 29 34 29c19 0 13 -5 26 -9z
M138 -10c-10 0 -15 -1 -31 -1c-23 0 -31 35 -31 58c0 9 1 19 7 28c5 7 4 21 13 26c5 3 9 3 16 3c35 0 29 -16 58 -22c9 -2 11 -7 11 -14s-4 -28 -8 -38c-15 -39 -22 -40 -35 -40z" />
    <glyph glyph-name="quotedbl" unicode="&#x22;" horiz-adv-x="292" 
d="M162 385c-5 0 -19 11 -19 24c0 6 6 13 9 26l37 141c8 32 15 67 17 82c2 13 3 21 30 21c9 0 12 0 18 -6c3 -3 9 -8 14 -9c16 -3 21 -12 21 -21c0 -19 -17 -70 -27 -109l-35 -136c-3 -11 -14 -20 -33 -20c-23 0 -27 7 -32 7zM285 460l25 96c11 44 21 88 22 97
c1 11 3 18 28 18c26 0 33 -6 36 -11c10 -17 17 -20 17 -34c0 -20 -27 -94 -33 -115l-34 -126c-3 -11 -8 -17 -26 -17c-17 0 -24 1 -34 5c-7 3 -11 9 -15 20c-1 3 -2 6 -2 9c0 1 11 38 16 58z" />
    <glyph glyph-name="numbersign" unicode="#" horiz-adv-x="528" 
d="M336 418c2 0 46 3 48 3c1 0 8 0 11 7l56 146c12 31 24 44 27 62c1 6 7 10 20 10h7c15 0 26 -3 38 -12c4 -3 14 -12 14 -20c0 -10 -2 -16 -6 -22c-12 -18 -20 -32 -29 -51c-14 -29 -37 -84 -42 -96s-6 -15 -6 -17s1 -4 5 -4c1 0 43 4 62 4c13 0 20 0 30 -1c7 -1 8 -2 9 -6
s3 -17 3 -24c0 -14 -9 -7 -14 -23c-2 -6 -4 -10 -9 -15s-6 -5 -15 -5h-27c-14 0 -50 -1 -62 -1c-8 0 -10 -2 -14 -11c-9 -20 -20 -46 -28 -67c-5 -13 -5 -14 -5 -17s2 -5 6 -5h59c18 0 40 -4 41 -9c3 -15 7 -9 7 -17c0 -12 -6 -19 -8 -29c-2 -11 -7 -19 -19 -19h-5
c-47 0 -62 2 -69 2c-11 0 -27 0 -32 -1c-7 -1 -9 -1 -13 -12c-16 -45 -35 -86 -57 -141c-12 -30 -27 -64 -33 -66c-4 -1 -6 -1 -11 -1c-16 0 -32 2 -34 5c-7 10 -14 13 -14 22c0 10 5 20 9 32c9 27 13 28 16 36l38 97c4 11 5 14 5 16c0 4 -2 5 -5 5c-5 0 -41 -3 -48 -3
c-6 0 -9 -2 -13 -12c-17 -43 -35 -90 -53 -131l-22 -50c-7 -15 -12 -17 -22 -17c-24 0 -20 5 -29 5c-11 0 -13 2 -16 7s-3 10 -3 15c0 6 4 21 8 32c3 8 16 34 33 77l21 53c4 11 5 14 5 16c0 3 -2 5 -5 5c-36 0 -48 -5 -76 -5c-17 0 -18 5 -18 15c0 15 5 15 5 19s-3 5 -3 10
c0 3 2 7 8 17c7 11 9 12 20 14c10 2 65 2 87 2c9 0 11 1 15 10l29 72c4 11 6 16 6 18s-1 4 -6 4c-28 0 -34 -3 -61 -3c-39 0 -40 2 -40 16c0 7 9 24 11 35c2 9 6 17 10 20s11 5 22 5c17 0 37 -3 84 -3c8 0 12 2 16 13l55 145c25 67 27 72 52 72h6c14 0 19 -7 24 -7
c11 0 21 -4 21 -25c0 -15 0 -17 -14 -37c-2 -3 -10 -14 -14 -23c-15 -33 -31 -71 -49 -114c-5 -12 -6 -15 -6 -17c0 -3 1 -5 6 -5zM270 244c1 0 42 4 48 4c3 0 7 2 10 9l27 70c4 11 5 15 5 16c0 4 -1 5 -7 5c-3 0 -26 -2 -44 -2c-5 0 -9 -1 -12 -9l-27 -71
c-4 -11 -5 -15 -5 -16c0 -4 1 -6 5 -6z" />
    <glyph glyph-name="dollar" unicode="$" horiz-adv-x="378" 
d="M151 114c15 54 50 149 61 190c3 11 3 13 3 17c0 5 -1 9 -7 29c-23 76 -37 127 -37 169s16 87 56 122c15 13 29 21 64 21c24 0 34 -5 37 -5c2 0 3 1 4 4c10 29 16 50 18 58c3 14 23 17 46 17c8 0 30 -1 30 -13c0 -14 -9 -24 -11 -41c-2 -16 -26 -46 -26 -54
c0 -3 2 -4 9 -9c36 -26 55 -59 66 -81c1 -2 2 -8 2 -14c0 -7 -4 -14 -9 -21c-8 -11 -17 -13 -23 -19c-2 -2 -5 -3 -13 -3c-17 0 -17 6 -24 6c-4 0 -10 3 -13 8c-3 6 -8 14 -11 18c-7 10 -8 12 -8 14s-1 8 -3 11s-2 5 -5 5c-2 0 -3 -3 -18 -51c-21 -68 -40 -113 -40 -125
c0 -4 2 -10 6 -24l21 -73c20 -69 30 -106 30 -158c0 -45 -8 -86 -54 -117c-9 -6 -26 -13 -66 -13c-34 0 -48 8 -50 8c-3 0 -4 -1 -5 -4c-3 -8 -4 -34 -5 -41c-2 -12 -9 -26 -24 -34c-6 -3 -10 -3 -13 -3c-12 0 -17 5 -31 5c-11 0 -15 6 -15 11c0 13 6 39 21 79
c3 8 4 11 4 12c0 2 0 3 -10 10c-22 16 -40 39 -51 59c-13 23 -41 34 -41 96c0 25 11 44 22 46c12 2 19 2 25 2c24 0 24 -5 32 -8c11 -4 29 -15 29 -30c0 -6 -6 -22 -6 -33c0 -8 3 -27 19 -48c4 -5 7 -9 8 -9c2 0 4 6 6 14zM246 202l-37 -116c-6 -19 -6 -22 -6 -25
c0 -8 18 -16 31 -16c9 0 22 6 28 16s8 19 8 43c0 34 -6 71 -13 101c-2 9 -3 13 -5 13c-1 0 -2 -3 -6 -16zM270 483c3 10 18 54 30 84c5 13 6 17 6 19c0 5 -14 12 -24 12c-8 0 -29 -12 -29 -71c0 -11 1 -20 4 -35c3 -17 5 -25 7 -25c1 0 3 6 6 16z" />
    <glyph glyph-name="percent" unicode="%" horiz-adv-x="632" 
d="M398 557c-3 0 -4 0 -4 -5c0 -16 -6 -53 -14 -79c-12 -38 -22 -62 -50 -102c-19 -27 -41 -53 -84 -53c-55 0 -75 30 -90 60c-9 18 -16 39 -16 64c0 17 0 44 39 127c21 45 61 93 119 93c27 0 33 -5 40 -12c6 -6 11 -10 21 -14c34 -14 55 -17 65 -17c38 0 80 4 97 30
c4 6 8 12 24 12c20 0 28 -3 36 -10c9 -8 11 -12 11 -25c0 -16 -2 -34 -16 -46c-12 -11 -19 -17 -45 -62l-255 -442c-22 -39 -39 -70 -51 -89c-7 -11 -18 -14 -35 -14c-9 0 -26 5 -34 13c-3 3 -6 7 -6 17c0 3 2 37 6 39c8 4 12 7 20 20c23 37 14 6 47 65
c86 153 136 247 230 408c7 12 9 16 9 18s-1 3 -4 3c-2 0 -10 -1 -28 -1h-6c-15 0 -23 2 -26 2zM581 294c18 -13 30 -42 30 -70c0 -31 -11 -87 -27 -123c-14 -32 -23 -48 -35 -67c-13 -21 -36 -47 -90 -47c-33 0 -63 5 -80 33s-24 46 -24 70c0 37 8 77 41 140
c35 67 56 91 108 91c22 0 28 -1 46 -9c9 -4 27 -15 31 -18zM296 603c-3 0 -6 -1 -14 -13c-54 -82 -64 -136 -64 -159c0 -36 6 -59 20 -59c4 0 9 3 25 32c38 69 55 111 55 155c0 12 -4 17 -6 18c-10 5 -11 12 -11 17c0 7 0 9 -5 9zM511 264c-4 0 -8 -3 -14 -13
c-24 -39 -41 -76 -52 -108c-7 -21 -12 -49 -12 -61c0 -21 5 -46 17 -46c11 0 21 12 30 33l26 59c20 44 28 77 28 96c0 7 -4 20 -8 23s-6 6 -8 10c-3 7 -4 7 -7 7z" />
    <glyph glyph-name="ampersand" unicode="&#x26;" horiz-adv-x="430" 
d="M328 -13c-4 0 -2 -2 -14 -2c-16 0 -21 4 -26 9c-4 4 -8 8 -8 13c0 7 -7 20 -7 28c0 1 -1 3 -2 3c-2 0 -4 -1 -9 -4c-11 -6 -33 -18 -40 -20c-15 -4 -32 -9 -58 -13c-7 -1 -18 -1 -21 -1c-21 0 -34 0 -50 7c-22 10 -29 40 -39 52c-4 5 -9 23 -9 37c0 15 1 34 9 52
c25 55 55 90 91 131c19 22 59 62 61 66c3 5 3 7 3 11c0 5 -4 27 -4 80c0 27 2 39 8 65c20 86 65 127 115 127c27 0 39 -4 48 -10c10 -6 13 -16 18 -21c11 -11 22 -27 22 -47c0 -24 -15 -74 -18 -82c-9 -25 -43 -65 -95 -125c-6 -7 -8 -10 -8 -15c0 -3 0 -4 2 -16
c8 -47 16 -86 24 -128c2 -11 3 -12 4 -12c2 0 3 0 7 4l15 16c7 7 19 16 29 23c15 11 20 11 32 11c14 0 15 -1 18 -10c1 -3 2 -14 2 -16c0 -39 -8 -55 -28 -68c-13 -8 -10 -13 -45 -37c-10 -7 -12 -9 -12 -14c0 -3 0 -4 2 -12c16 -63 17 -73 17 -77c0 -8 -6 -8 -14 -8
c-13 0 -14 3 -20 3zM207 233c-16 -18 -38 -51 -50 -69c-26 -39 -30 -60 -30 -69c0 -18 11 -24 17 -24c5 0 46 8 98 37c9 5 10 6 10 10c0 2 0 3 -3 18l-19 103c-2 13 -3 14 -4 14c-3 0 -8 -7 -19 -20zM295 442c13 17 22 30 30 46s9 30 12 36c5 9 9 22 9 27c0 15 -3 18 -6 18
c-10 0 -29 -21 -32 -26c-17 -28 -29 -53 -29 -88c0 -24 0 -29 2 -29c1 0 3 1 14 16z" />
    <glyph glyph-name="quotesingle" unicode="'" horiz-adv-x="194" 
d="M176 386c-16 4 -21 19 -21 27c0 11 6 16 9 29l32 120c10 38 15 67 19 96c3 22 10 22 30 22c27 0 26 -14 34 -17c17 -6 21 -12 21 -27c0 -23 -19 -68 -32 -122l-27 -114c-2 -9 -15 -24 -34 -24c-17 0 -20 7 -31 10z" />
    <glyph glyph-name="parenleft" unicode="(" horiz-adv-x="272" 
d="M112 265c25 91 92 272 206 427c19 26 14 9 31 30c7 9 13 11 28 11c24 0 30 -22 30 -36c0 -4 0 -30 -15 -74c-4 -12 -9 -16 -29 -16c-5 0 -11 -1 -25 -21c-52 -75 -100 -178 -124 -237c-34 -84 -65 -195 -65 -303v-25c0 -27 19 -45 19 -71c0 -6 -1 -27 -14 -40
c-4 -4 -13 -6 -23 -6c-16 0 -19 12 -27 13c-20 3 -27 68 -27 116c0 31 9 137 35 232z" />
    <glyph glyph-name="parenright" unicode=")" horiz-adv-x="272" 
d="M49 21c2 0 5 0 21 17c33 38 46 54 91 145c53 106 71 204 78 311c4 58 4 79 4 105c0 16 0 27 -1 32c-4 28 -16 29 -16 51c0 35 10 27 16 34c10 11 16 17 33 17c29 0 43 -28 46 -47c2 -11 3 -63 3 -69c0 -9 -1 -52 -3 -79c-10 -137 -46 -308 -124 -442
c-36 -62 -79 -121 -133 -170c-20 -18 -22 -19 -40 -19c-12 0 -19 3 -23 7s-7 10 -7 14c0 21 -8 25 -8 36c0 12 21 20 27 27c8 10 15 17 21 23s11 7 15 7z" />
    <glyph glyph-name="asterisk" unicode="*" horiz-adv-x="339" 
d="M356 533c0 -2 2 -2 3 -2s46 10 61 10c20 0 32 0 32 -13c0 -6 1 -11 1 -19s-4 -12 -7 -21s-12 -13 -17 -13c-18 0 -27 0 -88 -12c-4 -1 -5 -1 -5 -3c0 -1 1 -3 4 -10c5 -12 22 -57 27 -63c7 -9 7 -14 7 -21c0 -11 -11 -19 -15 -24c-11 -13 -13 -15 -27 -15
c-8 0 -12 0 -19 10c-9 12 -26 53 -28 59c-4 11 -5 15 -6 15c-2 0 -3 -2 -6 -8c-6 -12 -13 -20 -23 -46c-2 -5 -9 -15 -21 -23c-6 -4 -13 -4 -31 -4c-8 0 -12 1 -16 3c-14 7 -15 14 -15 20s2 6 7 14c20 33 36 60 52 85c5 8 6 9 6 11c0 1 -1 2 -14 3c-17 1 -26 1 -33 1
c-8 0 -38 2 -43 7c-4 4 -4 8 -4 12c0 21 5 25 5 33c0 6 3 7 6 12c3 6 7 8 19 8c6 0 8 0 19 -3c7 -2 30 -3 42 -4c8 -1 10 -1 11 -1c2 0 3 1 3 3c0 1 0 3 -2 13c-3 15 -7 36 -10 44c-7 18 -9 31 -9 40c0 17 14 18 24 28c11 11 13 12 26 12c14 0 16 -1 21 -22
c4 -17 5 -32 6 -40s3 -16 4 -21c1 -7 2 -8 3 -8s4 4 6 7l30 43c15 24 18 28 36 28h17c6 0 17 -1 22 -3c8 -3 13 -6 13 -13s-6 -18 -10 -24c-10 -16 -25 -30 -30 -37l-25 -36c-8 -10 -9 -11 -9 -12z" />
    <glyph glyph-name="plus" unicode="+" horiz-adv-x="480" 
d="M330 305c7 0 24 2 49 6c34 5 46 6 50 6c13 0 29 -2 37 -15c2 -3 2 -5 2 -12c0 -6 -1 -16 -11 -36c-3 -6 0 -5 -7 -12c-2 -2 -7 -2 -11 -2c-5 0 -10 1 -14 1c-5 0 -8 0 -15 -1l-87 -10c-11 -1 -17 -2 -20 -3c-4 -1 -5 -3 -7 -9c-9 -28 -26 -88 -37 -145
c-1 -5 -1 -17 -7 -24c-4 -5 -12 -7 -20 -7s-8 -7 -25 -7c-11 0 -17 1 -22 4s-7 8 -7 11c0 12 3 31 9 55c6 23 13 40 23 78l5 19c3 11 3 12 3 13c0 2 -1 3 -4 3h-23c-28 0 -76 7 -81 10c-12 7 -12 33 -12 57c0 5 2 8 9 15c6 6 10 7 22 7c6 0 9 0 19 -3c14 -4 57 -6 64 -6h21
c7 0 11 4 14 13c6 18 25 81 28 93c7 28 16 54 22 55c16 3 21 13 43 13c33 0 33 -11 33 -14c0 -2 0 -4 -4 -16l-11 -34c-6 -20 -16 -53 -28 -89c-3 -9 -3 -10 -3 -11c0 -2 1 -3 3 -3z" />
    <glyph glyph-name="comma" unicode="," horiz-adv-x="216" 
d="M-20 -151c-8 0 -12 17 -12 23c0 3 0 7 7 20l62 117l46 94c8 17 14 22 36 22c7 0 15 -1 21 -5c5 -4 10 -9 13 -16c8 -18 13 -17 13 -33c0 -3 0 -7 -3 -12l-117 -197c-8 -13 -16 -20 -21 -20h-8c-24 0 -25 7 -37 7z" />
    <glyph glyph-name="hyphen" unicode="-" horiz-adv-x="373" 
d="M112 244c-3 6 -10 22 -10 47c0 4 1 10 3 13c4 5 12 11 38 11c52 0 91 -3 133 -3c17 0 38 3 61 3c27 0 35 -6 35 -15c0 -38 -9 -51 -13 -56c-2 -3 -11 -5 -18 -6c-34 -5 -13 -10 -91 -10c-50 0 -119 8 -122 8c-11 0 -12 1 -16 8z" />
    <glyph glyph-name="period" unicode="." horiz-adv-x="235" 
d="M184 76c0 -4 -7 -32 -10 -41c-12 -36 -22 -41 -52 -41c-16 0 -22 1 -31 8c-7 6 -14 14 -19 27c-4 9 -6 17 -6 23c0 3 2 13 8 20c17 19 9 35 22 51c5 6 10 9 36 9c24 0 37 -13 44 -26c5 -9 8 -19 8 -30z" />
    <glyph glyph-name="slash" unicode="/" horiz-adv-x="328" 
d="M422 694c20 0 43 -28 43 -44c0 -8 -3 -17 -13 -30c-25 -32 -22 -18 -38 -44c-91 -147 -215 -389 -303 -564c-23 -46 -46 -77 -53 -85c-4 -5 -9 -5 -14 -5c-21 0 -26 3 -31 7c-10 8 -16 15 -16 27c0 7 7 27 17 47c4 8 20 30 30 50l290 544c19 35 50 78 55 83
c9 9 20 14 33 14z" />
    <glyph glyph-name="zero" unicode="0" horiz-adv-x="360" 
d="M329 575c5 0 7 2 13 2c9 0 27 -6 36 -13c15 -12 25 -21 28 -30c8 -25 13 -55 13 -81c0 -8 -2 -62 -17 -123c-4 -16 -15 -52 -34 -100c-7 -18 -15 -53 -79 -162c-37 -63 -85 -100 -132 -100c-30 0 -89 37 -107 91c-2 5 -5 41 -5 61c0 32 3 52 9 80c10 47 30 110 49 153
c37 84 90 158 145 231c6 8 11 9 41 9c7 0 13 -1 19 -4c10 -5 15 -14 21 -14zM312 524c-4 0 -6 0 -13 -9c-60 -77 -111 -167 -150 -268c-12 -31 -10 -35 -14 -51c-6 -26 -17 -61 -17 -80c0 -7 2 -45 5 -54c6 -17 13 -24 18 -24c6 0 37 8 91 108c13 24 10 10 30 54
c77 169 77 236 77 255c0 32 -16 69 -27 69z" />
    <glyph glyph-name="one" unicode="1" horiz-adv-x="360" 
d="M273 375c-143 -197 -171 -211 -178 -225c-2 -4 -9 -9 -30 -9c-19 0 -17 5 -22 9c-4 3 -12 9 -15 13c-9 12 -10 20 -10 25s6 12 18 25c28 30 42 41 54 50c5 4 19 18 34 37c53 67 115 146 172 226c19 26 67 101 68 108c1 9 6 11 24 11c26 0 50 -9 57 -30c1 -3 1 -6 1 -9
c0 -5 -2 -11 -7 -24c-61 -158 -98 -329 -145 -495c-7 -25 -12 -58 -12 -62c0 -5 -2 -17 -5 -26c-2 -6 -7 -19 -23 -19c-8 0 -14 -3 -24 -3c-22 0 -37 6 -43 15c-2 3 -2 8 -2 15c0 1 4 30 6 39c6 27 15 37 20 56c22 84 49 171 72 255c9 33 10 37 10 38s0 2 -2 2
c-1 0 -2 0 -18 -22z" />
    <glyph glyph-name="two" unicode="2" horiz-adv-x="360" 
d="M187 441c-7 0 -7 -5 -22 -5c-7 0 -12 0 -22 12c-6 7 -9 15 -9 33c0 14 2 20 5 27c2 4 8 14 19 30c22 32 45 49 77 72c37 27 56 32 108 32c37 0 82 -54 82 -82c0 -3 -1 -13 -2 -21c-24 -189 -220 -341 -296 -455c-8 -12 -9 -15 -9 -17c0 -3 3 -7 10 -11c5 -3 27 -6 47 -6
c40 0 63 3 82 26c21 25 20 43 34 64c7 10 18 14 44 14c11 0 15 -1 18 -4s9 -9 11 -12c3 -5 5 -10 5 -16c0 -15 -25 -94 -37 -110c-17 -23 -46 -32 -153 -32c-42 0 -72 1 -88 3c-25 3 -46 7 -55 17c-19 21 -26 39 -26 57c0 13 0 17 11 33c15 22 46 60 113 134
c135 148 190 247 206 311c3 12 5 24 5 30c0 12 -7 14 -10 14c-29 0 -94 -70 -94 -83c0 -4 -20 -24 -25 -35c-6 -13 -12 -20 -29 -20z" />
    <glyph glyph-name="three" unicode="3" horiz-adv-x="360" 
d="M267 292c-5 0 -8 -1 -16 -5s-8 1 -25 -10c-11 -7 -23 -16 -34 -22c-23 -12 -31 -13 -45 -13c-23 0 -26 5 -28 8c-6 9 -9 24 -9 37c0 4 24 22 39 32c11 7 14 15 23 22c91 71 137 176 149 212c2 6 2 7 2 8s-1 2 -2 2c-2 0 -6 -2 -14 -7c-29 -18 -74 -53 -76 -71
c-2 -19 -14 -19 -23 -30c-4 -5 -19 -7 -39 -7c-11 0 -13 0 -21 20c-4 10 -6 20 -6 21c0 4 1 9 2 13c8 31 33 46 51 64c8 8 10 9 14 10c15 4 24 14 37 21c4 2 23 15 39 22c26 11 31 12 50 12c14 0 33 -3 41 -11c4 -4 9 -8 19 -12c9 -4 13 -13 16 -21c4 -11 4 -15 4 -18
c0 -11 -4 -21 -9 -31c-10 -20 -3 -19 -17 -44c-37 -66 -71 -111 -96 -138c69 -6 78 -67 78 -97c0 -20 -2 -61 -39 -143c-34 -76 -77 -150 -163 -150c-61 0 -110 66 -136 108c-8 13 -7 16 -9 23c-3 10 -3 13 -3 16c0 4 0 20 22 20c24 0 30 1 38 1c9 0 15 0 20 -7
c10 -14 24 -27 24 -40c0 -16 32 -51 46 -51c8 0 15 5 27 18c32 34 45 55 65 102c16 38 27 78 27 86c0 20 -3 28 -7 36c-6 12 -12 14 -16 14z" />
    <glyph glyph-name="four" unicode="4" horiz-adv-x="360" 
d="M306 246c1 0 6 1 18 4c8 2 20 4 53 4c28 0 31 -14 37 -39c1 -4 1 -6 1 -8c0 -10 -5 -19 -27 -19c-13 0 -33 -3 -38 -4l-60 -13c-16 -36 -29 -118 -31 -141c-1 -12 -2 -9 -3 -19c-1 -9 -3 -18 -19 -18c-15 0 -22 1 -35 10c-9 6 -17 15 -20 17c-5 3 -7 11 -7 18
c0 3 13 69 15 76c7 24 10 35 10 39c0 3 -1 4 -4 4c-1 0 -45 0 -79 4c-17 2 -33 6 -50 15c-4 2 -6 4 -10 9c-9 11 -27 45 -27 63c0 5 1 9 1 18c0 3 1 6 9 16c69 87 154 208 258 312c12 12 16 17 19 22c8 14 13 22 33 22c11 0 18 -2 25 -5c8 -4 23 -13 23 -24
c0 -2 -1 -12 -2 -17c-5 -24 -15 -44 -17 -62c-6 -50 -57 -186 -74 -269c-2 -10 -2 -12 -2 -13s1 -2 3 -2zM263 447c-44 -56 -97 -128 -140 -189c-7 -10 -7 -13 -7 -16c0 -2 1 -5 4 -7c15 -10 39 -13 53 -13c5 0 27 2 35 4c9 2 10 3 12 13c15 73 42 163 57 207
c4 12 5 16 5 18c0 1 0 2 -2 2s-6 -5 -17 -19z" />
    <glyph glyph-name="five" unicode="5" horiz-adv-x="360" 
d="M253 589c7 0 39 7 77 13c13 2 73 11 90 11c22 0 48 -19 56 -37c3 -7 4 -10 4 -17c0 -8 -7 -27 -36 -27c-12 0 -26 6 -48 6c-17 0 -58 -3 -151 -26c-4 -1 -6 -3 -8 -10l-28 -91c-2 -7 -3 -9 -3 -11c0 -1 1 -2 2 -2s2 0 8 3c4 2 24 10 52 10c44 0 75 -10 94 -51
c13 -28 13 -47 13 -60c0 -20 -1 -35 -6 -60c-9 -44 -36 -105 -49 -130c-52 -101 -107 -142 -152 -142c-69 0 -109 46 -143 95c-17 25 -18 27 -18 37c0 5 3 8 6 10c5 3 9 9 16 16c9 9 16 12 29 12c11 0 24 -4 31 -10c21 -18 18 -38 33 -60c23 -33 36 -35 40 -35
c2 0 11 1 43 44c23 31 40 69 55 108c6 16 9 33 16 54c10 30 14 43 14 67c0 21 -5 44 -19 44c-10 0 -53 -20 -101 -76c-8 -9 -10 -11 -23 -11c-15 0 -22 0 -30 4c-7 3 -11 7 -18 12c-3 2 -9 6 -9 12c0 5 2 11 6 23c31 93 58 186 79 250c3 9 13 15 23 21c7 4 21 10 35 10
c17 0 10 -6 20 -6z" />
    <glyph glyph-name="six" unicode="6" horiz-adv-x="360" 
d="M188 276c4 3 30 22 36 24c10 3 29 12 40 16c21 8 30 10 47 10c25 0 41 -9 45 -17c10 -20 26 -43 26 -56c0 -1 -1 -6 -6 -21c-36 -109 -99 -188 -168 -240c-8 -6 -27 -18 -64 -18c-18 0 -31 0 -54 14c-12 7 -12 12 -23 21c-19 16 -38 36 -38 71c0 7 2 35 11 62
c90 270 188 368 200 379c20 19 30 33 51 54c22 22 39 37 71 37c15 0 21 -1 35 -10c10 -6 16 -15 17 -20c2 -11 2 -18 2 -23c0 -13 -10 -15 -26 -15c-13 0 -11 1 -19 1c-4 0 -8 -3 -31 -26c-70 -70 -134 -175 -157 -230c-4 -10 -6 -15 -6 -17s1 -2 2 -2s4 2 9 6zM285 222
c5 10 7 14 7 18c0 3 -2 4 -4 4c-4 0 -8 -2 -21 -9c-88 -48 -123 -96 -125 -100c-12 -23 -29 -37 -29 -63c0 -16 13 -33 18 -33c9 0 45 24 73 56c29 34 52 70 81 127z" />
    <glyph glyph-name="seven" unicode="7" horiz-adv-x="360" 
d="M169 262c-3 0 -56 5 -60 12c-6 10 -8 26 -8 40c0 2 -1 7 -1 9c0 3 2 10 6 14c5 5 9 5 17 5c11 0 19 -1 24 -4c6 -3 30 -9 41 -9c6 0 28 0 33 8c62 100 90 126 118 200c3 8 3 12 3 14c0 3 -3 9 -21 9c-81 0 -123 -20 -127 -73c-1 -12 -18 -15 -29 -15c-22 0 -31 5 -36 15
c-7 13 -3 42 -8 56c-1 3 -2 8 -2 12c0 5 0 9 1 15c2 14 17 23 45 31c26 7 95 20 164 20c37 0 63 -3 74 -10c9 -6 39 -31 39 -56c0 -14 0 -21 -40 -86c-22 -36 -68 -101 -73 -108s-6 -10 -6 -11c0 -2 2 -3 4 -3c3 0 7 1 17 1c31 0 42 -5 54 -22c5 -7 5 -9 5 -14
c0 -9 -1 -22 -6 -27c-3 -3 -5 -3 -10 -3c-12 0 -17 3 -24 3c-51 0 -43 -10 -96 -18c-89 -143 -128 -235 -128 -271c0 -4 -3 -7 -9 -9c-8 -3 -10 -18 -30 -18c-12 0 -25 2 -36 20c-7 11 -15 21 -15 26c0 21 17 66 117 232c6 10 6 11 6 12s-1 3 -3 3z" />
    <glyph glyph-name="eight" unicode="8" horiz-adv-x="360" 
d="M161 321c10 7 11 9 12 32c1 34 3 60 6 81c13 93 40 163 84 194c20 14 33 16 48 16c18 0 37 -6 50 -13c14 -8 9 -18 20 -24c34 -18 60 -77 72 -125c3 -12 3 -23 3 -27c0 -10 -4 -43 -34 -62c-57 -36 -113 -68 -159 -93c-11 -6 -13 -7 -14 -18c-1 -12 -2 -39 -2 -43
c0 -5 -3 -122 -6 -157c-3 -40 -15 -104 -40 -109c-10 -2 -13 -6 -34 -6s-33 0 -50 13c-42 32 -94 99 -94 169c0 19 1 29 9 52c22 62 87 90 129 120zM351 544c-3 0 -3 -2 -8 -2c-4 0 -8 0 -11 7c-2 4 -4 13 -4 16c0 1 0 4 -3 4c-2 0 -14 -7 -25 -22c-3 -4 -7 -10 -15 -24
s-20 -56 -25 -104c-1 -7 -2 -17 -2 -24c0 -3 0 -6 2 -6s6 2 24 13c23 14 53 23 82 50c13 12 14 22 14 36c0 13 -3 29 -11 41c-6 9 -14 15 -18 15zM153 229c-18 -12 -32 -28 -40 -43c-10 -18 -12 -32 -12 -40c0 -16 4 -38 9 -48c9 -18 19 -34 27 -44c4 -5 6 -7 7 -7
c2 0 3 3 4 6c8 24 12 51 14 80c3 35 3 94 3 96c0 3 0 5 -2 5s-4 -1 -10 -5z" />
    <glyph glyph-name="nine" unicode="9" horiz-adv-x="360" 
d="M256 299c-12 -9 -26 -17 -39 -21c-9 -3 -16 -2 -26 -6c-5 -2 -19 -7 -40 -7c-24 0 -28 3 -38 12s-12 9 -15 12c-5 5 -10 12 -17 26c-4 8 -14 22 -14 36c0 8 4 26 8 34c56 111 152 152 234 209c10 7 24 13 29 15c15 6 29 10 45 10c5 0 22 0 29 -7c9 -9 13 -9 34 -32
c15 -16 18 -21 18 -26c0 -14 -6 -32 -21 -56c-10 -16 -13 -23 -16 -31c-32 -86 -73 -144 -105 -245c-10 -31 -53 -136 -67 -212c-3 -16 -5 -18 -15 -25c-7 -5 -17 -8 -24 -8s-17 1 -23 6c-13 11 -26 23 -26 36c0 3 0 5 8 27c31 84 52 146 81 229c6 16 8 23 8 25
c0 1 -1 2 -2 2s-2 0 -6 -3zM144 333c4 0 15 2 36 13c92 48 160 125 186 176c6 12 7 14 7 17c0 1 -1 2 -2 2c-2 0 -3 0 -12 -5c-95 -53 -161 -91 -215 -178c-8 -13 -8 -15 -8 -18c0 -4 5 -7 8 -7z" />
    <glyph glyph-name="colon" unicode=":" horiz-adv-x="240" 
d="M198 124c6 -7 14 -14 19 -18c7 -5 9 -32 9 -52c0 -5 -6 -37 -11 -38c-8 -2 -19 -15 -43 -15c-12 0 -20 1 -27 8c-2 2 -6 8 -10 15c-10 17 -16 17 -16 32c0 6 3 13 8 35c5 21 15 46 40 46c15 0 22 -2 31 -13zM284 372c0 -4 -5 -28 -6 -37c-1 -6 -7 -20 -19 -37
c-6 -9 -14 -11 -22 -11c-5 0 -10 0 -33 8c-17 6 -29 15 -29 34c0 39 13 53 20 67c11 22 12 24 36 24c11 0 23 0 38 -18c4 -5 15 -20 15 -30z" />
    <glyph glyph-name="semicolon" unicode=";" horiz-adv-x="232" 
d="M-41 -200c-11 2 -15 11 -15 23s1 14 13 34c66 111 85 168 129 249c11 20 12 22 28 22c6 0 18 0 27 -9c14 -14 25 -13 25 -40v-11c0 -20 -13 -26 -20 -38c-46 -80 -75 -140 -125 -223c-6 -10 -9 -14 -28 -14c-15 0 -28 6 -34 7zM253 368c5 -5 6 -7 6 -14
c0 -18 -5 -38 -14 -54c-6 -11 -11 -12 -21 -12c-5 0 -26 -1 -40 -1c-36 0 -41 20 -41 29c0 10 7 45 21 68c16 26 19 26 35 26c25 0 33 -9 38 -19c7 -13 14 -21 16 -23z" />
    <glyph glyph-name="less" unicode="&#x3c;" horiz-adv-x="480" 
d="M458 396c-3 0 -9 -3 -42 -26c-10 -7 -20 -6 -43 -21c-34 -22 -107 -72 -128 -87c-36 -25 -37 -27 -37 -30s2 -5 10 -11c31 -24 58 -51 86 -70c47 -32 56 -36 64 -36c11 0 16 -2 19 -7c3 -6 6 -12 6 -17c0 -13 -14 -25 -22 -36c-9 -12 -16 -16 -36 -16c-22 0 -31 6 -72 35
c-38 27 -62 49 -143 116c-12 10 -13 13 -13 26c0 9 3 17 7 27c2 5 9 10 13 23c3 11 10 16 63 52c14 9 103 69 126 86c68 50 76 53 88 57c7 3 7 6 15 9c2 0 3 1 15 1c22 0 29 -15 29 -28c0 -11 5 -19 5 -25c0 -4 -5 -22 -10 -22z" />
    <glyph glyph-name="equal" unicode="=" horiz-adv-x="480" 
d="M352 373c33 4 85 10 98 10c26 0 29 -2 34 -10c3 -5 3 -12 3 -17c0 -9 -5 -28 -11 -40c-4 -8 -8 -9 -20 -9c-15 0 -27 -1 -44 -3l-127 -14c-7 -1 -15 -1 -33 -1c-46 0 -111 9 -118 11c-8 2 -12 17 -12 42c0 19 3 22 10 29s9 7 20 7c6 0 14 0 20 -2c24 -8 52 -10 76 -10
c21 0 52 1 104 7zM417 178c-5 0 -11 -1 -29 -4c-48 -8 -94 -11 -137 -11h-21c-47 0 -106 3 -110 7c-6 6 -19 25 -19 51c0 13 3 9 6 19c2 7 9 9 23 9c18 0 54 -12 114 -12c18 0 30 2 54 2c17 0 36 1 74 8c26 5 35 6 56 6c18 0 23 0 30 -8c4 -5 8 -12 8 -16
c0 -5 -7 -30 -12 -44c-3 -9 -7 -9 -16 -9c-10 0 -17 2 -21 2z" />
    <glyph glyph-name="greater" unicode="&#x3e;" horiz-adv-x="480" 
d="M349 296c-46 35 -83 65 -99 75c-28 17 -30 27 -50 37c-8 4 -12 16 -12 27c0 12 1 17 5 25l13 28c4 8 11 9 20 9c6 0 13 0 17 -6c6 -9 9 -11 14 -14c23 -14 16 -16 37 -32c22 -17 75 -59 157 -126c11 -9 12 -14 12 -24c0 -9 -3 -23 -7 -29c-11 -16 -13 -16 -15 -20
c-6 -14 -9 -17 -48 -44c-37 -26 -141 -97 -157 -110c-15 -12 -48 -34 -52 -36c-7 -3 -18 -5 -43 -5c-30 0 -34 4 -35 15c-1 13 -7 20 -7 26c0 4 2 11 11 20c4 4 10 7 20 11c5 2 24 13 53 32c35 23 110 72 143 95c36 25 37 26 37 31c0 3 -1 5 -14 15z" />
    <glyph glyph-name="question" unicode="?" horiz-adv-x="296" 
d="M230 269c10 0 10 2 29 2c42 0 46 -17 49 -17c6 0 8 -3 11 -13c3 -9 4 -17 4 -21c0 -6 -7 -12 -16 -14c-5 -1 -11 -7 -31 -7c-61 0 -94 7 -121 22c-13 7 -14 9 -22 29c-4 10 -6 17 -6 23c0 3 -1 7 -1 10c0 5 0 6 12 28c30 56 76 111 113 155c34 40 65 81 65 98
s-17 30 -23 30c-5 0 -8 -1 -12 -4c-19 -14 -25 -31 -25 -40c0 -4 1 -17 1 -22c0 -9 -3 -22 -29 -22c-24 0 -30 8 -39 23c-3 5 -3 13 -3 21c0 41 14 69 22 77c20 20 40 32 77 32c39 0 54 -7 74 -22c14 -10 34 -34 34 -60c0 -15 -1 -37 -8 -55c-10 -27 -33 -53 -90 -118
c-49 -56 -86 -110 -86 -119c0 -10 16 -16 21 -16zM201 66c7 -8 9 -13 9 -17c0 -27 -1 -29 -9 -39c-10 -12 -24 -27 -49 -27c-12 0 -32 5 -36 16c-2 6 -16 19 -16 27c0 2 1 10 7 30c12 40 22 43 43 43c8 0 13 -1 20 -5c10 -6 18 -14 31 -28z" />
    <glyph glyph-name="at" unicode="@" horiz-adv-x="568" 
d="M372 190c-13 -20 -41 -45 -72 -45c-9 0 -13 0 -22 4c-17 8 -22 17 -29 23c-18 15 -26 40 -26 71c0 22 6 49 14 75c14 45 38 95 58 121c36 47 72 76 108 76c34 0 66 -40 70 -51c4 -10 4 -18 4 -22c0 -5 2 -8 10 -14c6 -4 8 -9 8 -15c0 -8 -1 -14 -6 -26
c-43 -103 -50 -125 -50 -157c0 -9 5 -17 10 -17c3 0 8 1 25 23c48 63 70 155 70 215c0 126 -74 150 -122 150c-25 0 -111 -19 -187 -159c-56 -103 -71 -207 -71 -247c0 -90 46 -150 110 -150c25 0 69 10 117 50c13 11 16 12 29 12c21 0 40 -10 45 -32c2 -9 8 -1 8 -28
c0 -13 -19 -11 -33 -22c-58 -45 -106 -57 -162 -57c-46 0 -96 22 -119 47c-50 55 -70 108 -70 182c0 27 3 77 14 125c14 59 34 112 76 185c72 126 164 164 228 164c80 0 120 -20 163 -78c26 -35 49 -77 49 -159c0 -83 -26 -163 -78 -240c-29 -43 -55 -53 -88 -53
c-24 0 -38 6 -56 21c-13 11 -16 19 -18 28c-1 4 -2 4 -3 4s-2 -1 -4 -4zM295 219c2 0 3 0 13 11c55 60 88 118 88 125c0 2 -4 7 -4 12c0 8 3 15 9 22c19 23 26 41 26 48c0 6 -6 16 -11 16c-4 0 -7 -1 -16 -9c-31 -28 -72 -97 -80 -122c-10 -31 -18 -37 -23 -57
c-1 -4 -4 -28 -4 -34c0 -7 0 -12 2 -12z" />
    <glyph glyph-name="A" unicode="A" horiz-adv-x="416" 
d="M389 296c2 0 15 2 34 2c32 0 49 -7 56 -19c3 -5 4 -7 4 -8c0 -3 0 -9 -4 -16c-10 -18 -26 -24 -66 -26c-16 -1 -27 -7 -30 -10c-7 -6 -8 -8 -10 -27l-11 -92c-1 -7 -2 -36 -4 -63c-1 -18 -1 -25 -1 -35c0 -53 9 -69 9 -74c0 -8 -3 -11 -17 -25c-4 -4 -8 -4 -17 -4
c-23 0 -39 6 -48 19c-7 10 -9 37 -9 71c0 33 2 59 10 136c4 38 4 42 4 46c0 2 -1 3 -2 3c-2 0 -3 0 -20 -7c-46 -19 -104 -40 -129 -45c-10 -2 -11 -3 -16 -15c-15 -35 -19 -69 -19 -106c0 -12 1 -15 1 -19c0 -3 -1 -4 -5 -7c-9 -7 -18 -23 -40 -23c-3 0 -13 1 -23 10
c-13 11 -18 20 -18 44c0 59 17 105 17 111c0 3 -1 5 -4 7c-17 12 -24 17 -24 30s11 48 15 54c2 4 7 6 17 6c23 0 24 -10 30 -10c2 0 3 1 6 7c72 144 149 285 249 449c14 23 16 26 20 26c6 0 16 2 25 6s18 6 34 6c18 0 33 -6 34 -10c1 -5 5 -11 5 -15c0 -7 -8 -47 -14 -73
c-6 -24 -5 -41 -8 -55c-16 -76 -34 -241 -34 -244c0 -4 1 -5 3 -5zM167 207c3 0 41 12 69 25l55 25c4 2 5 4 6 10c30 182 36 238 36 247c0 5 -1 8 -3 8s-5 -5 -25 -42c-52 -96 -89 -167 -129 -246c-10 -20 -12 -24 -12 -25s1 -2 3 -2z" />
    <glyph glyph-name="B" unicode="B" horiz-adv-x="464" 
d="M88 180c2 0 3 2 5 10c26 103 48 183 89 299c5 14 6 17 6 19s-1 4 -2 6c-4 8 -4 13 -4 30c0 8 1 12 5 13c3 1 7 3 13 8c11 9 22 26 34 64c7 23 15 38 21 45c8 9 11 9 24 9c27 0 39 -24 51 -24c5 0 14 6 20 9c17 8 35 12 58 12c38 0 65 -13 83 -33c9 -10 14 -24 14 -37
c0 -11 -8 -53 -80 -147c-22 -29 -48 -70 -48 -72s0 -3 6 -6c5 -3 18 -3 27 -4c8 -1 14 -2 20 -5c45 -23 60 -73 60 -90c0 -36 -14 -80 -17 -89c-17 -51 -49 -100 -79 -153c-30 -52 -78 -77 -143 -77c-34 0 -73 7 -89 19c-8 6 -24 11 -37 27c-3 -1 -6 -1 -7 -1
c-9 0 -10 0 -20 5c-4 2 -6 4 -11 9l-21 23c-4 5 -4 8 -4 12c0 19 -29 46 -29 57c0 24 -10 18 -10 46c0 13 10 17 49 17c8 0 14 -1 16 -1zM393 318c-7 11 -20 11 -24 11c-9 0 -32 -8 -52 -21c-20 -11 -37 -26 -46 -33c-33 -26 -45 -29 -70 -33c-5 -1 -7 -4 -8 -10
c-7 -30 -33 -120 -33 -139c0 -25 56 -77 97 -77c34 0 69 65 114 165c27 60 28 107 28 114c0 10 -2 17 -6 23zM220 331c1 0 12 8 24 24c5 7 24 37 31 46c27 34 59 69 87 112c20 31 49 86 49 101c0 2 0 3 -2 3c-1 0 -16 -1 -38 -10c-23 -9 -43 -23 -65 -41
c-6 -5 -11 -10 -12 -14c-4 -15 -14 -36 -17 -45c-9 -26 -30 -82 -45 -126c-12 -34 -14 -46 -14 -48s1 -2 2 -2z" />
    <glyph glyph-name="C" unicode="C" horiz-adv-x="386" 
d="M408 605c-3 0 -11 -4 -26 -13c-11 -7 -20 -13 -31 -25c-34 -35 -56 -67 -100 -135c-49 -76 -89 -176 -120 -269c-3 -9 -6 -49 -6 -59c0 -18 3 -27 8 -34l15 -20c4 -6 8 -9 12 -9c12 0 35 13 57 30c31 24 66 59 98 96c11 13 12 14 17 17c4 3 16 3 25 3h10c6 0 19 -1 23 -4
s8 -9 11 -16s4 -11 4 -15c0 -6 -5 -7 -12 -15c-32 -36 -62 -76 -97 -107c-34 -30 -68 -53 -121 -53c-28 0 -54 6 -69 15c-25 15 -60 52 -60 77v32c0 8 0 13 1 29c2 38 13 89 17 100c59 162 144 336 273 426c10 7 48 18 74 18c31 0 49 -11 52 -18c6 -15 35 -38 35 -68
c0 -7 0 -12 -9 -34c-14 -35 -30 -70 -35 -88c-3 -10 -10 -18 -33 -18c-13 0 -24 1 -32 4c-6 2 -23 14 -23 30c0 10 4 23 9 32c8 15 20 28 24 48c2 10 12 17 12 34c0 4 0 9 -3 9z" />
    <glyph glyph-name="D" unicode="D" horiz-adv-x="451" 
d="M78 124c26 95 59 191 95 284c12 31 13 33 13 36c0 1 -1 2 -2 2s-3 -1 -6 -3s-11 -5 -21 -5c-7 0 -23 1 -23 23c0 3 0 8 2 23c4 27 16 38 62 76s113 75 181 75c33 0 67 -6 84 -23c19 -19 42 -33 58 -66c11 -22 13 -36 13 -58c0 -50 -13 -82 -30 -118
c-7 -15 -6 -20 -16 -42c-58 -127 -122 -253 -212 -320c-20 -15 -44 -28 -50 -30c-12 -4 -23 -5 -35 -5c-30 0 -49 9 -53 9c-2 0 0 -5 -25 -5c-28 0 -46 21 -53 38c-37 20 -62 37 -62 71c0 7 1 17 17 17c27 0 27 -3 38 -3c15 0 13 -2 16 -2c2 0 3 3 9 26zM401 575
c-18 0 -53 -18 -73 -26c-5 -2 -5 -3 -5 -10s-4 -14 -6 -16c-4 -4 -8 -8 -13 -20c-57 -136 -117 -265 -150 -407c-3 -13 -9 -42 -9 -46s0 -5 4 -7c3 -2 9 -3 16 -3c20 0 49 16 72 42c83 94 140 205 188 325c4 10 23 61 23 84c0 12 0 37 -5 48c-12 26 -34 36 -42 36z" />
    <glyph glyph-name="E" unicode="E" horiz-adv-x="414" 
d="M175 490c-13 0 -16 0 -23 4c-11 6 -18 37 -18 50c0 3 1 5 6 7l15 5c47 16 91 37 133 56c33 15 139 52 229 52c24 0 30 -4 39 -11c14 -11 31 -28 31 -46c0 -13 -3 -19 -14 -19c-10 0 -7 -6 -25 -6c-25 0 -17 10 -39 10c-28 0 -94 -8 -181 -44c-12 -5 -14 -6 -18 -17
c-11 -30 -27 -70 -41 -106c-8 -21 -10 -25 -10 -27c0 -1 0 -2 2 -2c1 0 3 1 13 6c6 3 28 12 43 17c18 6 36 9 55 9c30 0 47 -7 66 -21c7 -5 9 -14 9 -24c0 -14 -5 -18 -27 -25c-3 -1 -9 -2 -25 -2c-20 0 -15 2 -27 2c-11 0 -28 -4 -68 -21c-54 -23 -59 -25 -73 -30
c-6 -2 -7 -3 -12 -14c-41 -89 -75 -179 -75 -220c0 -16 8 -28 13 -28c15 0 41 9 56 17c40 21 49 23 56 27c21 12 45 31 65 45c22 15 43 28 78 28c10 0 11 0 16 -6c10 -12 21 -19 21 -29c0 -6 -2 -10 -6 -12s-14 -8 -19 -14c-6 -7 -14 -14 -27 -23c-16 -11 -86 -54 -115 -66
c-44 -18 -95 -32 -153 -32c-14 0 -16 0 -35 11c-12 7 -26 17 -32 30c-3 6 -4 19 -4 31c0 4 0 7 1 20c6 83 40 153 65 225c-4 7 -8 15 -8 32c0 4 0 8 3 13c2 4 6 5 23 11c9 3 11 5 14 14c5 14 33 76 43 108c4 13 4 14 4 15c0 2 -1 2 -2 2c-2 0 -4 -2 -22 -2z" />
    <glyph glyph-name="F" unicode="F" horiz-adv-x="365" 
d="M261 347c35 9 70 17 111 26c13 3 16 3 23 3c11 0 12 0 25 -8c23 -14 27 -17 27 -35c0 -6 -2 -12 -10 -14c-70 -17 -141 -33 -206 -52c-10 -3 -12 -4 -17 -15c-18 -39 -25 -88 -41 -128c-4 -10 -6 -12 -8 -20c-3 -10 -12 -50 -12 -76c0 -5 1 -14 1 -18s0 -17 -21 -17
c-31 0 -46 8 -59 18c-5 4 -6 6 -6 13s3 30 6 45c9 51 25 97 39 142c4 13 4 17 4 20c0 2 -1 7 -9 7c-18 0 -27 13 -27 30c0 3 -4 11 -4 17c0 3 1 4 6 6c31 13 33 10 53 17c5 2 7 5 9 10c22 54 44 109 64 163c3 8 5 13 5 14s0 2 -2 2c-1 0 -3 -1 -10 -5
c-12 -7 -18 -12 -42 -23c-4 -2 -7 -3 -18 -3c-12 0 -18 1 -27 14c-6 9 -8 17 -8 20c0 13 9 23 13 33l3 6c1 1 3 2 5 2c6 1 24 7 39 13c30 12 57 25 87 39c21 10 28 13 32 14c12 3 41 14 88 27c44 12 66 17 104 17c33 0 60 -2 78 -37c2 -4 2 -6 2 -16c0 -13 0 -18 -4 -20
c-22 -11 -25 -12 -44 -12c-12 0 -14 1 -17 7c-4 7 -8 14 -20 14c-10 0 -33 -9 -46 -11c-16 -2 -33 -7 -48 -12c-16 -5 -32 -11 -48 -15c-8 -2 -9 -13 -9 -16c0 -6 -1 -12 -3 -16c-26 -53 -48 -95 -65 -145c-7 -21 -8 -24 -8 -26c0 -1 0 -2 2 -2c1 0 5 1 13 3z" />
    <glyph glyph-name="G" unicode="G" horiz-adv-x="485" 
d="M402 255c2 4 2 5 2 6c0 2 -1 3 -3 3c-1 0 -2 0 -10 -3c-16 -6 -42 -18 -55 -18c-25 0 -34 3 -40 9c-14 14 -18 19 -18 31c0 13 2 26 19 28l28 4c8 2 15 4 58 20c24 9 35 11 60 11c8 0 16 -2 32 -21c7 -8 17 -28 17 -35c0 -3 -2 -17 -16 -48c-52 -115 -68 -222 -72 -261
c-1 -11 -4 -14 -20 -23c-9 -5 -14 -6 -24 -6c-16 0 -15 8 -28 8c-4 0 -13 0 -13 9c0 10 5 40 13 74c5 22 5 24 5 26c0 1 -1 2 -2 2s-2 -1 -13 -13c-25 -27 -36 -38 -57 -55c-31 -25 -86 -42 -112 -42c-40 0 -63 16 -79 39c-22 31 -30 54 -30 76c0 65 34 252 181 435
c45 56 131 136 185 150c8 2 18 3 36 3c36 0 84 -26 93 -37c11 -13 19 -31 19 -49c0 -46 -22 -102 -25 -113c-5 -16 -25 -42 -47 -42c-17 0 -20 9 -24 10c-13 3 -19 9 -21 14c-3 7 -7 13 -7 17c0 17 16 23 22 43c4 14 9 20 13 26c5 7 10 26 10 42s-9 25 -14 25
c-7 0 -42 -3 -85 -46c-16 -16 -41 -44 -54 -60l-23 -25c-77 -87 -138 -213 -167 -325c-6 -23 -9 -49 -9 -66c0 -29 7 -28 9 -40c1 -6 10 -13 18 -13c7 0 41 10 90 60c84 85 109 103 123 120c13 15 31 42 35 50z" />
    <glyph glyph-name="H" unicode="H" horiz-adv-x="458" 
d="M451 364c1 0 4 1 12 4c32 12 37 13 46 13c30 0 31 -9 41 -10c14 -1 23 -21 24 -25c1 -5 5 -6 5 -23c0 -15 -2 -16 -14 -16c-21 0 -54 -6 -67 -9c-25 -6 -54 -15 -68 -18c-9 -2 -11 -4 -14 -9c-18 -31 -26 -70 -38 -107c-22 -67 -32 -137 -43 -202c-1 -6 -6 -15 -27 -15
c-14 0 -20 1 -40 9c-10 4 -14 34 -14 39c0 9 1 26 5 39c18 57 32 130 50 184c2 6 6 20 6 25c0 2 -1 5 -3 5c-1 0 -3 0 -12 -2c-26 -6 -80 -18 -92 -22c-10 -3 -11 -5 -18 -23c-16 -40 -26 -103 -32 -115c-2 -4 -6 -16 -6 -38c0 -11 2 -24 2 -31s-1 -17 -6 -24
c-4 -6 -11 -6 -21 -6c-20 0 -24 2 -29 7c-6 6 -18 10 -22 16c-3 4 -5 8 -9 10c-6 3 -6 4 -6 10c0 4 3 27 6 37l4 17c4 25 21 91 21 99c0 4 -2 4 -3 4s-18 -3 -32 -3c-29 0 -46 5 -57 24c-4 7 -5 39 -5 44c0 8 3 15 22 15c16 0 27 -8 36 -8s48 9 62 13c4 1 5 3 8 10
c16 37 25 80 40 117c36 89 81 197 119 269c10 19 12 19 35 19c16 0 20 -9 36 -15c10 -4 14 -12 14 -19s-1 -11 -6 -19c-56 -90 -77 -182 -132 -300c-8 -17 -8 -24 -8 -26c0 -1 0 -4 3 -4c1 0 2 0 14 3c21 5 58 14 90 25c12 4 14 5 18 14c31 70 52 135 76 209l8 26
c2 6 6 8 9 12c6 8 11 10 27 10c15 0 20 -3 28 -3c11 0 16 -1 22 -7c4 -4 6 -10 6 -17c0 -11 -5 -32 -11 -49c-19 -53 -42 -98 -60 -147c-3 -8 -4 -11 -4 -13s2 -3 4 -3z" />
    <glyph glyph-name="I" unicode="I" horiz-adv-x="211" 
d="M99 -26c-12 0 -11 -19 -27 -19c-11 0 -8 8 -20 10c-15 3 -18 14 -24 16c-4 1 -5 3 -5 5c0 6 12 59 21 76c3 6 5 12 8 23c43 158 93 289 143 441c9 29 17 30 38 99c3 10 13 13 42 13c26 0 51 -15 51 -29c0 -25 -6 -47 -29 -70c-2 -2 -4 -6 -11 -24
c-54 -140 -101 -287 -151 -437c-7 -21 -7 -24 -7 -25v-10c0 -22 -7 -34 -16 -60c-2 -6 -3 -9 -13 -9z" />
    <glyph glyph-name="J" unicode="J" horiz-adv-x="328" 
d="M79 236c22 -4 28 -15 28 -35c0 -14 -9 -18 -18 -49c-5 -17 -8 -18 -11 -26c-2 -6 -5 -42 -5 -53c0 -24 0 -33 4 -52s11 -29 16 -29c7 0 24 7 51 55c21 37 41 87 58 136c70 203 92 259 146 383c7 16 11 24 11 26s-1 2 -2 2s-2 0 -14 -4l-52 -17c-8 -3 -10 -4 -17 -9
c-12 -9 -30 -13 -54 -13c-6 0 -29 1 -36 3c-8 2 -11 7 -12 14c-1 11 -7 8 -7 20c0 7 8 34 8 40c0 4 3 7 8 7c17 0 39 2 112 22c55 15 91 23 127 23c13 0 15 -1 32 -15c13 -11 20 -18 20 -30c0 -36 -22 -43 -40 -83c-59 -131 -114 -267 -160 -411c-16 -50 -47 -117 -54 -129
c-30 -52 -71 -98 -115 -98c-16 0 -19 1 -35 12c-6 4 -18 12 -26 15c-32 13 -48 68 -48 133c0 17 5 79 14 111c3 10 11 28 16 38c9 17 11 17 25 17c13 0 18 -2 30 -4z" />
    <glyph glyph-name="K" unicode="K" horiz-adv-x="434" 
d="M250 389c0 -2 1 -2 3 -2c1 0 6 3 10 4s10 3 15 6c109 66 199 144 265 235c8 11 9 12 21 12c24 0 36 -8 47 -19c3 -3 9 -4 11 -7c3 -5 4 -7 4 -11s-2 -7 -14 -23c-60 -81 -127 -142 -195 -190c-41 -29 -81 -52 -124 -79c-11 -7 -13 -13 -13 -17c0 -9 1 -15 5 -28
c7 -22 6 -30 11 -47c17 -57 68 -158 116 -225c10 -14 14 -18 22 -23c20 -12 31 -27 31 -42c0 -8 -8 -18 -15 -19c-9 -1 -9 -8 -29 -8c-46 0 -72 30 -95 67c-17 27 -42 62 -49 75c-34 63 -59 138 -71 189c-3 13 -6 26 -8 26s-5 -7 -15 -31c-30 -71 -56 -145 -72 -219
c-2 -9 -3 -10 -12 -19c-10 -9 -16 -10 -27 -10c-18 0 -18 16 -26 19c-13 5 -23 10 -23 22c0 5 0 11 6 30c64 203 163 429 224 552c5 10 7 14 13 18c9 6 10 17 22 23c4 2 10 3 17 3c23 0 19 -8 25 -12s19 -7 23 -12c4 -6 4 -14 4 -20c0 -3 -1 -5 -16 -30
c-28 -47 -58 -107 -85 -171c-5 -12 -6 -15 -6 -17z" />
    <glyph glyph-name="L" unicode="L" horiz-adv-x="368" 
d="M147 49c3 0 10 1 23 5c50 15 107 41 165 69c4 2 6 2 22 2c10 0 22 -3 28 -7c7 -5 12 -9 19 -16c5 -5 7 -11 7 -15s4 -6 4 -18c0 -14 -6 -19 -23 -22c-5 -1 -9 -1 -16 -1c-4 0 -8 0 -14 -2c-48 -16 -80 -31 -119 -47c-36 -15 -76 -30 -129 -30c-25 0 -32 7 -46 22
c-10 11 -16 22 -22 34c-3 6 -4 10 -4 14c0 14 9 34 18 59c6 16 1 17 13 52c58 170 137 333 208 494c7 16 9 20 36 20c19 0 20 -12 30 -14s23 -12 23 -21c0 -20 -16 -41 -16 -50c0 -3 -2 -7 -5 -10c-19 -19 -33 -47 -46 -84c-5 -14 -12 -25 -25 -55
c-44 -101 -87 -213 -124 -316c-9 -25 -14 -40 -14 -52c0 -5 1 -11 7 -11z" />
    <glyph glyph-name="M" unicode="M" horiz-adv-x="531" 
d="M616 599c9 -3 12 -3 15 -10c7 -15 8 -21 8 -31c0 -2 -2 -6 -8 -16c-93 -156 -149 -330 -189 -608c-3 -21 -4 -23 -14 -23c-12 0 -9 6 -20 6c-4 0 -6 -2 -9 -2c-12 0 -21 2 -38 19c-6 6 -6 7 -6 13c0 7 42 211 49 241c14 62 43 143 43 147c0 2 -1 3 -2 3
c-2 0 -5 -3 -23 -26c-35 -45 -67 -83 -75 -96c-9 -15 -14 -15 -22 -15c-9 0 -9 2 -38 8c-21 4 -29 12 -35 24c-6 11 -11 47 -11 79c0 16 5 72 5 79c0 2 -1 3 -2 3c-3 0 -7 -12 -13 -26c-32 -75 -43 -112 -53 -139c-53 -144 -66 -224 -66 -235c0 -4 -5 -15 -18 -17
c-16 -3 -9 -10 -24 -10c-19 0 -25 15 -35 16c-14 1 -15 34 -15 37c0 35 25 62 36 102c54 196 157 376 222 546c8 21 9 21 19 21c12 0 21 -6 28 -7c13 -1 41 -6 41 -27c0 -9 -20 -71 -27 -102c-3 -13 -11 -52 -15 -104c-1 -13 0 -20 -4 -78c-1 -14 -2 -43 -2 -46s1 -4 2 -4
s3 2 7 7c59 74 174 178 235 270c4 6 6 9 18 9c31 0 29 -6 36 -8z" />
    <glyph glyph-name="N" unicode="N" horiz-adv-x="486" 
d="M560 640c10 0 15 -5 21 -14c8 -11 10 -17 10 -20c0 -6 -2 -19 -10 -34l-16 -43c-48 -136 -90 -295 -169 -499c-7 -18 -8 -21 -19 -32c-20 -20 -25 -21 -43 -21c-9 0 -18 0 -36 11c-26 16 -34 36 -38 60c-13 80 -18 195 -21 283c-3 84 -3 85 -6 85c-4 0 -6 -10 -18 -47
c-55 -169 -79 -270 -90 -342c-4 -26 -5 -34 -5 -36c0 -5 -6 -18 -39 -18c-35 0 -30 7 -39 12c-6 3 -10 7 -10 15c0 35 103 360 110 384l16 54l41 153c4 15 17 9 17 17c0 18 -7 25 -7 50c0 13 0 14 7 18c8 5 25 11 57 11c11 0 15 -1 18 -15c36 -171 19 -365 38 -542
c3 -28 4 -28 6 -28s3 1 13 26c40 101 77 225 111 334c9 29 13 36 18 55c9 34 10 73 20 107c7 23 8 23 26 23s28 -7 37 -7z" />
    <glyph glyph-name="O" unicode="O" horiz-adv-x="400" 
d="M402 600c38 -47 45 -101 45 -152c0 -38 -3 -56 -13 -94c-31 -118 -70 -234 -128 -316c-29 -41 -70 -62 -123 -62c-27 0 -38 3 -55 10c-15 6 -32 26 -42 47c-12 26 -19 49 -19 80c0 54 4 197 119 382c38 61 65 97 104 124c13 9 17 12 29 12c25 0 45 -21 57 -21
c14 0 18 0 26 -10zM326 546c-4 0 -29 -28 -53 -62c-42 -60 -79 -130 -101 -204c-6 -20 -12 -41 -14 -60c-2 -17 -10 -53 -10 -80c0 -32 5 -57 15 -78c5 -11 14 -17 24 -17c13 0 40 17 50 35c47 84 74 148 100 242c16 57 25 107 25 152c0 29 -8 53 -29 64c-2 1 -4 4 -4 5
c0 2 -1 3 -3 3z" />
    <glyph glyph-name="P" unicode="P" horiz-adv-x="400" 
d="M147 351c3 1 4 2 6 9c5 19 22 58 31 95c0 3 -1 5 -3 5c-3 0 -7 1 -11 5c-13 13 -13 19 -17 25c-3 4 -4 8 -4 11c0 14 7 22 31 41c41 32 83 64 127 89c43 24 87 41 146 41c30 0 46 -1 62 -21c19 -23 23 -29 23 -65c0 -20 -5 -44 -10 -61c-7 -23 -13 -36 -37 -84
c-38 -77 -96 -151 -153 -202c-9 -8 -17 -12 -31 -19c-17 -8 -43 -11 -59 -11c-21 0 -31 2 -42 13c-6 6 -7 6 -9 6s-3 -2 -7 -14c-30 -89 -61 -218 -61 -226c0 -5 -2 -7 -6 -11c-7 -7 -14 -9 -28 -9c-9 0 -15 0 -18 4c-6 7 -10 10 -14 12c-11 5 -15 13 -15 18c0 2 1 8 4 19
c8 31 23 97 35 129c4 11 5 15 6 21c4 24 24 74 35 106c5 14 5 17 5 20c0 1 -1 4 -3 6c-7 7 -14 14 -14 26s4 8 7 11c11 10 15 8 24 11zM446 596c-1 0 -3 0 -9 -2c-47 -16 -97 -22 -137 -67c-25 -73 -58 -147 -75 -218c10 -12 19 -22 26 -27c4 -3 7 -5 9 -5c6 0 10 1 36 26
c44 42 86 99 111 151s47 108 47 137c0 3 -3 5 -8 5z" />
    <glyph glyph-name="Q" unicode="Q" horiz-adv-x="451" 
d="M306 41c-34 -34 -81 -59 -114 -59c-26 0 -31 0 -45 4c-15 4 -37 30 -49 38c-9 6 -34 21 -34 126c0 58 17 128 24 148s9 29 16 44c36 75 78 148 135 205c14 14 17 14 34 28c40 33 99 49 125 49c22 0 26 -2 39 -11c14 -10 38 -13 59 -37c14 -16 21 -39 21 -86
c0 -46 -1 -70 -18 -118c-32 -91 -81 -173 -115 -224c-3 -5 -5 -9 -5 -14c26 -77 74 -168 110 -204c11 -11 12 -12 12 -15s-1 -19 -35 -19c-36 0 -45 4 -61 22c-39 43 -73 105 -81 122c-3 6 -5 10 -7 10s-3 -1 -11 -9zM341 235c2 0 4 3 13 18c37 61 75 145 82 223
c1 11 1 20 1 29c0 38 -7 55 -15 55c-8 -1 -31 -6 -50 -17c-65 -38 -114 -102 -154 -168c-23 -38 -70 -122 -70 -229c0 -44 6 -96 26 -96c10 0 49 21 102 84c5 6 5 9 5 11c0 3 -1 6 -4 15c-40 119 -43 129 -43 154c0 10 3 18 31 18c32 0 27 -10 43 -11c13 -1 16 -4 18 -19
c4 -33 11 -67 15 -67z" />
    <glyph glyph-name="R" unicode="R" horiz-adv-x="403" 
d="M174 216c-23 -80 -42 -187 -42 -200c0 -11 -11 -20 -42 -20c-20 0 -21 8 -27 11c-10 5 -17 13 -17 21c0 1 1 7 3 17c24 127 63 252 105 377c4 12 9 19 14 27c6 10 13 35 19 51c2 5 2 6 2 7c0 2 -1 3 -3 4c-5 3 -8 6 -14 18c-5 10 -11 21 -11 25s1 10 7 15
c34 28 104 70 180 70c51 0 84 -13 93 -25c6 -8 19 -14 27 -38c3 -9 7 -27 7 -51c0 -68 -30 -139 -74 -192c-31 -37 -65 -52 -134 -78c-8 -3 -9 -4 -9 -7s0 -6 7 -24c8 -20 17 -41 31 -70c9 -19 9 -22 16 -34c16 -27 34 -52 40 -59c25 -30 45 -38 56 -40s21 -32 21 -55
c0 -10 -11 -15 -33 -15c-29 0 -48 12 -74 33c-71 57 -105 150 -131 226c-7 20 -8 23 -10 23s-3 -3 -7 -17zM364 580c-6 0 -18 -2 -38 -10c-12 -5 -14 -6 -20 -17c-26 -47 -58 -121 -87 -209c-2 -6 -3 -10 -3 -12s0 -3 2 -5s7 -5 12 -5c10 0 15 6 30 9c10 2 12 3 27 14
c99 72 107 185 107 202c0 9 -3 15 -5 19c-5 8 -20 14 -25 14z" />
    <glyph glyph-name="S" unicode="S" horiz-adv-x="352" 
d="M332 574c-3 5 -7 9 -10 9c-4 0 -7 -5 -12 -17c-7 -18 -11 -46 -11 -82c0 -17 1 -54 4 -75c9 -63 34 -201 38 -279c2 -32 2 -45 2 -58c0 -56 -35 -88 -56 -98c-6 -3 -17 -3 -40 -3c-81 0 -146 53 -190 132c-5 9 -38 40 -38 108c0 28 1 29 13 44c3 4 5 4 15 4
c21 0 38 -5 48 -14c14 -13 25 -30 25 -36c0 -17 -8 -17 -8 -39c0 -3 0 -8 3 -16c15 -40 54 -86 93 -108c16 -9 19 -9 24 -9c7 0 20 16 22 36c1 13 2 24 2 35c0 36 -1 53 -3 76c-9 96 -29 178 -37 279c-3 37 -3 45 -3 69c0 28 13 76 18 88c8 18 18 33 49 33
c53 0 93 -10 125 -57c16 -24 18 -56 22 -83c3 -23 3 -28 3 -34c0 -10 -22 -12 -26 -12c-20 0 -39 10 -54 39c-9 17 -1 40 -18 68z" />
    <glyph glyph-name="T" unicode="T" horiz-adv-x="318" 
d="M447 562c-35 0 -74 -6 -108 -14c4 -4 5 -9 5 -11c0 -1 0 -3 -7 -16c-73 -136 -130 -279 -166 -446c-5 -23 -7 -38 -7 -51c0 -12 -2 -25 -5 -29c-6 -8 -12 -11 -27 -11c-12 0 -14 0 -28 7c-6 3 -18 10 -20 12c-3 3 -8 17 -8 25c0 5 4 33 9 52c37 140 86 294 150 435
c4 9 5 11 5 12c0 2 -1 2 -2 2s-24 -4 -52 -4c-36 0 -54 11 -54 19c0 2 0 7 2 27c1 9 5 20 9 25c6 8 7 9 20 9c11 0 19 -7 60 -7c23 0 74 7 112 16c52 12 82 16 121 16c44 0 81 -38 81 -49c0 -20 -8 -30 -13 -32c-8 -3 -9 -10 -33 -10c-16 0 -15 9 -24 13s-12 10 -20 10z" />
    <glyph glyph-name="U" unicode="U" horiz-adv-x="488" 
d="M365 217c-57 -75 -118 -155 -174 -211c-7 -7 -10 -9 -17 -12c-9 -4 -18 -6 -29 -6c-7 0 -29 0 -40 16c-5 7 -14 13 -22 15c-9 3 -20 4 -20 25c0 25 0 42 1 56c4 61 19 120 31 157c38 116 87 229 129 344c4 11 7 17 10 23c13 26 19 27 34 27c11 0 21 -11 31 -14
c6 -2 16 -7 17 -13c2 -14 2 -19 2 -22c0 -2 -4 -16 -9 -29c-58 -151 -130 -284 -157 -428c-4 -21 -8 -50 -8 -55c0 -8 1 -9 3 -9s4 0 19 17c156 178 253 334 300 416c11 19 17 36 22 46c5 9 11 16 21 26c3 3 4 3 13 3c6 0 21 -3 27 -3c10 0 11 -1 15 -10l10 -22
c3 -6 4 -11 4 -13s-3 -10 -8 -24c-16 -44 -38 -70 -57 -122c-48 -131 -76 -258 -84 -395c-1 -17 -2 -29 -2 -30c0 -5 -1 -12 -20 -12c-13 0 -21 6 -26 8c-8 3 -17 10 -27 20c-4 4 -12 3 -12 18c0 6 2 14 3 19s4 5 6 18c11 69 17 129 27 171c3 13 3 16 3 18s-1 3 -2 3
c-2 0 -5 -4 -14 -16z" />
    <glyph glyph-name="V" unicode="V" horiz-adv-x="384" 
d="M166 -15c-5 0 -7 -4 -17 -4s-14 0 -27 10c-25 19 -25 28 -25 37c0 10 -8 19 -8 35c0 11 3 12 3 20c0 5 1 14 4 33c24 153 65 319 79 445c1 9 2 16 4 22c2 7 5 23 5 38c0 7 2 22 28 22c12 0 22 -3 25 -3c19 0 26 -6 28 -14s4 -16 4 -27c0 -4 0 -6 -3 -23
c-25 -144 -59 -291 -82 -438c-2 -13 -2 -20 -2 -23s0 -6 2 -6c3 0 6 2 14 13c13 17 26 36 53 89l128 251c24 47 40 85 40 131v14c0 6 5 16 27 16c9 0 15 -2 22 -2c9 0 14 -1 15 -5c1 -3 3 -5 7 -10c15 -18 15 -22 15 -27c0 -26 -22 -104 -45 -144
c-82 -143 -154 -332 -243 -434c-13 -15 -18 -20 -30 -20c-13 0 -9 4 -21 4z" />
    <glyph glyph-name="W" unicode="W" horiz-adv-x="555" 
d="M396 108c60 104 102 232 133 355c5 20 6 29 7 43c1 16 6 54 6 59c0 34 -11 32 -11 59c0 36 4 41 20 41c17 0 17 -1 25 -1c23 0 34 -2 43 -33c5 -17 5 -33 5 -47c0 -41 -5 -100 -28 -190c-35 -138 -86 -273 -162 -393c-7 -11 -14 -20 -20 -26c-5 -5 -14 -8 -30 -8
s-14 6 -30 7c-12 1 -20 6 -26 14s-23 7 -29 24c-12 35 -12 71 -12 129c0 6 0 7 -2 7c-1 0 -2 -1 -5 -6s-10 -14 -21 -26c-21 -22 -42 -54 -61 -79c-19 -26 -35 -46 -63 -46c-9 0 -15 2 -19 6l-17 17c-6 6 -10 7 -15 8c-9 2 -12 11 -12 18c0 2 0 19 1 27c4 34 10 59 15 87
c3 16 5 36 9 52c35 140 82 282 121 418c4 14 8 18 33 18c14 0 16 -3 33 -7c4 -1 18 -23 18 -25c0 -4 -1 -7 -3 -12c-58 -145 -104 -315 -138 -463c-3 -13 -3 -16 -3 -17c0 -2 0 -3 2 -3s4 2 23 27c50 66 96 139 123 201c9 21 11 26 15 47c2 10 11 36 17 50c4 9 5 9 14 9
c21 0 21 -4 31 -6c5 -1 9 -4 14 -12c9 -14 11 -25 11 -37c0 -9 -1 -16 -3 -22c-20 -59 -38 -133 -38 -235c0 -49 2 -65 5 -65s6 5 24 36z" />
    <glyph glyph-name="X" unicode="X" horiz-adv-x="394" 
d="M186 188c-39 -47 -78 -99 -101 -154c-8 -19 -14 -36 -15 -44c-1 -6 -1 -8 -13 -13c-10 -4 -9 -14 -25 -14c-25 0 -41 13 -53 28c-1 2 -3 5 -3 10c0 32 24 61 35 87c3 7 5 10 13 24c47 83 109 137 163 204c12 15 13 17 13 22c0 4 -1 21 -2 32c-4 56 -6 101 -6 137
c0 28 1 53 3 83c1 13 7 20 7 27c0 10 -1 16 -1 21c0 8 4 22 35 22c23 0 37 0 40 -10c5 -16 15 -25 15 -37c0 -10 -8 -15 -12 -76c-1 -14 -1 -21 -1 -53c0 -48 2 -71 4 -71c3 0 6 3 12 10c60 67 159 155 211 227c8 11 9 11 22 11c26 0 27 -8 48 -16c8 -3 18 -20 18 -27
c0 -3 -3 -10 -5 -13c-29 -44 -63 -57 -114 -111c-14 -15 -25 -29 -36 -40c-48 -48 -106 -101 -141 -139c-10 -11 -10 -13 -10 -20c0 -6 1 -31 3 -50c7 -71 20 -139 28 -207c3 -22 17 -35 17 -52c0 -24 -10 -29 -33 -29c-12 0 -18 0 -28 4l-23 10c-6 3 -8 9 -10 15
c-20 59 -21 130 -24 194c-2 37 -3 37 -5 37c-3 0 -10 -10 -26 -29z" />
    <glyph glyph-name="Y" unicode="Y" horiz-adv-x="410" 
d="M188 239c3 0 8 0 16 6c40 30 75 62 97 87c18 21 53 70 99 165c41 84 50 102 57 110c6 7 6 10 19 10c20 0 44 -7 54 -22c2 -3 6 -24 6 -30c0 -3 -3 -8 -13 -24c-122 -196 -210 -476 -276 -851c-3 -17 -7 -26 -7 -29c0 -8 0 -10 -13 -10s-15 3 -27 5c-20 3 -36 15 -37 27
c-1 9 -1 14 -1 23c0 27 9 61 20 101c12 44 15 65 19 83c23 104 55 215 88 322c-20 -21 -55 -44 -100 -44c-13 0 -14 0 -29 11c-10 7 -21 17 -31 29c-16 19 -27 41 -27 54c0 10 8 96 10 110s6 17 7 37c1 14 5 19 10 44c15 74 32 144 53 214c3 10 4 10 14 10
c28 0 52 -10 58 -10c3 0 8 -12 8 -22c0 -33 -11 -35 -22 -80c-22 -92 -48 -213 -56 -287c-3 -27 -3 -29 -3 -31c0 -6 1 -8 7 -8z" />
    <glyph glyph-name="Z" unicode="Z" horiz-adv-x="456" 
d="M430 20c-4 0 -1 -4 -15 -11c-67 -33 -145 -58 -219 -58c-66 0 -117 17 -165 55c-5 4 -28 51 -28 70c0 7 2 21 4 26c13 32 66 87 100 118c20 18 21 19 21 23c0 2 -1 4 -7 5c-13 2 -28 9 -32 16c-5 9 -6 14 -6 20c0 10 5 22 5 26c0 7 3 13 7 17c6 6 18 6 22 6
c8 0 16 -1 25 -5c12 -5 35 -13 41 -13c5 0 41 5 52 13c83 60 180 137 232 220c5 8 6 10 6 12c0 24 -69 29 -88 29c-33 0 -82 -12 -104 -57c-1 -2 -5 -7 -27 -7c-12 0 -23 3 -30 7c-21 12 -21 58 -21 60c0 8 0 10 4 13c45 34 102 52 171 52c61 0 111 -14 151 -45
c9 -7 39 -41 39 -57c0 -7 -2 -23 -5 -33c-4 -12 -16 -29 -39 -57c-19 -24 -71 -78 -86 -93c-4 -4 -6 -6 -6 -9c0 -1 0 -3 5 -3c41 0 68 -13 79 -35c2 -4 2 -10 2 -17c0 -8 -2 -14 -7 -19c-2 -2 -6 -2 -14 -2c-17 0 -10 1 -42 1c-24 0 -68 -7 -84 -12c-30 -9 -70 -21 -89 -23
c-59 -59 -141 -103 -178 -183c-6 -13 -6 -15 -6 -18s4 -7 14 -14c14 -10 21 -10 24 -10c19 0 26 -8 42 -8c56 0 170 53 187 62c10 5 19 8 31 8c23 0 34 -6 36 -11c7 -17 22 -36 22 -51c0 -5 -1 -10 -10 -10c-6 0 -10 2 -14 2z" />
    <glyph glyph-name="bracketleft" unicode="[" horiz-adv-x="269" 
d="M403 809h30c54 0 72 -3 72 -15c0 -4 5 -8 5 -15s-1 -13 -5 -22c-9 -20 -13 -27 -29 -27c-26 0 -27 1 -47 1h-9c-37 0 -42 -2 -55 -34c-72 -177 -169 -506 -250 -740c-16 -46 -16 -55 -16 -63c0 -5 3 -14 30 -14c33 0 43 5 67 5c9 0 14 0 21 -12c3 -5 3 -13 3 -15
c0 -34 -20 -46 -24 -52c-2 -3 -11 -5 -33 -5h-34c-39 0 -58 1 -81 4c-24 3 -45 41 -45 68c0 10 0 22 23 91l223 669c48 144 69 160 83 166c18 8 40 10 71 10z" />
    <glyph glyph-name="backslash" unicode="\" horiz-adv-x="307" 
d="M264 -67c-7 0 -12 -11 -30 -11c-22 0 -29 3 -34 21c-6 22 -6 27 -6 31c0 21 2 31 2 47c0 6 0 11 -1 28l-21 439c-1 26 -4 75 -4 82c0 26 1 48 2 61c1 16 4 39 6 43c10 20 12 22 31 22c16 0 16 -2 23 -3c16 -2 28 -9 28 -42c0 -23 -13 -25 -13 -100
c0 -103 26 -417 26 -556c0 -41 0 -62 -9 -62z" />
    <glyph glyph-name="bracketright" unicode="]" horiz-adv-x="269" 
d="M-12 -199h-30c-54 0 -74 4 -74 15c0 10 -4 6 -4 19c0 3 1 7 5 17c3 8 9 18 13 23s12 5 27 5c16 0 17 -1 37 -1h9c37 0 43 5 55 34c74 178 169 507 250 740c14 40 15 57 15 65c0 7 -8 12 -36 12c-34 0 -34 -5 -61 -5c-10 0 -16 2 -20 12c-2 5 -4 13 -4 15
c0 25 10 41 26 52c8 5 25 5 58 5c34 0 55 0 88 -2c20 -1 46 -49 46 -73c0 -7 -5 -34 -23 -88l-223 -669c-50 -149 -66 -156 -84 -166c-16 -9 -39 -10 -70 -10z" />
    <glyph glyph-name="asciicircum" unicode="^" horiz-adv-x="448" 
d="M386 589c-1 3 -2 6 -4 6c-3 0 -4 0 -14 -7c-100 -70 -119 -86 -127 -96c-3 -4 -9 -4 -16 -4c-15 0 -20 3 -30 19c-3 5 -4 7 -4 12c0 23 2 34 8 46c2 4 7 7 44 29l144 85c10 6 16 7 21 7c22 0 26 -10 28 -15s6 -3 11 -18l57 -188c4 -13 5 -20 5 -26c0 -12 -5 -7 -12 -19
c-6 -10 -12 -12 -27 -12c-14 0 -21 5 -27 21z" />
    <glyph glyph-name="underscore" unicode="_" horiz-adv-x="509" 
d="M-100 -96h560v-64h-560v64z" />
    <glyph glyph-name="grave" unicode="`" horiz-adv-x="416" 
d="M327 844c3 0 7 -3 11 -9c4 -5 10 -11 31 -30l77 -69c12 -11 18 -18 18 -24c0 -10 -4 -18 -7 -31c-2 -9 -4 -14 -21 -14c-15 0 -22 2 -31 9l-77 67c-10 8 -34 23 -51 33c-5 3 -7 8 -7 17c0 23 1 28 11 41c5 6 11 13 27 13c14 0 15 -3 19 -3z" />
    <glyph glyph-name="a" unicode="a" horiz-adv-x="382" 
d="M262 130c-3 0 -28 -27 -49 -50c-32 -35 -59 -58 -90 -71c-21 -9 -23 -9 -31 -9c-9 0 -12 0 -24 9c-9 7 -20 18 -36 37c-8 10 -15 23 -15 46c0 24 6 78 58 161c42 67 89 118 125 149c34 30 112 82 160 82c25 0 43 -12 55 -29c4 -6 7 -13 9 -20c2 -6 10 -19 16 -19
c21 0 25 -14 25 -20c0 -4 -1 -7 -3 -10c-39 -59 -86 -135 -108 -212c-10 -35 -18 -74 -18 -100c0 -21 6 -46 10 -56s4 -11 4 -13s-3 -12 -17 -15c-5 -1 -12 -4 -23 -4c-23 0 -40 10 -43 21c-6 21 -8 42 -8 63c0 31 5 54 5 57c0 2 0 3 -2 3zM366 419c-5 0 -10 -1 -30 -14
c-73 -48 -135 -104 -180 -167c-37 -51 -69 -112 -69 -142c0 -17 3 -20 6 -20c4 0 7 1 13 5c9 6 16 12 26 23c80 87 163 149 211 245c8 16 16 27 26 37c2 2 5 8 5 16c0 12 -5 17 -8 17z" />
    <glyph glyph-name="b" unicode="b" horiz-adv-x="317" 
d="M123 74c4 0 12 5 21 18c51 74 69 121 92 201c6 21 7 26 7 32c0 14 -1 43 -10 55c-3 4 -4 7 -4 14c0 12 13 50 39 50c18 0 24 -10 32 -25c15 -28 23 -35 30 -35c4 0 52 6 114 27c21 7 25 8 31 8c14 0 12 -3 18 -3c21 0 23 -18 23 -27c0 -4 -2 -16 -8 -17
c-18 -3 -32 -7 -84 -30c-25 -11 -54 -22 -84 -22c-4 0 -17 1 -19 1c-3 0 -5 -2 -5 -5v-15c0 -16 -3 -19 -8 -43c-9 -42 -28 -72 -42 -107c-9 -23 -16 -36 -26 -51c-36 -54 -45 -59 -50 -65c-17 -20 -36 -35 -69 -35c-16 0 -24 2 -30 5c-8 4 -42 24 -46 52c-1 8 -2 23 -2 35
c0 35 4 68 24 125c7 20 21 63 31 87c64 154 133 279 213 429c15 28 27 43 58 43c5 0 17 0 31 -8c11 -6 13 -14 13 -26c0 -33 -28 -41 -46 -73c-49 -86 -112 -183 -140 -250c-28 -68 -68 -142 -91 -221c-15 -51 -18 -89 -18 -112c0 -9 2 -12 5 -12z" />
    <glyph glyph-name="c" unicode="c" horiz-adv-x="285" 
d="M111 62c23 0 59 23 103 62c9 8 35 29 56 45c17 13 33 23 54 23c8 0 15 0 26 -13c4 -5 7 -12 7 -14c0 -4 -3 -6 -3 -10c0 -5 -1 -8 -8 -11c-14 -6 -42 -28 -87 -71c-53 -50 -91 -80 -137 -80c-52 0 -81 36 -86 50c-5 15 -7 27 -7 40c0 24 10 48 19 86c3 13 12 38 20 54
c49 99 110 209 177 247c7 4 11 5 20 5c38 0 70 -17 89 -43c3 -4 3 -6 3 -8c0 -4 -1 -6 -1 -12s1 -7 1 -9s0 -3 -2 -9c-5 -16 -27 -52 -31 -84c-1 -8 -2 -15 -6 -18c-6 -5 -8 -5 -21 -5c-7 0 -17 1 -23 7l-20 19c-6 6 -7 15 -7 20c0 19 23 49 23 59c0 3 -2 3 -3 3
s-2 0 -12 -12c-27 -33 -70 -99 -97 -149c-23 -43 -57 -124 -57 -157c0 -3 1 -15 10 -15z" />
    <glyph glyph-name="d" unicode="d" horiz-adv-x="405" 
d="M280 185c-53 -70 -107 -136 -168 -179c-7 -5 -10 -7 -33 -7c-11 0 -23 2 -40 13c-11 7 -20 13 -22 18c-6 15 -9 28 -9 50c0 13 2 48 34 113c45 91 113 169 184 225c14 11 37 20 67 20c8 0 27 -1 48 -17c4 -3 6 -4 8 -4s4 2 13 14c82 109 122 221 198 335c8 12 9 14 28 14
c8 0 15 -3 29 -12c6 -4 14 -13 14 -21c0 -25 -14 -48 -20 -57c-4 -6 -13 -29 -21 -43c-53 -92 -120 -193 -153 -285l-15 -42c-79 -222 -80 -267 -80 -290c0 -28 3 -37 3 -43c0 -2 -1 -4 -4 -7c-6 -7 -9 -10 -12 -15c-3 -4 -10 -6 -21 -6c-8 0 -22 1 -28 5
c-10 7 -12 10 -13 18c-1 12 -1 20 -1 32c0 52 5 87 30 170c6 20 6 21 6 23c0 1 -1 2 -2 2s-2 0 -20 -24zM86 80c3 0 7 2 32 27c56 56 118 135 176 225c11 17 19 21 19 36c0 4 -1 9 -7 9c-9 0 -16 -4 -41 -23c-73 -56 -139 -147 -173 -235c-7 -18 -8 -25 -8 -34
c0 -4 1 -5 2 -5z" />
    <glyph glyph-name="e" unicode="e" horiz-adv-x="301" 
d="M154 56c4 0 10 1 55 28c58 35 94 90 145 128c9 7 15 7 26 7c17 0 21 -11 21 -17c0 -7 -2 -12 -2 -16s0 -9 -5 -14c-39 -39 -58 -88 -188 -175c-15 -10 -20 -10 -37 -10c-11 0 -27 1 -38 7c-17 9 -44 24 -50 29c-13 11 -39 37 -39 132c0 17 0 21 7 46
c29 102 88 189 155 270c15 18 47 46 97 46c25 0 41 -5 55 -11c9 -4 22 -22 22 -50c0 -17 -1 -40 -23 -84c-13 -26 -19 -34 -29 -47c-73 -95 -125 -160 -192 -207c-10 -7 -13 -10 -13 -18c0 -15 10 -32 16 -36c8 -6 12 -8 17 -8zM153 264c-12 -27 -17 -42 -17 -44
c0 -1 0 -2 2 -2c1 0 3 2 25 25c33 35 64 75 92 113c12 16 15 29 22 41c9 15 17 31 17 42c0 4 -1 6 -4 6s-14 -8 -18 -12c-39 -39 -94 -112 -119 -169z" />
    <glyph glyph-name="f" unicode="f" horiz-adv-x="222" 
d="M230 367c3 0 18 3 53 19l38 17c13 5 30 11 59 11c31 0 33 -15 33 -20c0 -9 -5 -14 -18 -21c-7 -4 -13 -8 -23 -13c-32 -16 -65 -38 -98 -46c-12 -3 -11 -6 -20 -10c-18 -8 -32 -8 -53 -26c-5 -5 -6 -7 -11 -21c-46 -129 -92 -258 -113 -405c-2 -14 -18 -26 -23 -28
c-11 -5 -22 -13 -35 -13c-9 0 -13 1 -18 6c-8 8 -12 5 -12 32c0 61 23 82 39 162c8 39 82 249 82 263c0 19 -23 32 -32 62c-5 17 -5 21 -5 28c0 5 1 8 5 14s8 6 15 6c25 0 33 -13 44 -13c4 0 8 3 12 13c56 140 95 236 151 335c8 14 29 23 50 23c16 0 27 -4 34 -18
c4 -7 6 -13 6 -19c0 -21 -26 -42 -29 -59c-1 -5 -3 -13 -5 -18c-21 -50 -78 -103 -96 -169c-3 -11 -7 -17 -12 -30c-2 -5 -22 -47 -22 -59c0 -2 2 -3 4 -3z" />
    <glyph glyph-name="g" unicode="g" horiz-adv-x="346" 
d="M282 135c35 31 70 60 107 86c13 9 19 10 29 10c30 0 30 -16 30 -22c0 -4 -1 -16 -9 -23c-157 -138 -239 -226 -288 -347c-33 -81 -67 -164 -79 -189c-19 -39 -29 -43 -69 -43c-12 0 -49 0 -49 41c0 39 30 90 64 146c35 58 54 81 77 119c20 33 41 75 77 158
c7 16 9 22 9 24s-1 3 -2 3c-2 0 -8 -5 -25 -21c-16 -15 -36 -30 -66 -30c-12 0 -23 1 -32 6c-17 9 -32 28 -44 46c-4 6 -4 7 -4 26c0 21 6 43 13 60c6 14 10 21 16 36c11 26 66 103 87 130c45 58 85 90 113 107c15 9 39 20 56 20c44 0 77 -19 88 -43c5 -11 6 -17 6 -25
c0 -21 -1 -33 -15 -60c-52 -101 -80 -162 -96 -198c-4 -9 -10 -24 -10 -26s1 -2 2 -2s4 2 14 11zM302 414c-5 0 -9 0 -30 -19c-18 -16 -21 -14 -36 -30c-47 -50 -115 -144 -135 -192c-10 -24 -12 -32 -12 -37c0 -3 1 -6 3 -6c3 0 5 0 28 20c69 60 144 160 193 241
c2 3 3 5 3 7c0 1 -1 3 -1 7c0 3 -3 9 -13 9z" />
    <glyph glyph-name="h" unicode="h" horiz-adv-x="342" 
d="M311 434c18 22 25 28 50 28c9 0 17 0 37 -6c7 -2 13 -13 13 -20c0 -23 -11 -47 -29 -80c-18 -34 -20 -50 -25 -62c-20 -48 -43 -117 -52 -176c-3 -19 -4 -28 -4 -60c0 -29 4 -33 16 -42c5 -4 15 -5 20 -7c3 -2 4 -5 4 -7c0 -4 -2 -9 -6 -14c-4 -7 -13 -13 -29 -19
c-5 -2 -15 -3 -24 -3c-5 0 -15 1 -29 7c-23 11 -39 34 -39 80c0 11 0 39 17 103c7 26 20 67 30 93c3 8 4 11 4 12s0 2 -2 2c-1 0 -3 -2 -42 -63c-39 -62 -82 -132 -114 -177c-6 -9 -16 -15 -21 -18c-4 -3 -23 -5 -33 -5c-4 0 -6 0 -13 3c-16 7 -28 16 -32 26
c-2 5 -2 6 -2 10c0 13 4 11 12 41c40 150 110 282 171 421c7 16 13 27 24 49c38 76 80 155 116 231c8 17 20 19 32 19c11 0 29 0 38 -8c11 -9 15 -19 15 -28c0 -31 -18 -45 -42 -81l-18 -28c-58 -87 -118 -227 -173 -356c-35 -82 -36 -85 -36 -86c0 -2 1 -2 2 -2s3 3 9 13
c8 14 62 96 155 210z" />
    <glyph glyph-name="i" unicode="i" horiz-adv-x="184" 
d="M116 66c8 0 22 6 51 32c20 18 28 23 46 23c25 0 33 -7 33 -19c0 -11 -7 -20 -15 -29l-36 -39c-18 -19 -48 -48 -94 -48c-39 0 -64 58 -64 93c0 55 12 92 19 109c8 19 12 38 17 50c30 72 57 144 92 221c9 20 25 28 50 28c9 0 24 0 32 -8c3 -3 5 -7 5 -12
c0 -54 -38 -81 -59 -131c-16 -37 -43 -105 -57 -142c-21 -57 -27 -96 -27 -110c0 -16 4 -18 7 -18zM349 665c0 -13 -3 -22 -6 -26l-20 -26c-11 -14 -22 -23 -37 -23c-29 0 -47 4 -47 43c0 54 20 71 61 71c32 0 49 -10 49 -39z" />
    <glyph glyph-name="j" unicode="j" horiz-adv-x="198" 
d="M151 207c2 0 6 4 16 14c8 8 43 40 59 50c19 12 22 13 33 13c21 0 22 -7 22 -16c0 -7 -4 -22 -14 -31c-11 -10 -35 -34 -44 -44c-54 -60 -100 -129 -144 -198c-14 -22 -26 -46 -31 -59c-39 -101 -69 -191 -106 -293c-4 -11 -15 -38 -47 -38c-13 0 -19 7 -26 10
c-17 7 -18 32 -18 45c0 8 2 21 17 57c45 109 105 208 140 320c4 13 22 63 29 82c36 99 79 202 111 306c4 13 8 19 14 24c8 7 11 8 40 8c16 0 27 -4 30 -10c4 -8 6 -14 6 -19c0 -3 -4 -11 -10 -24c-27 -59 -44 -103 -69 -168c-9 -23 -10 -26 -10 -27s0 -2 2 -2zM330 669
c11 -13 12 -17 12 -23c0 -28 -25 -36 -29 -56c-2 -9 -8 -18 -32 -18c-16 0 -39 4 -49 32c-2 6 -3 10 -3 22c0 2 -1 3 -1 21c0 4 1 6 6 13c12 16 25 29 52 29c23 0 32 -6 44 -20z" />
    <glyph glyph-name="k" unicode="k" horiz-adv-x="309" 
d="M135 180c-11 -32 -25 -75 -33 -114c-3 -15 -6 -29 -9 -36c-10 -23 -14 -29 -21 -29c-8 0 -11 -4 -29 -4c-14 0 -21 3 -24 6c-6 6 -9 10 -9 22c0 14 1 18 11 49c67 207 158 406 241 610l9 22c2 5 3 10 6 15c4 7 7 9 17 9c15 0 20 -2 34 -5s28 -11 28 -24
c0 -14 0 -30 -29 -74c-20 -30 -17 -30 -22 -39c-39 -69 -64 -144 -93 -215c-5 -12 -8 -21 -8 -22c0 -2 1 -2 2 -2c2 0 4 1 25 18c41 34 80 73 110 123c9 15 16 21 19 23c10 6 17 8 30 8c11 0 14 0 19 -2c3 -1 24 -16 24 -25c0 -16 -30 -57 -40 -67c-7 -7 -9 -9 -15 -18
c-6 -8 -10 -12 -24 -25c-39 -37 -82 -70 -122 -102c-5 -4 -6 -9 -6 -13c0 -7 3 -17 12 -68c3 -17 28 -99 36 -114c21 -39 28 -52 60 -68c6 -3 10 -3 12 -3c4 0 5 -2 5 -13s-17 -20 -19 -24c-5 -10 -11 -13 -27 -13c-39 0 -57 14 -68 30c-16 24 -21 17 -32 48
c-22 62 -33 112 -41 148c-7 33 -8 34 -10 34c-3 0 -11 -23 -19 -46z" />
    <glyph glyph-name="l" unicode="l" horiz-adv-x="194" 
d="M102 77c0 -22 7 -27 10 -27s4 0 13 8c16 15 34 38 52 59c20 24 39 47 67 47c12 0 15 -1 23 -6c6 -4 11 -10 11 -18c0 -12 -10 -16 -19 -27c-25 -31 -49 -70 -64 -86c-23 -25 -46 -45 -88 -45c-10 0 -22 2 -45 18c-10 7 -21 16 -30 34c-4 8 -7 25 -7 44s1 31 8 58
s13 43 36 105c42 113 125 272 194 402c8 15 13 35 22 53c9 19 14 29 38 32c9 1 14 3 30 3c9 0 22 -1 28 -13c2 -4 4 -12 4 -23c0 -20 -4 -30 -19 -56c-81 -141 -169 -270 -225 -419c-12 -32 -19 -48 -27 -72c-9 -26 -12 -62 -12 -71z" />
    <glyph glyph-name="m" unicode="m" horiz-adv-x="555" 
d="M376 54c-24 -28 -55 -52 -96 -52c-8 0 -27 0 -48 12c-27 16 -32 29 -34 40c-1 6 -2 6 -3 6c-2 0 -3 -1 -12 -10c-11 -11 -33 -28 -64 -47c-12 -7 -14 -7 -21 -7c-35 0 -58 13 -76 31c-2 2 -6 19 -6 44c0 9 3 49 15 85c20 59 59 118 84 177s34 63 49 103c4 11 19 34 59 34
c12 0 16 -1 21 -3c14 -6 14 -8 14 -15c0 -14 -1 -28 -12 -45c-63 -98 -118 -201 -152 -313c-3 -10 -4 -15 -4 -17s0 -3 2 -3c3 0 6 2 16 9c80 57 151 157 189 255c7 18 13 26 22 34c11 10 18 14 41 14c24 0 34 -9 43 -20c3 -4 3 -6 3 -7c0 -4 -1 -8 -4 -16
c-18 -48 -52 -83 -78 -137s-42 -97 -42 -128c0 -5 1 -7 4 -7c4 0 21 12 34 29c60 79 141 135 178 236c7 19 17 39 49 39c23 0 22 -8 30 -9c20 -3 22 -6 26 -20c2 -7 2 -11 2 -14c0 -19 -20 -23 -31 -43c-45 -82 -68 -138 -68 -193c0 -33 5 -60 18 -89c4 -9 17 -15 17 -30
c0 -3 -2 -7 -6 -10c-7 -5 -12 -6 -23 -6c-29 0 -28 8 -37 9s-20 14 -35 57c-6 17 -12 46 -12 71c0 11 0 12 -2 12s-3 0 -22 -23z" />
    <glyph glyph-name="n" unicode="n" horiz-adv-x="344" 
d="M210 130c-19 -27 -43 -63 -50 -75c-9 -16 -15 -24 -20 -29c-7 -6 -12 -11 -17 -17c-7 -8 -12 -14 -41 -14c-12 0 -20 3 -38 20c-24 22 -28 32 -28 43c0 30 8 48 13 72c3 17 18 58 30 87l20 49c28 68 50 117 90 184c6 10 7 15 13 21c8 8 14 11 37 11c29 0 35 -7 38 -15
c2 -5 4 -11 4 -16c0 -18 -12 -41 -22 -52c-12 -13 -32 -42 -56 -88c-13 -25 -35 -72 -68 -155c-4 -10 -14 -43 -14 -45c0 -3 2 -3 3 -3c2 0 4 2 29 39c97 143 147 179 165 221c7 16 12 27 18 34s12 8 21 8c19 0 21 -9 35 -12c12 -3 15 -12 15 -27c0 -3 -4 -16 -9 -25
c-33 -59 -50 -97 -67 -147c-5 -15 -16 -84 -16 -90c0 -18 3 -25 4 -44c1 -17 20 -30 26 -36c7 -7 10 -12 10 -23c0 -2 -2 -9 -6 -14c-7 -8 -11 -10 -25 -10c-26 0 -44 8 -48 14c-9 13 -19 18 -29 36c-6 11 -10 29 -10 47c0 11 2 35 4 46c1 6 2 12 2 13c0 2 0 4 -3 4
c-1 0 -2 -1 -10 -12z" />
    <glyph glyph-name="o" unicode="o" horiz-adv-x="302" 
d="M333 335c-4 0 -5 -3 -6 -7c-27 -107 -62 -200 -118 -268c-18 -22 -21 -25 -28 -32c-20 -20 -32 -28 -56 -28c-12 0 -21 2 -27 6c-28 18 -51 44 -56 62c-6 21 -6 43 -6 62c0 35 2 44 6 64c12 61 53 139 73 169l31 48c27 41 59 85 104 85c23 0 37 -4 50 -19
c6 -7 9 -13 10 -17c4 -18 5 -22 12 -37c5 -11 14 -17 19 -17c23 0 42 3 66 3c37 0 57 -11 57 -27c0 -12 -19 -14 -25 -22c-2 -3 -4 -4 -9 -5c-17 -3 -40 -13 -61 -17c-10 -2 -25 -3 -36 -3zM123 75c3 0 6 2 10 6c5 5 8 11 16 24c46 76 86 142 99 225c4 25 5 47 5 52
c0 8 -7 17 -9 24c-2 8 -3 8 -4 8s-2 0 -5 -3c-4 -4 -10 -9 -12 -12c-11 -17 -78 -109 -107 -212c-4 -14 -12 -52 -12 -71c0 -6 1 -14 7 -25c8 -15 9 -16 12 -16z" />
    <glyph glyph-name="p" unicode="p" horiz-adv-x="360" 
d="M111 68c-43 -96 -73 -177 -106 -304c-5 -19 2 -33 -12 -41c-9 -5 -21 -7 -36 -7c-8 0 -23 0 -32 16c-4 7 -10 8 -10 20c0 3 0 8 5 24c60 192 181 468 224 684c3 15 5 18 11 20c9 3 15 12 40 12c21 0 32 -10 32 -21c0 -20 -13 -66 -20 -88c-3 -10 -4 -14 -4 -15s0 -2 2 -2
c1 0 2 1 11 12c25 30 50 56 75 72c15 10 18 11 27 11c13 0 24 -1 41 -11c12 -7 21 -16 31 -23c7 -5 14 -17 14 -36s-6 -58 -10 -74c-2 -8 -3 -24 -6 -32c-28 -75 -58 -169 -110 -237c-27 -35 -28 -35 -50 -35c-25 0 -51 12 -64 29c-14 18 -23 36 -30 56c-2 5 -1 6 -4 6
s-4 -2 -19 -36zM190 218c-8 -14 -8 -20 -8 -30c0 -14 9 -58 19 -84c6 -15 8 -18 10 -18s5 1 18 24c14 25 33 64 51 118c13 39 22 70 33 112c7 28 8 33 8 35s-1 3 -2 3s-3 -1 -19 -16c-43 -41 -81 -94 -110 -144z" />
    <glyph glyph-name="q" unicode="q" horiz-adv-x="317" 
d="M129 39c0 1 0 2 -2 2s-10 -4 -35 -4c-14 0 -23 1 -28 3c-7 3 -12 6 -16 9l-11 9c-13 11 -22 35 -22 66c0 6 0 24 9 47c51 129 152 249 252 287c13 5 25 9 44 9c38 0 69 -18 69 -52c0 -36 -30 -59 -30 -77c0 -10 7 -13 7 -21c0 -1 -2 -5 -6 -11
c-114 -172 -202 -386 -264 -597c-7 -24 -1 -58 -21 -89c-7 -11 -11 -13 -23 -13c-5 0 -18 0 -33 8c-4 2 -15 11 -17 14c-3 4 -3 6 -3 7c0 2 0 3 2 12c17 75 41 148 67 220c4 11 9 29 13 43c16 57 28 67 40 103c8 23 8 24 8 25zM85 106c0 -4 3 -7 6 -7c2 0 10 2 19 10
c42 38 93 87 133 156c7 12 7 14 7 16c0 3 -4 5 -4 12c0 4 6 13 19 30c11 14 25 31 31 41c8 13 10 23 10 29c0 1 -1 2 -2 2c-2 0 -5 0 -11 -4c-8 -5 -11 -3 -23 -12c-60 -45 -130 -123 -161 -191c-24 -52 -24 -73 -24 -82z" />
    <glyph glyph-name="r" unicode="r" horiz-adv-x="248" 
d="M318 339c-3 0 -5 -1 -18 -9c-92 -57 -174 -141 -211 -288c-4 -16 -14 -31 -18 -36c-9 -12 -13 -13 -28 -13s-24 12 -27 18c-5 11 -14 21 -14 41c0 31 35 62 50 106c25 73 51 144 69 221c4 17 4 21 4 25c0 12 -5 12 -5 23c0 3 4 9 10 14s12 8 30 8c13 0 20 -1 24 -3
c6 -3 8 -4 10 -9c7 -17 9 -31 9 -48c0 -11 -2 -23 -5 -33c-2 -6 -3 -8 -3 -10s1 -2 2 -2s2 1 5 4c10 10 58 49 91 64c17 8 18 8 29 8c33 0 53 -8 65 -28c3 -5 4 -13 4 -18c0 -14 -6 -25 -13 -32c-11 -11 -19 -12 -28 -12c-16 0 -27 9 -32 9z" />
    <glyph glyph-name="s" unicode="s" horiz-adv-x="245" 
d="M118 45c2 0 2 3 2 5c0 3 -1 19 -2 27c-6 54 -11 155 -11 232c0 20 13 82 38 126c26 46 58 65 85 65c50 0 70 -18 82 -37c9 -14 11 -38 11 -57c0 -22 -3 -52 -29 -91c-8 -12 -9 -12 -20 -12c-15 0 -25 4 -35 13c-7 7 -10 16 -10 30c0 4 1 6 4 12c15 30 16 40 16 48
c0 17 -6 32 -10 32c-2 0 -4 -2 -12 -14c-20 -29 -33 -55 -38 -84c-3 -16 -3 -23 -3 -31c0 -15 0 -59 3 -111c8 -132 8 -142 8 -155c0 -26 -2 -29 -8 -37c-7 -9 -15 -18 -27 -27s-19 -9 -33 -9c-18 0 -21 0 -29 4c-48 24 -84 79 -107 133c-3 7 -4 13 -4 15c0 14 12 38 40 38
c24 0 30 -2 37 -15c17 -31 22 -66 45 -95c4 -5 6 -5 7 -5z" />
    <glyph glyph-name="t" unicode="t" horiz-adv-x="218" 
d="M225 364c0 -3 2 -3 4 -3s8 1 28 8c31 11 62 27 83 42c7 5 9 6 18 6c17 0 45 -13 45 -28c0 -12 -12 -28 -30 -37c-21 -11 -20 -13 -37 -21c-40 -19 -109 -38 -126 -44c-6 -2 -11 -8 -16 -16c-2 -3 -6 -11 -18 -48c-3 -9 -10 -27 -11 -32c-6 -32 -39 -118 -48 -168
c-3 -16 -11 -33 -22 -41c-4 -3 -15 -3 -20 -3c-6 0 -26 0 -37 11c-6 6 -7 15 -7 23c0 4 0 16 5 30c26 74 43 150 73 228c5 13 5 15 5 18s-2 5 -5 7c-25 17 -31 44 -43 58c-5 6 -6 9 -6 15c0 4 1 7 7 11c10 6 15 8 28 8c7 0 12 0 21 -3c8 -3 24 -11 28 -11s7 6 8 11l16 47
c24 60 51 138 82 211c5 12 8 14 15 14c9 0 12 6 25 6c17 0 46 -9 46 -17c0 -3 -1 -15 -12 -50c-20 -62 -53 -119 -79 -174c-7 -15 -20 -55 -20 -58z" />
    <glyph glyph-name="u" unicode="u" horiz-adv-x="344" 
d="M215 72c-15 -22 -56 -65 -86 -84c-8 -5 -10 -5 -19 -5c-25 0 -48 14 -55 19c-14 11 -21 21 -22 31c-1 8 -1 24 -1 35c0 23 11 75 26 122c9 28 10 40 18 63c21 59 34 122 69 188c10 19 24 26 43 26c23 0 35 -11 36 -16c1 -7 7 -15 7 -26c0 -6 -7 -19 -18 -28
c-7 -6 -18 -15 -27 -48c-24 -88 -64 -186 -78 -259c-3 -16 -3 -22 -3 -23c0 -6 2 -10 4 -10c1 0 3 1 8 6c29 29 29 36 47 58c54 67 102 140 133 223c5 14 10 18 17 23c4 3 14 6 27 6c17 0 17 -7 27 -11s14 -9 14 -15c0 -9 0 -16 -7 -32c-32 -72 -58 -146 -73 -225
c-5 -27 -10 -60 -10 -78c0 -23 10 -38 10 -58c0 -9 -3 -19 -6 -22c-4 -4 -11 -4 -20 -4c-16 0 -25 4 -37 15s-16 4 -19 19c-4 20 -5 37 -5 44c0 23 7 61 7 69c0 1 0 2 -2 2c-1 0 -2 -1 -5 -5z" />
    <glyph glyph-name="v" unicode="v" horiz-adv-x="310" 
d="M332 315c-2 0 -3 0 -5 -2c-3 -3 -5 -8 -12 -32c-26 -90 -70 -170 -121 -243c-14 -20 -25 -28 -35 -41c-10 -12 -18 -16 -37 -16c-30 0 -26 10 -44 25c-27 22 -29 33 -29 47c0 24 0 41 11 79c4 14 4 19 19 76c21 80 44 159 58 241c1 6 6 13 10 17s11 6 19 6
c16 0 17 -3 24 -3c11 0 17 -2 24 -9c2 -2 3 -5 3 -9c0 -56 -19 -72 -32 -123c-20 -80 -40 -160 -59 -240c-4 -17 -4 -18 -4 -19s0 -3 2 -3s3 1 9 9c31 42 69 113 96 183c7 18 9 27 15 43c3 8 10 40 10 56c0 9 -2 17 -7 23c-6 7 -10 19 -10 29c0 13 11 25 35 25
c29 0 40 -7 48 -28c5 -14 19 -31 28 -31c10 0 24 5 44 15c34 18 48 18 61 18c8 0 24 0 44 -15c9 -7 9 -13 9 -22c0 -3 -4 -6 -7 -8c-45 -30 -88 -35 -107 -45c-13 -7 -15 -7 -28 -7c-20 0 -23 4 -32 4z" />
    <glyph glyph-name="w" unicode="w" horiz-adv-x="440" 
d="M438 318c-3 0 -4 -4 -4 -9c0 -4 0 -11 -3 -40c-10 -100 -51 -200 -112 -270c-7 -8 -16 -17 -44 -17c-30 0 -54 14 -74 29c-8 6 -19 20 -19 40c0 11 4 30 4 32c0 1 0 2 -2 2c-1 0 -2 -1 -9 -11c-14 -20 -17 -24 -25 -33c-16 -19 -32 -24 -50 -24c-12 0 -15 1 -21 5
c-16 10 -38 21 -42 31c-2 5 -4 18 -4 27c0 6 1 14 5 29c32 121 89 238 110 355c2 11 14 22 42 22c5 0 17 -1 22 -1c8 0 12 -1 16 -3c10 -5 12 -10 12 -21c0 -6 -2 -11 -7 -20c-8 -14 -9 -20 -13 -30c-40 -99 -76 -218 -89 -255c-9 -26 -10 -29 -10 -30s0 -2 2 -2
c1 0 3 0 21 26c44 64 77 114 104 171c10 21 17 36 21 47c4 10 6 16 30 16c10 0 15 -1 19 -1c3 0 30 -1 30 -30c0 -17 -7 -30 -31 -74c-12 -22 -16 -43 -23 -59c-13 -30 -21 -54 -30 -94c-3 -14 -8 -50 -8 -58c0 -13 3 -16 5 -16c3 0 11 3 27 26c51 74 66 191 67 201
c1 7 7 25 7 37c0 31 -10 55 -10 81c0 6 3 17 10 24c3 3 21 6 43 6c11 0 15 -1 18 -6c3 -4 9 -12 19 -20c14 -11 28 -14 51 -14c25 0 60 13 107 13c7 0 17 -2 20 -5s6 -11 6 -17c0 -8 -3 -18 -8 -22c-8 -7 -21 -13 -33 -16c-51 -13 -61 -27 -99 -27c-36 0 -41 5 -48 5z" />
    <glyph glyph-name="x" unicode="x" 
d="M113 93c-29 -34 -36 -50 -40 -62c-2 -6 -4 -10 -14 -20c-7 -7 -16 -11 -35 -11c-9 0 -10 1 -16 7c-17 17 -20 26 -20 37c0 5 0 6 7 15l124 159c7 9 7 10 8 23c1 10 3 48 3 60c0 30 -4 70 -10 88c-3 9 -4 12 -6 13c-4 2 -7 7 -7 16c0 20 10 30 41 30c24 0 28 -5 38 -18
c9 -12 15 -30 17 -46c2 -15 5 -61 5 -66c0 -6 0 -7 2 -7c1 0 2 0 10 8c23 23 83 75 115 103c14 12 15 12 32 12c7 0 24 -1 30 -12s12 -18 12 -31c0 -8 -1 -9 -3 -11s-3 -1 -13 -8c-59 -41 -117 -94 -168 -148c-17 -18 -18 -24 -19 -39c-2 -32 -3 -59 -3 -91v-43
c0 -33 0 -51 -2 -74c-3 -38 -4 -45 -10 -71c-2 -8 -9 -12 -26 -12c-9 0 -14 1 -19 1c-6 0 -9 2 -11 5c-1 2 -4 4 -8 7c-13 10 -15 11 -15 39c0 4 4 29 11 40c2 3 3 10 3 12c0 4 -1 41 -1 97c0 8 0 9 -2 9c-1 0 -3 -2 -10 -11z" />
    <glyph glyph-name="y" unicode="y" horiz-adv-x="357" 
d="M267 -7c8 0 22 -1 22 -11c0 -4 -2 -17 -8 -26c-61 -92 -93 -186 -115 -281c-4 -17 -5 -36 -16 -65c-8 -21 -18 -37 -41 -41c-6 -1 -18 -7 -30 -7c-22 0 -35 7 -35 32c0 23 4 46 21 87c21 51 49 114 80 171c3 17 35 118 62 200c10 30 13 40 13 41s0 2 -2 2
c-1 0 -2 -1 -4 -3c-4 -4 -15 -14 -41 -36c-31 -26 -34 -26 -46 -26c-44 0 -64 15 -80 42c-3 5 -5 9 -5 13c0 24 7 67 14 99c19 88 65 181 94 274c5 16 17 30 40 30c9 0 16 -6 25 -6c19 0 22 -15 22 -18c0 -12 -2 -27 -9 -42c-4 -8 -12 -24 -16 -28c-5 -5 -6 -6 -9 -13
c-33 -77 -44 -126 -71 -204c-8 -23 -14 -56 -14 -67c0 -7 0 -8 3 -8c4 0 43 28 70 66c7 10 19 22 32 40c28 39 68 70 116 197c2 6 7 18 14 25c4 4 6 5 17 5c15 0 13 -7 28 -7c11 0 20 0 26 -13c3 -6 3 -16 3 -19c0 -19 -14 -43 -22 -55c-10 -15 -12 -22 -17 -30
c-23 -37 -41 -81 -57 -128c-8 -24 -47 -127 -54 -150l-8 -25c-3 -9 -4 -11 -4 -13s1 -2 2 -2z" />
    <glyph glyph-name="z" unicode="z" horiz-adv-x="315" 
d="M278 403c-3 0 -15 -5 -31 -7c-29 -4 -54 -21 -74 -45c-5 -6 -9 -7 -19 -7c-18 0 -31 19 -31 44c0 13 1 34 18 39c20 6 41 14 64 22c15 5 39 11 73 11c42 0 71 -14 77 -24c4 -7 15 -14 18 -27c2 -8 2 -14 2 -20c0 -5 -3 -18 -7 -25c-6 -11 -17 -21 -52 -52
c-8 -7 -8 -10 -8 -11s1 -3 3 -3c21 0 50 -4 67 -28c5 -7 5 -11 5 -13s-3 -16 -17 -16c-48 0 -107 -17 -139 -29c-24 -9 -26 -10 -35 -20c-27 -30 -70 -89 -84 -103c-7 -7 -12 -22 -12 -27s0 -7 8 -13c7 -5 12 -7 17 -7c19 0 24 10 50 10c5 0 21 4 43 19c24 16 34 20 56 20
s33 -4 43 -19c4 -6 4 -8 4 -16c0 -5 -1 -8 -9 -12c-26 -13 -55 -29 -83 -40c-35 -14 -68 -21 -99 -21c-37 0 -68 10 -89 27c-16 13 -21 29 -21 54c0 9 2 26 5 33c12 27 32 49 50 72c14 18 16 21 16 24c0 2 0 4 -10 8c-14 6 -19 9 -24 21c-6 14 -8 20 -8 29c0 4 3 23 30 23
c28 0 41 -14 60 -14c17 0 37 16 55 35c23 25 32 41 57 56c10 6 37 34 37 48c0 2 0 4 -6 4z" />
    <glyph glyph-name="braceleft" unicode="{" horiz-adv-x="285" 
d="M209 305c-1 0 -2 -1 -2 -2s1 -2 2 -2c7 -4 20 -17 20 -50c0 -5 -1 -29 -12 -64l-65 -205c-13 -41 -14 -44 -14 -65c0 -14 3 -37 33 -37h29c15 0 16 -1 21 -10c3 -5 3 -10 3 -12c0 -17 -5 -30 -12 -37c-5 -5 -6 -7 -8 -11c-3 -6 -9 -9 -36 -9c-81 0 -123 35 -123 91
c0 12 1 37 12 72l67 206c17 53 18 58 18 72s-8 23 -22 23c-35 0 -37 0 -37 14c0 9 -7 1 -7 13c0 3 1 8 7 26c8 23 12 27 41 27h10c35 0 53 21 83 111l66 195c40 119 84 157 160 157h17c39 0 49 -3 49 -14c0 -6 6 -7 6 -17c0 -4 -1 -9 -6 -20s-7 -14 -12 -20s-14 -6 -27 -6
h-10c-52 0 -72 -27 -90 -77c-14 -38 -70 -210 -77 -232c-15 -48 -30 -81 -52 -101c-14 -13 -31 -16 -32 -16z" />
    <glyph glyph-name="bar" unicode="|" horiz-adv-x="224" 
d="M373 794c7 -11 16 -19 16 -24c0 -1 0 -24 -5 -32c-15 -24 -24 -28 -29 -40c-74 -178 -191 -571 -272 -803c-13 -37 -17 -49 -25 -67c-11 -24 -14 -25 -26 -25c-18 0 -22 3 -26 6c-14 11 -16 8 -24 14c-4 3 -5 6 -5 12c0 9 4 31 10 49c4 12 15 31 20 46l261 781
c23 69 35 94 71 94c22 0 29 -3 34 -11z" />
    <glyph glyph-name="braceright" unicode="}" horiz-adv-x="285" 
d="M189 306c1 0 2 1 2 2s0 2 -3 3s-19 10 -19 40c0 27 3 45 12 74l71 221c10 31 14 46 14 61c0 19 -19 24 -35 24h-33c-21 0 -25 9 -25 18c0 21 9 31 16 50c3 8 22 9 59 9h18c38 0 88 -24 88 -87c0 -26 -3 -47 -12 -75l-69 -206c-17 -51 -18 -59 -18 -72
c0 -16 11 -23 22 -23h16c24 0 29 -3 29 -10c0 -34 -12 -49 -16 -58s-11 -12 -43 -12c-17 0 -50 -11 -84 -111l-62 -183c-45 -134 -66 -170 -168 -170h-12c-47 0 -58 4 -58 15c0 24 13 37 18 49c4 9 8 14 33 14h12c23 0 41 4 53 14c13 10 19 27 27 51l80 243
c28 86 54 105 70 113c8 4 15 6 17 6z" />
    <glyph glyph-name="asciitilde" unicode="~" horiz-adv-x="448" 
d="M348 290c12 0 26 3 74 51c4 4 6 5 16 5c20 0 34 -10 34 -24c0 -9 5 -2 5 -13c0 -12 -1 -13 -10 -22c-35 -35 -80 -77 -121 -77c-47 0 -62 12 -92 54c-24 34 -27 38 -40 38c-8 0 -12 0 -51 -36c-12 -11 -26 -12 -38 -12c-14 0 -27 6 -27 16c0 24 -10 15 -10 29
c0 9 2 20 9 25c61 44 88 61 134 61c29 0 47 -7 79 -60c15 -25 31 -35 38 -35z" />
    <glyph glyph-name="uni00A0" unicode="&#xa0;" horiz-adv-x="205" 
 />
    <glyph glyph-name="exclamdown" unicode="&#xa1;" horiz-adv-x="264" 
d="M67 -79c10 28 12 9 19 36c29 112 59 190 96 313c6 20 9 20 23 20c10 0 25 -2 30 -9c15 -21 19 -27 19 -39c0 -7 -1 -12 -8 -33c-6 -18 -3 -22 -9 -40c-39 -116 -59 -181 -64 -207c-10 -51 -12 -56 -16 -67c-11 -30 -26 -71 -29 -87c-1 -5 -7 -10 -27 -10
c-12 0 -19 3 -22 8c-2 4 -8 11 -16 15c-7 3 -11 13 -11 22c0 7 4 46 15 78zM276 374c-5 0 -15 -1 -26 -1c-28 0 -31 25 -31 45c0 19 0 23 10 45c5 10 6 12 9 14c4 3 10 3 16 3c31 0 29 -10 49 -12c10 -1 17 -11 17 -23c0 -2 0 -5 -12 -38c-8 -23 -19 -33 -32 -33z" />
    <glyph glyph-name="cent" unicode="&#xa2;" horiz-adv-x="356" 
d="M309 390c-1 0 -2 -1 -4 -8c-5 -17 -73 -219 -95 -294c-6 -20 -7 -25 -7 -27s1 -3 3 -3c3 0 6 1 18 8c26 15 26 26 38 36c25 20 42 28 65 28c11 0 16 0 24 -8c7 -7 11 -13 11 -19c0 -3 0 -10 -17 -24c-94 -77 -134 -85 -143 -86c-20 -2 -21 -5 -22 -8
c-4 -11 -19 -57 -27 -72c-6 -11 -12 -14 -22 -14c-21 0 -16 7 -35 22c-6 5 -7 8 -7 12c0 18 9 25 18 47c6 14 6 17 6 20c0 2 -2 4 -9 8c-45 26 -62 81 -62 114c0 35 6 81 20 114c48 114 84 154 115 183c38 35 57 43 86 43c2 0 5 1 7 7c18 55 24 72 50 72c13 0 14 -3 20 -3
c14 0 24 -10 24 -15c0 -4 -8 -8 -20 -37c-12 -28 -13 -32 -13 -35c0 -2 0 -4 6 -6c9 -3 21 -11 27 -18c17 -19 29 -36 29 -60c0 -17 0 -18 -18 -81c-4 -14 -5 -30 -7 -36c-3 -9 -9 -11 -29 -11c-16 0 -23 2 -35 14c-8 8 -14 14 -14 20c0 13 14 49 18 64c5 17 8 29 8 39
c0 13 -4 14 -7 14zM243 389c-2 1 -8 -6 -17 -19c-22 -32 -56 -86 -71 -129c-7 -20 -16 -40 -21 -55c-6 -19 -9 -44 -9 -69c0 -24 7 -44 13 -44c2 0 3 2 6 13c33 107 73 221 94 285c4 12 6 17 5 18z" />
    <glyph glyph-name="sterling" unicode="&#xa3;" horiz-adv-x="400" 
d="M138 51c1 0 39 8 54 12l29 8c53 13 88 25 92 29c3 3 8 8 57 8c22 0 30 -5 35 -17c4 -9 5 -12 10 -18c8 -10 8 -12 8 -25c0 -11 -2 -23 -29 -23c-15 0 -17 1 -22 1c-8 0 -32 -6 -106 -25c-43 -11 -75 -18 -114 -26c-19 -4 -70 -9 -98 -9c-9 0 -18 0 -27 2
c-15 3 -19 10 -20 19s-1 21 -5 31c-2 5 -3 10 -3 14c0 3 5 13 6 14c4 4 8 6 26 6c9 0 20 -3 24 -3c2 0 2 1 2 2c0 2 -3 3 -3 18c0 11 30 87 58 158c2 5 2 7 2 8c0 2 -3 3 -10 4c-16 3 -25 5 -25 26c0 17 0 18 -2 24c-2 7 -2 14 -2 20c0 7 6 7 15 7c27 0 32 1 52 5
c9 2 13 5 15 10l11 26c111 263 179 297 252 297c20 0 44 -6 53 -22c15 -26 31 -41 31 -65v-6c0 -17 -33 -97 -33 -107c0 -11 -9 -27 -32 -27c-18 0 -20 5 -32 8c-13 3 -20 6 -20 29c0 25 21 46 23 70c1 14 11 25 11 43c0 14 -3 14 -4 14c-6 0 -16 -5 -32 -19
c-31 -27 -78 -93 -109 -165l-23 -54c-3 -7 -3 -9 -3 -10s1 -2 2 -2c2 0 3 0 22 5c20 5 31 7 41 7c24 0 25 0 37 -17c11 -15 12 -17 12 -29c0 -5 0 -11 -3 -19c-2 -6 -4 -6 -8 -6c-5 0 -21 -7 -35 -8c-15 -1 -16 -1 -87 -20c-19 -5 -21 -6 -27 -21c-36 -90 -68 -175 -68 -179
c0 -1 0 -3 2 -3z" />
    <glyph glyph-name="currency" unicode="&#xa4;" horiz-adv-x="414" 
d="M276 136c-1 0 -2 0 -10 -2c-4 -1 -18 -4 -36 -4c-21 0 -33 3 -44 9c-4 2 -5 2 -6 2c-2 0 -3 -1 -8 -7l-21 -24c-3 -4 -66 -72 -77 -79c-8 -5 -9 -5 -17 -5c-22 0 -24 2 -31 11c-5 6 -8 10 -8 15c0 3 10 46 22 49c4 1 21 14 58 56l27 31c7 8 7 10 7 13c0 1 0 3 -1 6
c-7 21 -7 39 -7 55c0 10 7 51 21 86c11 27 25 50 45 76c6 8 7 10 7 12c0 1 0 3 -2 10c-10 35 -18 87 -18 106c0 12 2 26 8 38c7 13 21 25 37 25c9 0 11 -1 23 -9s14 -12 14 -22c0 -18 1 -34 1 -42c0 -2 -1 -15 -1 -19c0 -3 0 -12 8 -46c1 -4 2 -5 3 -5c2 0 9 3 31 3
c20 0 34 -2 49 -10c4 -2 5 -3 7 -3c3 0 4 1 11 10c26 34 66 72 83 87c7 6 17 11 36 11c8 0 13 -1 21 -9c4 -4 7 -10 7 -18c0 -14 -12 -45 -18 -49s-10 -4 -16 -10c-4 -4 -24 -17 -65 -58c-6 -6 -9 -9 -9 -12c0 -2 0 -3 3 -11c6 -17 7 -23 7 -37c0 -10 -1 -23 -4 -44
c-8 -54 -26 -97 -55 -134c-9 -12 -9 -13 -9 -15c0 -1 0 -4 1 -8c13 -52 16 -93 25 -102c6 -6 6 -13 6 -19c0 -9 -8 -17 -28 -30c-6 -4 -8 -4 -19 -4c-9 0 -14 0 -24 7s-16 24 -16 31c0 8 -2 25 -13 74c-3 13 -4 14 -5 14zM235 181c4 0 10 2 13 4c34 22 40 39 68 83
c24 38 24 78 24 84c0 8 -1 11 -7 19l-10 13c-4 6 -5 13 -5 16c0 5 -1 10 -5 13c-6 4 -10 6 -20 6c-6 0 -27 -21 -51 -60c-27 -44 -40 -97 -40 -118c0 -5 1 -8 5 -9c5 -2 6 -4 10 -16s4 -14 4 -19s0 -7 5 -12c3 -3 7 -4 9 -4z" />
    <glyph glyph-name="yen" unicode="&#xa5;" horiz-adv-x="387" 
d="M227 144c13 0 48 7 83 7c15 0 16 0 21 -6c4 -5 6 -10 6 -12c0 -13 -5 -27 -9 -40c-2 -6 -7 -12 -16 -12c-16 0 -22 4 -29 4c-3 0 -61 -8 -77 -8c-3 0 -5 0 -10 -14c-8 -23 -23 -79 -23 -83v-11c0 -10 -13 -26 -18 -54c-2 -11 -12 -20 -39 -20c-18 0 -9 5 -21 7
c-17 3 -24 17 -24 18c0 5 14 52 20 66c4 10 12 44 19 61c5 13 6 17 6 20c0 1 0 3 -3 3c-12 0 -24 -2 -35 -2c-25 0 -28 1 -34 5c-7 4 -18 21 -18 44c0 10 2 10 6 17c3 6 6 7 21 7c21 0 39 -6 60 -6c22 0 23 0 27 9c3 7 9 25 9 31c0 2 -1 3 -3 3h-21c-46 0 -50 1 -54 3
c-7 4 -10 21 -10 48c0 5 2 9 7 15c7 8 8 8 24 8c21 0 43 -8 62 -8c6 0 16 0 17 15l10 150l8 97c1 12 1 16 1 23c0 13 -1 22 -1 33c0 4 3 23 3 40c0 4 2 14 5 20s5 9 16 9c6 0 13 5 30 5c8 0 23 0 28 -7c3 -4 6 -8 6 -19c0 -5 2 -9 2 -18c0 -6 -1 -18 -3 -39
c-6 -62 -18 -169 -18 -186c0 -4 0 -5 1 -5s3 2 7 7c10 12 73 84 132 157c13 16 32 42 41 74c5 18 6 28 6 31c0 5 2 11 27 11c16 0 20 -5 27 -5s13 -8 18 -8c4 0 11 0 11 -17c0 -37 -42 -107 -67 -135c-89 -99 -170 -198 -180 -205c-7 -5 -9 -9 -9 -11s1 -4 3 -4
c3 0 37 8 61 8c23 0 24 0 31 -7c3 -3 3 -10 3 -14c0 -8 -3 -23 -9 -34c-3 -6 -4 -10 -7 -15c-2 -3 -4 -3 -12 -3s-16 2 -21 2c-4 0 -45 -4 -72 -6c-11 -1 -12 -3 -13 -6c-4 -11 -12 -32 -12 -35c0 -2 1 -3 3 -3z" />
    <glyph glyph-name="brokenbar" unicode="&#xa6;" horiz-adv-x="242" 
d="M169 106c-2 -3 -18 -30 -25 -49l-91 -243c-5 -12 -6 -14 -19 -14c-30 0 -17 10 -30 19c-12 8 -16 14 -16 28c0 6 6 26 10 36c11 27 9 35 14 50l71 212c5 16 11 29 15 37c9 18 17 18 30 18c28 0 24 -6 38 -8c13 -2 20 -13 20 -26c0 -12 -5 -42 -17 -60zM164 387
c0 5 0 6 32 98l51 149c13 38 21 59 37 88c5 9 9 9 26 9c15 0 21 -8 34 -12c9 -3 21 -13 21 -21c0 -18 -8 -30 -8 -40c0 -3 -2 -9 -11 -20c-7 -9 -30 -53 -41 -84c-15 -43 -55 -152 -58 -167c-1 -5 -14 -39 -15 -41c-3 -5 -6 -6 -18 -6c-18 0 -25 3 -28 12
c-5 14 -11 21 -15 25s-7 6 -7 10z" />
    <glyph glyph-name="section" unicode="&#xa7;" horiz-adv-x="333" 
d="M57 -126c3 0 21 11 25 18c16 28 21 40 21 74c0 38 -1 47 -18 126c-9 42 -13 60 -13 105c0 42 6 101 23 134c31 59 73 91 97 100c13 5 16 7 16 10c0 4 -1 14 -1 34c0 35 3 101 62 160c17 17 39 37 100 37c21 0 35 -7 42 -16c9 -10 20 -42 20 -74c0 -20 -4 -32 -10 -34
c-15 -5 -16 -17 -46 -17c-11 0 -15 0 -16 7c-2 11 -3 19 -3 25c0 16 0 17 -2 24c-6 21 -10 23 -13 23c-6 0 -22 -8 -34 -28c-5 -8 -17 -29 -17 -70c0 -46 15 -96 25 -130c9 -31 17 -72 17 -119c0 -5 0 -29 -4 -59c-2 -16 -10 -48 -15 -59c-9 -19 -18 -33 -36 -54
c-6 -7 -36 -35 -39 -39c-8 -10 -31 -19 -46 -23c-7 -2 -8 -4 -8 -10v-11c0 -33 -4 -82 -18 -106c-16 -28 -31 -48 -60 -74c-12 -11 -30 -20 -66 -20c-57 0 -92 38 -92 107c0 29 2 44 12 51c18 13 23 23 42 23s25 -2 26 -17c1 -17 3 -17 3 -32c0 -42 14 -66 26 -66zM176 105
c2 0 5 1 12 4c6 3 24 15 33 28c23 33 27 60 27 87c0 26 -4 49 -21 134c-1 5 -1 7 -3 7c-3 0 -25 -15 -41 -36c-8 -10 -15 -23 -20 -39c-5 -15 -7 -24 -7 -48c0 -35 4 -62 18 -135c0 -1 1 -2 2 -2z" />
    <glyph glyph-name="dieresis" unicode="&#xa8;" horiz-adv-x="416" 
d="M308 835c24 0 34 -3 38 -14c3 -8 7 -20 7 -28c0 -26 -13 -34 -21 -52c-5 -12 -18 -17 -37 -17c-24 0 -26 0 -31 10c-7 15 -8 11 -8 19c0 5 0 17 1 25c1 10 11 36 13 40c6 13 13 17 38 17zM490 764c1 -9 7 -22 7 -33c0 -10 0 -11 -9 -29c-13 -26 -18 -27 -48 -27
c-17 0 -23 2 -28 20c-4 13 -12 19 -12 34c0 8 1 14 7 29c10 24 14 25 29 25c5 0 11 -1 19 -1c5 0 33 -1 35 -18z" />
    <glyph glyph-name="copyright" unicode="&#xa9;" horiz-adv-x="645" 
d="M508 29c-57 -40 -104 -49 -176 -49c-50 0 -117 21 -145 49c-32 32 -88 89 -88 208c0 141 53 235 77 275c56 92 140 158 242 158c84 0 132 -10 174 -69c20 -28 45 -45 65 -98c9 -24 20 -61 20 -110c0 -68 -30 -265 -169 -364zM597 414c0 131 -72 187 -162 187
c-76 0 -141 -49 -187 -121c-39 -61 -75 -164 -75 -259c0 -136 88 -180 157 -180c93 0 165 62 211 146c31 57 56 134 56 227zM398 207c29 41 41 51 65 51h19c24 0 28 -7 28 -17c0 -3 3 -4 3 -10c0 -4 -2 -8 -6 -11c-6 -5 -7 -7 -19 -23c-44 -59 -78 -103 -133 -103
c-17 0 -32 1 -44 4c-37 9 -64 29 -80 65c-9 20 -12 50 -12 69c0 11 2 48 17 94c12 38 30 75 61 122c25 38 74 95 146 95c21 0 30 -1 41 -4c21 -6 41 -26 53 -44c3 -5 5 -14 5 -21c0 -30 -16 -57 -16 -73c0 -1 -1 -15 -31 -15c-29 0 -52 7 -52 20c0 22 17 47 17 64
c0 12 -7 15 -14 15c-33 0 -86 -86 -104 -124c-36 -76 -45 -132 -45 -161c0 -26 11 -52 36 -52c9 0 30 9 65 59z" />
    <glyph glyph-name="ordfeminine" unicode="&#xaa;" horiz-adv-x="362" 
d="M298 365c-1 0 -2 -1 -8 -7l-27 -27c-26 -26 -60 -57 -85 -57c-23 0 -69 20 -78 59c-2 9 -2 18 -2 20c0 10 2 27 9 47c13 37 28 62 63 116c43 66 135 129 186 129c13 0 32 -1 46 -13c8 -7 18 -19 26 -30c3 -4 9 -6 13 -7c5 -1 11 -3 13 -6c5 -7 8 -13 8 -17
c0 -11 -5 -17 -11 -23c-3 -3 -6 -7 -14 -20c-29 -48 -64 -126 -64 -178c0 -19 0 -38 11 -57c1 -2 2 -5 2 -6c0 -7 -4 -14 -8 -15c-12 -3 -20 -9 -41 -9c-6 0 -14 0 -20 4c-3 2 -5 4 -8 12c-9 25 -9 41 -9 60v23c0 2 -1 2 -2 2zM95 233c34 0 23 -4 36 -4c43 0 91 2 144 2
c11 0 27 3 47 3c19 0 39 -1 44 -4c10 -6 2 -6 11 -19c3 -4 4 -8 4 -15c0 -10 -1 -19 -9 -30c-5 -7 -7 -8 -40 -8c-37 0 -48 1 -104 1c-14 0 -71 -2 -139 -2h-6c-8 0 -21 0 -36 3c-10 2 -14 6 -16 24c-2 16 -6 10 -6 37c0 9 3 14 16 16c12 2 20 2 28 2c19 0 17 -6 26 -6z
M365 581c-5 0 -11 -2 -31 -9c-39 -13 -113 -96 -147 -167c-12 -25 -17 -47 -17 -55c0 -2 0 -6 2 -6c4 0 5 0 48 39c47 42 110 106 118 133c2 7 10 18 18 29c10 15 13 20 13 30c0 5 -2 6 -4 6z" />
    <glyph glyph-name="guillemotleft" unicode="&#xab;" horiz-adv-x="336" 
d="M268 182l-50 94c-2 3 -5 17 -5 28c0 3 1 5 3 9c1 2 7 25 12 31l70 88c7 8 10 18 30 38c5 5 9 5 23 5c8 0 13 0 19 -4c4 -3 10 -14 12 -23c2 -8 10 -16 10 -24c0 -4 -4 -13 -7 -16c-22 -22 -19 -17 -32 -31l-47 -51c-5 -5 -7 -10 -7 -13s0 -5 2 -12c2 -8 28 -77 30 -82
c2 -4 2 -8 2 -13c0 -4 0 -6 -1 -14c-1 -11 -7 -18 -18 -27c-10 -8 -11 -8 -19 -8c-15 0 -17 2 -19 5c-3 5 -3 11 -8 20zM135 184c-7 16 -29 60 -43 88c-3 6 -3 7 -3 26c0 9 -1 16 -1 18c0 5 6 20 12 28l67 84c17 21 28 35 33 40c7 7 8 7 19 7c14 0 27 0 27 -11
c0 -6 4 -9 8 -19c3 -7 7 -15 7 -24c0 -4 -2 -15 -37 -46c-23 -20 -30 -32 -45 -45c-6 -5 -8 -11 -8 -16c0 -3 0 -7 4 -20c16 -53 19 -59 23 -65c2 -3 4 -10 4 -16c0 -5 -1 -32 -4 -36c-4 -5 -9 -11 -13 -14c-7 -5 -9 -6 -27 -6c-6 0 -10 0 -12 2c-9 9 -8 19 -11 25z" />
    <glyph glyph-name="logicalnot" unicode="&#xac;" horiz-adv-x="480" 
d="M383 118c-8 0 -8 -3 -23 -3c-12 0 -14 1 -18 3c-3 2 -6 5 -6 8c0 14 10 29 35 114c5 17 5 19 5 24c0 13 -7 13 -17 13c-48 0 -92 5 -144 5c-10 0 -22 -3 -30 -5s-31 -3 -53 -3c-4 0 -18 0 -18 8s-3 11 -3 17c0 7 15 44 18 48c5 7 9 10 97 10h72c40 0 75 -3 105 -3
c10 0 14 3 31 3c5 0 10 0 12 -1c8 -4 21 -21 21 -29c0 -9 -3 -13 -6 -24c-20 -74 -31 -111 -35 -125s-4 -21 -8 -35c-3 -11 -6 -17 -9 -21s-7 -4 -17 -4h-9z" />
    <glyph glyph-name="uni00AD" unicode="&#xad;" horiz-adv-x="373" 
d="M112 244c-3 6 -10 22 -10 47c0 4 1 10 3 13c4 5 12 11 38 11c52 0 91 -3 133 -3c17 0 38 3 61 3c27 0 35 -6 35 -15c0 -38 -9 -51 -13 -56c-2 -3 -11 -5 -18 -6c-34 -5 -13 -10 -91 -10c-50 0 -119 8 -122 8c-11 0 -12 1 -16 8z" />
    <glyph glyph-name="registered" unicode="&#xae;" horiz-adv-x="534" 
d="M314 139c-41 0 -81 14 -109 37c-36 30 -79 75 -79 166c0 155 104 355 255 355c80 0 114 -10 141 -52c13 -20 41 -40 59 -82c14 -34 19 -57 19 -91c0 -123 -82 -333 -286 -333zM530 480c0 96 -45 159 -133 159c-117 0 -199 -174 -199 -295c0 -89 53 -149 117 -149
c47 0 90 19 124 54c68 71 91 170 91 231zM394 250c-24 0 -42 15 -48 26c-13 24 -22 47 -29 73c-6 -22 -17 -76 -17 -83c0 -5 -4 -13 -26 -13c-11 0 -17 2 -23 6c-7 5 -15 5 -15 14c0 13 8 59 43 169c6 19 21 58 24 65c2 5 3 8 3 10s-1 4 -3 7c-3 4 -8 16 -8 23c0 1 0 3 4 6
c31 24 64 42 105 42c33 0 53 -9 65 -22c11 -12 11 -16 11 -32c0 -36 -3 -57 -26 -92c-17 -26 -36 -49 -83 -58c23 -71 30 -80 53 -89c8 -3 8 -6 8 -23c0 -24 -9 -29 -38 -29zM408 549c-4 0 -7 -2 -11 -3c-5 -1 -7 -3 -10 -9c-20 -40 -26 -56 -41 -102c4 0 7 1 20 11
c44 34 47 77 47 98c0 2 -2 5 -5 5z" />
    <glyph glyph-name="macron" unicode="&#xaf;" horiz-adv-x="416" 
d="M317 786c7 -1 45 -2 71 -2c31 0 78 3 104 3c6 0 16 0 16 -10c0 -5 5 -5 5 -12c0 -3 -2 -7 -2 -10c0 -6 -2 -21 -8 -31c-4 -7 -5 -9 -21 -9c-12 0 -19 2 -29 2c-17 0 -82 -3 -125 -3c-21 0 -58 1 -69 4s-16 20 -16 44c0 13 0 15 3 19c5 6 18 7 33 7c19 0 32 -1 38 -2z" />
    <glyph glyph-name="degree" unicode="&#xb0;" horiz-adv-x="315" 
d="M335 377c-14 -14 -34 -24 -66 -24c-10 0 -31 0 -46 10c-22 14 -43 37 -50 55c-12 30 -13 53 -13 65c0 22 0 54 58 137c23 33 56 57 89 57c29 0 55 -3 81 -29c18 -18 34 -57 34 -89c0 -46 -37 -132 -87 -182zM332 625c-4 0 -8 -1 -15 -9c-54 -61 -86 -121 -86 -162
c0 -16 0 -24 5 -35c7 -16 14 -17 17 -17c5 0 8 3 15 13c66 95 83 128 83 157c0 18 -8 53 -19 53z" />
    <glyph glyph-name="plusminus" unicode="&#xb1;" horiz-adv-x="480" 
d="M354 402c0 -1 0 -3 4 -3c21 0 37 5 82 10c9 1 11 1 14 1c23 0 30 -5 37 -14c3 -4 3 -7 3 -10c0 -8 -2 -13 -14 -43c-4 -10 -6 -10 -12 -10c-11 0 -13 2 -18 2c-4 0 -10 -2 -19 -3c-33 -4 -41 -3 -87 -9c-8 -1 -14 -2 -16 -4s-3 -4 -5 -11c-15 -52 -20 -73 -31 -130
c-3 -16 -5 -22 -7 -25c-3 -5 -8 -8 -21 -9c-9 -1 -10 -3 -22 -3c-15 0 -21 2 -26 6s-6 6 -6 8c0 23 14 62 27 116c2 8 7 35 7 38c0 1 0 3 -2 3h-23c-14 0 -32 1 -50 4c-7 1 -28 5 -30 6c-7 3 -12 20 -12 43c0 17 0 18 9 27c7 7 9 8 23 8c4 0 13 0 23 -3c18 -5 47 -5 57 -5
h21c7 0 10 1 12 7c7 20 27 80 30 93c9 40 15 53 22 55c10 3 23 14 42 14c28 0 33 -9 33 -14c0 -1 0 -3 -4 -15l-12 -36c-4 -13 -20 -66 -27 -86c-2 -6 -2 -7 -2 -8zM368 38c-4 0 -48 -3 -73 -4c-35 -1 -78 -4 -115 -4c-44 0 -86 7 -106 7c-7 0 -8 1 -11 7c-2 4 -3 7 -5 29
c-1 14 -1 20 -1 27c0 4 0 15 35 15c23 0 29 -7 128 -7c7 0 59 2 71 3c41 3 64 4 95 4c19 0 20 0 30 -14c2 -3 2 -4 2 -8c0 -23 -8 -50 -13 -55c-2 -2 -7 -2 -11 -2c-13 0 -21 2 -26 2z" />
    <glyph glyph-name="twosuperior" unicode="&#xb2;" 
d="M304 595c-6 0 -22 -11 -32 -22c-6 -7 -18 -23 -24 -33c-5 -8 -14 -15 -17 -23c-5 -12 -9 -15 -17 -16c-11 -1 -13 -3 -19 -3c-12 0 -20 0 -28 11c-7 10 -9 19 -9 28c0 15 12 30 18 40c9 15 30 35 55 52c27 19 41 22 79 22c35 0 67 -43 67 -63c0 -39 -19 -109 -88 -193
c-53 -64 -127 -141 -127 -153c0 -2 0 -5 31 -5c42 0 54 8 66 38c4 11 8 21 11 24c7 7 15 11 32 11c16 0 22 -3 29 -11c7 -7 7 -12 7 -19c0 -19 -21 -72 -26 -79c-13 -18 -38 -24 -112 -24c-49 0 -94 2 -109 18c-16 17 -19 33 -19 48c0 5 5 15 22 37c13 17 31 38 65 77
c76 87 111 140 128 172c18 34 21 45 21 61c0 3 -1 5 -4 5z" />
    <glyph glyph-name="threesuperior" unicode="&#xb3;" 
d="M263 396c-1 0 -2 0 -6 -2c-6 -3 -11 -3 -17 -7c-5 -3 -13 -10 -24 -15c-6 -3 -13 -10 -36 -10c-10 0 -17 1 -21 3c-8 4 -13 17 -13 27c0 8 0 10 3 13c8 8 12 11 25 20c10 7 11 11 16 15c27 21 66 60 96 111c8 13 9 19 9 21s-1 4 -4 4c-4 0 -8 -1 -34 -24
c-8 -7 -12 -13 -12 -17c0 -13 -13 -17 -17 -23c-2 -3 -13 -6 -26 -6s-20 1 -25 8c-5 8 -11 23 -11 26c0 28 26 44 39 59c6 7 18 7 25 12c30 21 48 33 80 33c17 0 25 -2 32 -8l11 -7c16 -8 24 -23 24 -35s-2 -18 -7 -30c-3 -7 -1 -6 -8 -19c-17 -32 -39 -63 -67 -95
c41 -11 48 -48 48 -72c0 -16 -3 -51 -27 -103s-54 -107 -119 -107c-55 0 -92 59 -108 84c-5 8 -6 16 -6 22c0 15 3 20 25 20c8 0 10 2 23 2c12 0 17 -1 22 -9c7 -11 17 -19 17 -31c0 -9 17 -27 24 -27c5 0 33 18 58 79c17 41 20 56 20 64c0 3 0 11 -5 20c-2 4 -3 4 -4 4z
" />
    <glyph glyph-name="acute" unicode="&#xb4;" horiz-adv-x="416" 
d="M269 752c3 0 10 2 20 7l74 34c15 7 34 16 59 33c9 6 16 6 24 6c7 0 14 0 23 -9c5 -5 7 -9 7 -16c0 -17 -1 -29 -7 -38c-7 -10 -21 -17 -59 -31l-92 -35c-14 -5 -24 -5 -28 -5c-17 0 -19 2 -32 22c-5 8 -5 9 -5 13c0 3 3 19 16 19z" />
    <glyph glyph-name="mu" unicode="&#xb5;" horiz-adv-x="416" 
d="M271 -20c0 34 1 54 3 71c0 4 1 7 1 9c0 1 0 3 -1 3c-2 0 -11 -16 -12 -17c-16 -25 -34 -44 -46 -53c-19 -15 -27 -19 -39 -19c-19 0 -37 4 -53 17c-15 12 -16 14 -19 26c-1 4 -2 12 -2 24c0 21 2 40 2 41c0 2 0 3 -1 3s-2 -2 -8 -18c-3 -8 -12 -30 -21 -50
c-37 -83 -59 -132 -106 -230c-13 -28 -18 -45 -28 -59c-7 -10 -11 -12 -21 -12c-8 0 -16 0 -29 2c-11 2 -13 16 -22 17c-6 1 -7 10 -7 23c0 8 2 17 6 26c4 10 21 33 35 51c13 16 14 18 40 70c71 141 146 302 238 514c13 30 16 31 22 31c10 0 12 9 28 9c17 0 30 -4 33 -6
c7 -4 7 -11 7 -37c0 -8 -15 -24 -20 -38c-8 -23 -28 -53 -38 -93c-20 -80 -30 -90 -36 -191c-1 -17 -1 -20 -1 -23c0 -10 0 -12 2 -12s3 1 6 4c14 14 62 86 70 97c50 69 58 84 96 191c5 14 9 19 13 23c3 3 8 6 29 6c16 0 22 -11 27 -11c13 0 15 -6 15 -13
c0 -3 -4 -25 -8 -34c-32 -73 -59 -147 -73 -225c-5 -27 -10 -61 -10 -74c0 -12 1 -16 5 -24c2 -4 3 -11 3 -23c0 -6 0 -13 -1 -24s-7 -15 -33 -15c-21 0 -21 8 -33 10c-10 2 -13 4 -13 33z" />
    <glyph glyph-name="paragraph" unicode="&#xb6;" horiz-adv-x="586" 
d="M551 577c-18 0 -15 1 -54 1c-3 0 -5 -2 -6 -6c-3 -10 -33 -90 -57 -162c-12 -36 -34 -78 -36 -86c-10 -39 -60 -160 -66 -177c-63 -178 -73 -213 -75 -239c-1 -11 -7 -28 -7 -37c0 -8 1 -9 1 -19c0 -5 0 -9 -3 -18c-5 -15 -40 -32 -59 -32c-12 0 -13 5 -19 9s-10 0 -12 6
c-2 5 -3 12 -3 17c0 3 0 11 1 23c3 36 13 75 21 98l43 121c17 48 38 93 59 135c-62 5 -129 67 -129 153c0 114 73 276 180 293c9 3 16 5 27 5c17 0 51 -3 62 -3c21 0 54 -3 73 -3c8 0 21 1 34 1c17 0 39 2 44 3c14 3 41 2 63 4c19 2 23 1 45 11c5 2 5 3 20 3
c17 0 33 -2 42 -14c18 -25 18 -26 18 -33s-3 -12 -3 -19c0 -2 -11 -6 -25 -12c-16 -7 -18 -8 -32 -9c-18 -1 -49 -11 -57 -23s-12 -26 -12 -32c0 -11 -3 -25 -17 -64l-34 -94c-5 -14 -21 -43 -27 -66c-5 -18 -13 -32 -39 -114c-26 -81 -65 -188 -80 -240
c-2 -7 -9 -46 -12 -64c-1 -7 -10 -44 -10 -49c0 -6 4 -11 4 -17c0 -4 -3 -11 -16 -19c-16 -10 -43 -15 -58 -15c-7 0 -15 1 -15 6c0 3 -1 5 -4 8c-4 4 -5 5 -5 11c0 9 6 64 37 170c15 51 41 116 47 138c13 46 30 84 70 204c42 125 56 158 80 229c3 9 4 13 4 14
c0 2 -1 3 -3 3z" />
    <glyph glyph-name="periodcentered" unicode="&#xb7;" horiz-adv-x="283" 
d="M206 354c23 0 29 -4 37 -15s11 -22 11 -33c0 -16 -1 -29 -5 -40c-12 -34 -25 -65 -64 -65c-28 0 -59 10 -63 29c-1 5 -2 14 -2 22c0 23 6 71 13 79c12 13 39 23 73 23z" />
    <glyph glyph-name="cedilla" unicode="&#xb8;" horiz-adv-x="278" 
d="M27 -79c11 -2 14 -12 14 -15c0 -4 4 -9 8 -13c3 -3 8 -4 12 -4c3 0 10 2 20 14c8 9 17 27 26 46c5 10 6 23 6 26c0 2 -1 8 -3 12l-19 41h59l23 -51c6 -13 6 -19 6 -30c0 -23 -9 -41 -17 -55c-28 -46 -51 -61 -84 -61c-5 0 -30 0 -54 14c-17 10 -27 16 -38 35
c-3 5 -4 10 -4 16c0 8 10 23 17 27c4 2 9 2 11 2c15 0 12 -3 17 -4z" />
    <glyph glyph-name="onesuperior" unicode="&#xb9;" 
d="M262 437c-2 0 -3 -1 -11 -12c-84 -116 -101 -120 -104 -129c-2 -6 -19 -8 -25 -8c-9 0 -18 1 -23 7c-4 5 -9 7 -12 12c-6 9 -7 12 -7 16c0 5 2 10 11 20c19 21 27 28 37 35c4 3 16 14 27 28c67 85 82 105 121 159c18 25 34 52 48 79c3 6 12 6 21 6c25 0 49 -14 49 -31
c0 -2 0 -3 -10 -30c-42 -113 -64 -218 -97 -338c-5 -19 -6 -24 -8 -43c-3 -27 -11 -34 -22 -34c-4 0 -8 -2 -20 -2c-19 0 -39 6 -39 24c0 9 5 25 6 31c3 19 10 29 15 46l37 131c7 25 8 29 8 31s-1 2 -2 2z" />
    <glyph glyph-name="ordmasculine" unicode="&#xba;" horiz-adv-x="334" 
d="M374 631c24 -14 37 -49 37 -93c0 -75 -45 -159 -88 -219c-33 -46 -59 -50 -102 -50c-37 0 -64 9 -81 43c-13 26 -19 49 -19 73c0 41 9 80 55 167c29 55 74 104 139 104c9 0 21 -1 25 -3c11 -6 11 -10 17 -14c4 -3 12 -5 17 -8zM118 227h31c59 0 135 6 144 6s30 -2 43 -5
c4 -1 5 -2 5 -4c0 -3 -4 -4 -4 -7c0 -6 14 -14 14 -23s-4 -16 -12 -28c-4 -6 -7 -8 -43 -8c-21 0 -53 1 -72 1c-29 0 -54 -5 -112 -5c-30 0 -55 2 -61 4c-19 6 -21 10 -21 18c0 3 0 7 -2 13c-2 7 -2 13 -2 28c0 7 1 14 16 16c7 1 13 1 26 1c24 0 39 -7 50 -7zM282 570
c-43 -67 -86 -140 -86 -195c0 -36 15 -57 27 -57c4 0 19 14 34 40c75 131 75 165 75 181s-3 23 -8 31c-3 5 -5 13 -5 21c0 6 -2 6 -3 6c-8 0 -23 -10 -34 -27z" />
    <glyph glyph-name="guillemotright" unicode="&#xbb;" horiz-adv-x="336" 
d="M377 319c0 -5 -7 -28 -21 -44l-87 -99c-14 -16 -19 -19 -44 -19c-4 0 -20 1 -20 23c0 4 -4 4 -4 13c0 2 0 7 6 14l80 97c3 4 6 8 6 14c0 3 -1 6 -3 11c-4 10 -6 16 -8 26c-2 9 -10 23 -12 33c-2 11 -14 20 -14 34c0 16 12 17 28 41c4 6 11 11 28 11c23 0 24 0 38 -46
l24 -79c2 -6 3 -10 3 -30zM197 479c7 0 14 0 17 -11l31 -116c3 -12 3 -17 3 -26c0 -13 -4 -35 -20 -51l-105 -107c-11 -11 -13 -12 -24 -12c-4 0 -12 0 -15 3s-11 12 -11 18c0 3 1 26 11 38l74 89c5 6 8 11 8 18c0 3 0 5 -3 12l-18 48c-5 13 -7 22 -9 28c-1 4 -5 8 -5 16
c0 4 23 47 42 47c11 0 7 6 24 6z" />
    <glyph glyph-name="onequarter" unicode="&#xbc;" horiz-adv-x="822" 
d="M596 94h-10c-24 0 -50 2 -75 15c-17 9 -29 48 -29 57c0 10 1 15 8 24c48 62 108 145 182 219c12 12 16 22 21 27c3 3 12 5 20 5c12 0 16 -1 22 -4c14 -7 20 -16 20 -26c0 -20 -12 -38 -12 -49c0 -4 -4 -22 -8 -36l-34 -112c-10 -34 -10 -40 -10 -42c0 -1 1 -2 3 -2
c3 0 14 2 30 2c19 0 28 -2 34 -11c2 -3 9 -17 9 -30c0 -7 0 -12 -24 -15l-25 -3c-12 -2 -27 -5 -40 -9c-13 -34 -16 -73 -23 -109c-2 -11 -3 -16 -13 -16c-15 0 -23 0 -34 7l-17 13c-4 3 -6 5 -6 17c0 7 1 13 6 39l4 16c1 3 4 18 4 20c0 1 0 3 -3 3zM707 662
c5 -6 5 -8 5 -28c0 -13 0 -24 -8 -29c-5 -3 -8 -6 -14 -13c-16 -20 -24 -20 -32 -32c-110 -165 -182 -314 -288 -493c-19 -32 -34 -55 -45 -70c-20 -27 -21 -27 -35 -27c-22 0 -26 3 -30 8c-6 7 -11 11 -11 22c0 36 6 40 11 42c7 3 13 9 45 63l275 469c22 37 54 78 63 87
s19 14 34 14c12 0 20 -2 30 -13zM301 437c-2 0 -3 -1 -11 -12c-84 -116 -101 -120 -104 -129c-2 -6 -19 -8 -25 -8c-9 0 -18 1 -23 7c-4 5 -9 7 -12 12c-6 9 -7 12 -7 16c0 5 2 10 11 20c19 21 27 28 37 35c4 3 16 14 27 28c67 85 82 105 121 159c18 25 34 52 48 79
c3 6 12 6 21 6c25 0 49 -14 49 -31c0 -2 0 -3 -10 -30c-42 -113 -64 -218 -97 -338c-5 -18 -6 -24 -8 -43c-3 -27 -11 -34 -22 -34c-4 0 -8 -2 -20 -2c-19 0 -39 6 -39 24c0 9 5 25 6 31c3 19 10 29 15 46l37 131c7 25 8 29 8 31s-1 2 -2 2zM641 254c3 9 8 28 7 28
c-2 0 -8 -9 -11 -13l-77 -104c-3 -4 -3 -5 -3 -6c0 -2 3 -5 8 -6c9 -2 14 -2 22 -2c9 0 17 1 22 2s6 3 7 8c7 34 18 71 25 93z" />
    <glyph glyph-name="onehalf" unicode="&#xbd;" horiz-adv-x="822" 
d="M703 402c-6 0 -22 -11 -32 -22c-6 -7 -18 -23 -24 -33c-5 -8 -14 -15 -17 -23c-5 -12 -9 -15 -17 -16c-11 -1 -13 -3 -19 -3c-12 0 -20 0 -28 11c-7 10 -9 19 -9 28c0 15 12 30 18 40c9 15 30 35 55 52c27 19 41 22 79 22c35 0 67 -43 67 -63c0 -39 -19 -109 -88 -193
c-53 -64 -127 -141 -127 -153c0 -2 0 -5 31 -5c42 0 54 8 66 38c4 11 8 21 11 24c7 7 15 11 32 11c16 0 22 -3 29 -11c7 -7 7 -12 7 -19c0 -19 -21 -72 -26 -79c-13 -18 -38 -24 -112 -24c-49 0 -94 2 -109 18c-16 17 -19 33 -19 48c0 5 5 15 22 37c13 17 31 38 65 77
c76 87 111 140 128 172c18 34 21 45 21 61c0 3 -1 5 -4 5zM698 662c5 -6 5 -8 5 -28c0 -13 0 -24 -8 -29c-5 -3 -8 -6 -14 -13c-16 -20 -24 -20 -32 -32c-110 -165 -182 -314 -288 -493c-19 -32 -34 -55 -45 -70c-20 -27 -21 -27 -35 -27c-22 0 -26 3 -30 8
c-6 7 -11 11 -11 22c0 36 6 40 11 42c7 3 13 9 45 63l275 469c22 37 54 78 63 87s19 14 34 14c12 0 20 -2 30 -13zM301 437c-2 0 -3 -1 -11 -12c-84 -116 -101 -120 -104 -129c-2 -6 -19 -8 -25 -8c-9 0 -18 1 -23 7c-4 5 -9 7 -12 12c-6 9 -7 12 -7 16c0 5 2 10 11 20
c19 21 27 28 37 35c4 3 16 14 27 28c67 85 82 105 121 159c18 25 34 52 48 79c3 6 12 6 21 6c25 0 49 -14 49 -31c0 -2 0 -3 -10 -30c-42 -113 -64 -218 -97 -338c-5 -18 -6 -24 -8 -43c-3 -27 -11 -34 -22 -34c-4 0 -8 -2 -20 -2c-19 0 -39 6 -39 24c0 9 5 25 6 31
c3 19 10 29 15 46l37 131c7 25 8 29 8 31s-1 2 -2 2z" />
    <glyph glyph-name="threequarters" unicode="&#xbe;" horiz-adv-x="822" 
d="M596 94h-10c-24 0 -50 2 -75 15c-17 9 -29 48 -29 57c0 10 1 15 8 24c48 62 108 145 182 219c12 12 16 22 21 27c3 3 12 5 20 5c12 0 16 -1 22 -4c14 -7 20 -16 20 -26c0 -20 -12 -38 -12 -49c0 -4 -4 -22 -8 -36l-34 -112c-10 -34 -10 -40 -10 -42c0 -1 1 -2 3 -2
c3 0 14 2 30 2c19 0 28 -2 34 -11c2 -3 9 -17 9 -30c0 -7 0 -12 -24 -15l-25 -3c-12 -2 -27 -5 -40 -9c-13 -34 -16 -73 -23 -109c-2 -11 -3 -16 -13 -16c-15 0 -23 0 -34 7l-17 13c-4 3 -6 5 -6 17c0 7 1 13 6 39l4 16c1 3 4 18 4 20c0 1 0 3 -3 3zM302 396
c-1 0 -2 0 -6 -2c-6 -3 -11 -3 -17 -7c-5 -3 -13 -10 -24 -15c-6 -3 -13 -10 -36 -10c-10 0 -17 1 -21 3c-8 4 -13 17 -13 27c0 8 0 10 3 13c8 8 12 11 25 20c10 7 11 11 16 15c27 21 66 60 96 111c8 13 9 19 9 21s-1 4 -4 4c-4 0 -8 -1 -34 -24c-8 -7 -12 -13 -12 -17
c0 -13 -13 -17 -17 -23c-2 -3 -13 -6 -26 -6s-20 1 -25 8c-5 8 -11 23 -11 26c0 28 26 44 39 59c6 7 18 7 25 12c30 21 48 33 80 33c17 0 25 -2 32 -8l11 -7c16 -8 24 -23 24 -35s-2 -18 -7 -30c-3 -7 -1 -6 -8 -19c-17 -32 -39 -63 -67 -95c41 -11 48 -48 48 -72
c0 -16 -3 -51 -27 -103s-54 -107 -119 -107c-55 0 -92 59 -108 84c-5 8 -6 16 -6 22c0 15 3 20 25 20c8 0 10 2 23 2c12 0 17 -1 22 -9c7 -11 17 -19 17 -31c0 -9 17 -27 24 -27c5 0 33 18 58 79c17 41 20 56 20 64c0 3 0 11 -5 20c-2 4 -3 4 -4 4zM707 662c5 -6 5 -8 5 -28
c0 -13 0 -24 -8 -29c-5 -3 -8 -6 -14 -13c-16 -20 -24 -20 -32 -32c-110 -165 -182 -314 -288 -493c-19 -32 -34 -55 -45 -70c-20 -27 -21 -27 -35 -27c-22 0 -26 3 -30 8c-6 7 -11 11 -11 22c0 36 6 40 11 42c7 3 13 9 45 63l275 469c22 37 54 78 63 87s19 14 34 14
c12 0 20 -2 30 -13zM649 280c0 7 -8 -6 -12 -11l-77 -104c-3 -4 -3 -5 -3 -6c0 -2 3 -5 8 -6c9 -2 14 -2 22 -2c9 0 17 1 22 2s6 3 7 8c7 34 18 71 25 93c5 16 8 25 8 26z" />
    <glyph glyph-name="questiondown" unicode="&#xbf;" horiz-adv-x="296" 
d="M189 212c-11 0 -20 -4 -24 -7c-11 -9 -15 -12 -32 -12c-22 0 -27 10 -28 15c-1 7 -5 14 -5 20c0 7 11 27 15 30c7 6 32 20 69 20c26 0 44 -3 61 -11c14 -7 45 -26 45 -65c0 -43 -2 -58 -117 -187c-50 -56 -63 -81 -63 -97s18 -30 24 -30c16 0 33 17 33 38
c0 4 -1 13 -1 20c0 5 1 10 5 16s12 8 24 8c23 0 26 -3 35 -16c7 -10 8 -24 8 -36c0 -19 -14 -51 -26 -64c-19 -20 -37 -27 -74 -27c-38 0 -56 7 -72 20c-19 16 -33 34 -33 64c0 47 15 66 88 155c31 38 45 51 70 84c18 24 19 31 19 41c0 15 -15 21 -21 21zM325 449
c7 -8 9 -13 9 -17c0 -27 -1 -29 -9 -39c-10 -12 -24 -27 -49 -27c-12 0 -32 5 -36 16c-2 6 -16 19 -16 27c0 2 1 10 7 30c12 40 22 43 43 43c8 0 13 -1 20 -5c10 -6 18 -14 31 -28z" />
    <glyph glyph-name="Agrave" unicode="&#xc0;" horiz-adv-x="416" 
d="M389 296c2 0 15 2 34 2c32 0 49 -7 56 -19c3 -5 4 -7 4 -8c0 -3 0 -9 -4 -16c-10 -18 -26 -24 -66 -26c-16 -1 -27 -7 -30 -10c-7 -6 -8 -8 -10 -27l-11 -92c-1 -7 -2 -36 -4 -63c-1 -18 -1 -25 -1 -35c0 -53 9 -69 9 -74c0 -8 -3 -11 -17 -25c-4 -4 -8 -4 -17 -4
c-23 0 -39 6 -48 19c-7 10 -9 37 -9 71c0 33 2 59 10 136c4 38 4 42 4 46c0 2 -1 3 -2 3c-2 0 -3 0 -20 -7c-46 -19 -104 -40 -129 -45c-10 -2 -11 -3 -16 -15c-15 -35 -19 -69 -19 -106c0 -12 1 -15 1 -19c0 -3 -1 -4 -5 -7c-9 -7 -18 -23 -40 -23c-3 0 -13 1 -23 10
c-13 11 -18 20 -18 44c0 59 17 105 17 111c0 3 -1 5 -4 7c-17 12 -24 17 -24 30s11 48 15 54c2 4 7 6 17 6c23 0 24 -10 30 -10c2 0 3 1 6 7c72 144 149 285 249 449c14 23 16 26 20 26c6 0 16 2 25 6s18 6 34 6c18 0 33 -6 34 -10c1 -5 5 -11 5 -15c0 -7 -8 -47 -14 -73
c-6 -24 -5 -41 -8 -55c-16 -76 -34 -241 -34 -244c0 -4 1 -5 3 -5zM167 207c3 0 41 12 69 25l55 25c4 2 5 4 6 10c30 182 36 238 36 247c0 5 -1 8 -3 8s-5 -5 -25 -42c-52 -96 -89 -167 -129 -246c-10 -20 -12 -24 -12 -25s1 -2 3 -2zM389 874c3 0 7 -3 11 -9
c4 -5 10 -11 31 -30l77 -69c12 -11 18 -18 18 -24c0 -10 -4 -18 -7 -31c-2 -9 -4 -14 -21 -14c-15 0 -22 2 -31 9l-77 67c-10 8 -34 23 -51 33c-5 3 -7 8 -7 17c0 23 1 28 11 41c5 6 11 13 27 13c14 0 15 -3 19 -3z" />
    <glyph glyph-name="Aacute" unicode="&#xc1;" horiz-adv-x="416" 
d="M389 296c2 0 15 2 34 2c32 0 49 -7 56 -19c3 -5 4 -7 4 -8c0 -3 0 -9 -4 -16c-10 -18 -26 -24 -66 -26c-16 -1 -27 -7 -30 -10c-7 -6 -8 -8 -10 -27l-11 -92c-1 -7 -2 -36 -4 -63c-1 -18 -1 -25 -1 -35c0 -53 9 -69 9 -74c0 -8 -3 -11 -17 -25c-4 -4 -8 -4 -17 -4
c-23 0 -39 6 -48 19c-7 10 -9 37 -9 71c0 33 2 59 10 136c4 38 4 42 4 46c0 2 -1 3 -2 3c-2 0 -3 0 -20 -7c-46 -19 -104 -40 -129 -45c-10 -2 -11 -3 -16 -15c-15 -35 -19 -69 -19 -106c0 -12 1 -15 1 -19c0 -3 -1 -4 -5 -7c-9 -7 -18 -23 -40 -23c-3 0 -13 1 -23 10
c-13 11 -18 20 -18 44c0 59 17 105 17 111c0 3 -1 5 -4 7c-17 12 -24 17 -24 30s11 48 15 54c2 4 7 6 17 6c23 0 24 -10 30 -10c2 0 3 1 6 7c72 144 149 285 249 449c14 23 16 26 20 26c6 0 16 2 25 6s18 6 34 6c18 0 33 -6 34 -10c1 -5 5 -11 5 -15c0 -7 -8 -47 -14 -73
c-6 -24 -5 -41 -8 -55c-16 -76 -34 -241 -34 -244c0 -4 1 -5 3 -5zM167 207c3 0 41 12 69 25l55 25c4 2 5 4 6 10c30 182 36 238 36 247c0 5 -1 8 -3 8s-5 -5 -25 -42c-52 -96 -89 -167 -129 -246c-10 -20 -12 -24 -12 -25s1 -2 3 -2zM305 790c3 0 10 2 20 7l74 34
c15 7 34 16 59 33c9 6 16 6 24 6c7 0 14 0 23 -9c5 -5 7 -9 7 -16c0 -17 -1 -29 -7 -38c-7 -10 -21 -17 -59 -31l-92 -35c-14 -5 -24 -5 -28 -5c-17 0 -19 2 -32 22c-5 8 -5 9 -5 13c0 3 3 19 16 19z" />
    <glyph glyph-name="Acircumflex" unicode="&#xc2;" horiz-adv-x="416" 
d="M389 296c2 0 15 2 34 2c32 0 49 -7 56 -19c3 -5 4 -7 4 -8c0 -3 0 -9 -4 -16c-10 -18 -26 -24 -66 -26c-16 -1 -27 -7 -30 -10c-7 -6 -8 -8 -10 -27l-11 -92c-1 -7 -2 -36 -4 -63c-1 -18 -1 -25 -1 -35c0 -53 9 -69 9 -74c0 -8 -3 -11 -17 -25c-4 -4 -8 -4 -17 -4
c-23 0 -39 6 -48 19c-7 10 -9 37 -9 71c0 33 2 59 10 136c4 38 4 42 4 46c0 2 -1 3 -2 3c-2 0 -3 0 -20 -7c-46 -19 -104 -40 -129 -45c-10 -2 -11 -3 -16 -15c-15 -35 -19 -69 -19 -106c0 -12 1 -15 1 -19c0 -3 -1 -4 -5 -7c-9 -7 -18 -23 -40 -23c-3 0 -13 1 -23 10
c-13 11 -18 20 -18 44c0 59 17 105 17 111c0 3 -1 5 -4 7c-17 12 -24 17 -24 30s11 48 15 54c2 4 7 6 17 6c23 0 24 -10 30 -10c2 0 3 1 6 7c72 144 149 285 249 449c14 23 16 26 20 26c6 0 16 2 25 6s18 6 34 6c18 0 33 -6 34 -10c1 -5 5 -11 5 -15c0 -7 -8 -47 -14 -73
c-6 -24 -5 -41 -8 -55c-16 -76 -34 -241 -34 -244c0 -4 1 -5 3 -5zM167 207c3 0 41 12 69 25l55 25c4 2 5 4 6 10c30 182 36 238 36 247c0 5 -1 8 -3 8s-5 -5 -25 -42c-52 -96 -89 -167 -129 -246c-10 -20 -12 -24 -12 -25s1 -2 3 -2zM438 781c-3 0 -4 0 -16 -6
c-44 -22 -59 -31 -66 -38c-3 -3 -9 -3 -15 -3c-11 0 -17 0 -23 10c-2 3 -6 3 -6 14c0 3 1 23 5 33c3 8 5 8 7 11c4 6 6 8 46 25l73 31c7 3 15 3 19 3c13 0 19 0 23 -9c2 -4 5 -3 8 -11l41 -103c6 -15 6 -16 6 -23c0 -13 -7 -14 -11 -21c-6 -11 -11 -11 -23 -11
c-10 0 -16 0 -23 14l-38 74c-4 9 -5 10 -7 10z" />
    <glyph glyph-name="Atilde" unicode="&#xc3;" horiz-adv-x="416" 
d="M389 296c2 0 15 2 34 2c32 0 49 -7 56 -19c3 -5 4 -7 4 -8c0 -3 0 -9 -4 -16c-10 -18 -26 -24 -66 -26c-16 -1 -27 -7 -30 -10c-7 -6 -8 -8 -10 -27l-11 -92c-1 -7 -2 -36 -4 -63c-1 -18 -1 -25 -1 -35c0 -53 9 -69 9 -74c0 -8 -3 -11 -17 -25c-4 -4 -8 -4 -17 -4
c-23 0 -39 6 -48 19c-7 10 -9 37 -9 71c0 33 2 59 10 136c4 38 4 42 4 46c0 2 -1 3 -2 3c-2 0 -3 0 -20 -7c-46 -19 -104 -40 -129 -45c-10 -2 -11 -3 -16 -15c-15 -35 -19 -69 -19 -106c0 -12 1 -15 1 -19c0 -3 -1 -4 -5 -7c-9 -7 -18 -23 -40 -23c-3 0 -13 1 -23 10
c-13 11 -18 20 -18 44c0 59 17 105 17 111c0 3 -1 5 -4 7c-17 12 -24 17 -24 30s11 48 15 54c2 4 7 6 17 6c23 0 24 -10 30 -10c2 0 3 1 6 7c72 144 149 285 249 449c14 23 16 26 20 26c6 0 16 2 25 6s18 6 34 6c18 0 33 -6 34 -10c1 -5 5 -11 5 -15c0 -7 -8 -47 -14 -73
c-6 -24 -5 -41 -8 -55c-16 -76 -34 -241 -34 -244c0 -4 1 -5 3 -5zM167 207c3 0 41 12 69 25l55 25c4 2 5 4 6 10c30 182 36 238 36 247c0 5 -1 8 -3 8s-5 -5 -25 -42c-52 -96 -89 -167 -129 -246c-10 -20 -12 -24 -12 -25s1 -2 3 -2zM483 794c4 0 10 2 25 8
c33 13 34 13 44 13c14 0 21 -7 22 -19c1 -14 1 -19 1 -22s-1 -5 -8 -10c-11 -8 -19 -15 -41 -28c-28 -16 -34 -16 -52 -16c-25 0 -47 7 -61 46c-9 24 -10 24 -14 24s-17 -8 -21 -11c-13 -9 -15 -9 -26 -9c-22 0 -34 4 -34 14c0 15 -3 18 -3 32c0 8 2 17 7 19l52 23
c23 10 36 10 43 10c13 0 31 -5 45 -39c13 -33 15 -35 21 -35z" />
    <glyph glyph-name="Adieresis" unicode="&#xc4;" horiz-adv-x="416" 
d="M389 296c2 0 15 2 34 2c32 0 49 -7 56 -19c3 -5 4 -7 4 -8c0 -3 0 -9 -4 -16c-10 -18 -26 -24 -66 -26c-16 -1 -27 -7 -30 -10c-7 -6 -8 -8 -10 -27l-11 -92c-1 -7 -2 -36 -4 -63c-1 -18 -1 -25 -1 -35c0 -53 9 -69 9 -74c0 -8 -3 -11 -17 -25c-4 -4 -8 -4 -17 -4
c-23 0 -39 6 -48 19c-7 10 -9 37 -9 71c0 33 2 59 10 136c4 38 4 42 4 46c0 2 -1 3 -2 3c-2 0 -3 0 -20 -7c-46 -19 -104 -40 -129 -45c-10 -2 -11 -3 -16 -15c-15 -35 -19 -69 -19 -106c0 -12 1 -15 1 -19c0 -3 -1 -4 -5 -7c-9 -7 -18 -23 -40 -23c-3 0 -13 1 -23 10
c-13 11 -18 20 -18 44c0 59 17 105 17 111c0 3 -1 5 -4 7c-17 12 -24 17 -24 30s11 48 15 54c2 4 7 6 17 6c23 0 24 -10 30 -10c2 0 3 1 6 7c72 144 149 285 249 449c14 23 16 26 20 26c6 0 16 2 25 6s18 6 34 6c18 0 33 -6 34 -10c1 -5 5 -11 5 -15c0 -7 -8 -47 -14 -73
c-6 -24 -5 -41 -8 -55c-16 -76 -34 -241 -34 -244c0 -4 1 -5 3 -5zM167 207c3 0 41 12 69 25l55 25c4 2 5 4 6 10c30 182 36 238 36 247c0 5 -1 8 -3 8s-5 -5 -25 -42c-52 -96 -89 -167 -129 -246c-10 -20 -12 -24 -12 -25s1 -2 3 -2zM332 839c24 0 34 -3 38 -14
c3 -8 7 -20 7 -28c0 -26 -13 -34 -21 -52c-5 -12 -18 -17 -37 -17c-24 0 -26 0 -31 10c-7 15 -8 11 -8 19c0 5 0 17 1 25c1 10 11 36 13 40c6 13 13 17 38 17zM539 781c1 -9 7 -22 7 -33c0 -10 0 -11 -9 -29c-14 -27 -18 -27 -48 -27c-17 0 -23 2 -28 20
c-4 13 -12 19 -12 34c0 8 1 14 7 29c10 24 14 25 29 25c5 0 11 -1 19 -1c5 0 33 -1 35 -18z" />
    <glyph glyph-name="Aring" unicode="&#xc5;" horiz-adv-x="416" 
d="M389 296c2 0 15 2 34 2c32 0 49 -7 56 -19c3 -5 4 -7 4 -8c0 -3 0 -9 -4 -16c-10 -18 -26 -24 -66 -26c-16 -1 -27 -7 -30 -10c-7 -6 -8 -8 -10 -27l-11 -92c-1 -7 -2 -36 -4 -63c-1 -18 -1 -25 -1 -35c0 -53 9 -69 9 -74c0 -8 -3 -11 -17 -25c-4 -4 -8 -4 -17 -4
c-23 0 -39 6 -48 19c-7 10 -9 37 -9 71c0 33 2 59 10 136c4 38 4 42 4 46c0 2 -1 3 -2 3c-2 0 -3 0 -20 -7c-46 -19 -104 -40 -129 -45c-10 -2 -11 -3 -16 -15c-15 -35 -19 -69 -19 -106c0 -12 1 -15 1 -19c0 -3 -1 -4 -5 -7c-9 -7 -18 -23 -40 -23c-3 0 -13 1 -23 10
c-13 11 -18 20 -18 44c0 59 17 105 17 111c0 3 -1 5 -4 7c-17 12 -24 17 -24 30s11 48 15 54c2 4 7 6 17 6c23 0 24 -10 30 -10c2 0 3 1 6 7c47 93 137 251 231 419c14 25 17 26 21 26c6 0 21 3 28 6c9 4 23 6 39 6c18 0 36 -6 37 -10c1 -5 5 -11 5 -15c0 -7 -6 -37 -12 -63
c-6 -24 -5 -41 -8 -55c-16 -76 -30 -221 -30 -224c0 -4 1 -5 3 -5zM167 207c3 0 41 12 69 25l55 25c4 2 5 4 6 10c30 182 32 217 32 226c0 5 -1 8 -3 8s-5 -5 -25 -42c-52 -96 -85 -146 -125 -225c-10 -20 -12 -24 -12 -25s1 -2 3 -2zM470 855c27 -21 29 -29 29 -56
c0 -20 -4 -48 -27 -88c-8 -14 -22 -30 -56 -30c-33 0 -56 9 -64 19c-15 18 -19 35 -19 51c0 21 29 93 57 107c6 3 22 7 39 7c20 0 33 -4 41 -10zM408 724c1 0 2 0 5 7l9 18c12 23 14 35 14 41c0 7 -1 16 -4 25c-2 6 -3 6 -4 6s-3 -3 -5 -6c-14 -22 -24 -40 -24 -65
c0 -17 5 -26 9 -26z" />
    <glyph glyph-name="AE" unicode="&#xc6;" horiz-adv-x="597" 
d="M303 206c-1 0 -2 0 -10 -3c-47 -18 -99 -29 -139 -41c-10 -3 -14 -8 -18 -17c-13 -29 -27 -69 -36 -101c-5 -18 -8 -37 -8 -42c0 -2 0 -3 -4 -6c-3 -2 -8 -9 -9 -13c-2 -9 -4 -14 -21 -14c-25 0 -41 4 -44 8c-6 8 -13 19 -13 33c0 8 1 19 7 40c5 19 20 57 33 85
c4 9 5 13 5 14s-1 3 -4 3c-16 0 -28 6 -28 14c0 2 2 34 12 53c9 17 10 19 15 20c3 1 9 1 16 1c10 0 20 -1 28 -1c4 0 8 1 18 18c89 151 221 312 281 399c13 19 15 21 20 21s20 4 30 7c6 2 15 4 29 4c26 0 34 -7 36 -11c2 -3 4 -10 4 -12c0 -6 -11 -36 -11 -40
c0 -1 0 -3 2 -3c6 0 15 2 42 10c34 10 77 17 129 17c12 0 25 -4 27 -4c19 0 32 -22 46 -50c3 -6 3 -11 3 -16c0 -7 -3 -11 -9 -17s-10 -8 -29 -8c-9 0 -11 1 -18 6c-4 3 -9 5 -13 5c-13 0 -15 4 -21 4c-26 0 -57 -5 -89 -14c-36 -10 -58 -18 -87 -28c-8 -3 -9 -3 -13 -20
c-9 -39 -22 -88 -30 -125c-5 -24 -6 -31 -6 -32c0 -2 1 -2 2 -2s4 1 9 3c18 7 69 19 112 19c23 0 40 -4 50 -13c6 -5 13 -23 13 -45c0 -5 -1 -16 -21 -16c-5 0 -10 -3 -25 -3c-13 0 -16 2 -20 2s-19 0 -46 -10c-14 -5 -50 -19 -79 -33c-14 -7 -15 -9 -17 -17
c-10 -44 -29 -135 -34 -184c-1 -9 -2 -17 -2 -22c0 -12 7 -21 10 -21c8 0 28 6 42 13c16 8 38 22 51 28c29 13 58 47 92 62c14 6 19 7 32 7c4 0 9 0 21 -6c20 -10 31 -16 31 -26c0 -5 0 -8 -2 -12c-3 -7 -22 -22 -42 -36c-51 -36 -92 -59 -109 -67c-41 -19 -88 -33 -155 -33
c-31 0 -48 16 -56 34c-4 9 -5 14 -5 25c0 4 0 11 1 25c2 33 11 95 23 161c3 16 3 18 3 20s-1 3 -2 3zM200 257c1 0 4 1 12 4c19 7 65 24 99 39c18 8 19 11 22 25c14 66 40 162 47 186c4 14 4 16 4 17c0 2 -1 2 -2 2s-2 -1 -9 -11c-56 -79 -110 -151 -161 -235
c-12 -20 -14 -24 -14 -25s0 -2 2 -2z" />
    <glyph glyph-name="Ccedilla" unicode="&#xc7;" horiz-adv-x="386" 
d="M175 -26c0 -1 0 -2 2 -7c1 -3 2 -7 2 -20c0 -23 -9 -41 -17 -55c-28 -46 -51 -61 -84 -61c-5 0 -30 0 -54 14c-17 10 -27 16 -38 35c-3 5 -4 10 -4 16c0 8 10 23 17 27c4 2 9 2 11 2c15 0 12 -3 17 -4c11 -2 14 -12 14 -15c0 -4 4 -9 8 -13c3 -3 8 -4 12 -4
c3 0 10 2 20 14c8 9 17 27 26 46c5 10 6 23 6 26c0 2 0 7 -1 9c-1 3 -3 6 -12 12c-27 18 -54 52 -54 73v32c0 8 0 13 1 29c2 38 13 89 17 100c59 162 144 336 273 426c10 7 48 18 74 18c31 0 49 -11 52 -18c6 -15 35 -38 35 -68c0 -7 0 -12 -9 -34c-14 -35 -30 -70 -35 -88
c-3 -10 -10 -18 -33 -18c-13 0 -24 1 -32 4c-6 2 -23 14 -23 30c0 10 4 23 9 32c8 15 20 28 24 48c2 10 12 17 12 34c0 4 0 9 -3 9s-11 -4 -26 -13c-11 -7 -20 -13 -31 -25c-34 -35 -56 -67 -100 -135c-49 -76 -89 -176 -120 -269c-3 -9 -6 -49 -6 -59c0 -18 3 -27 8 -34
l15 -20c4 -6 8 -9 12 -9c12 0 35 13 57 30c31 24 66 59 98 96c11 13 12 14 17 17c4 3 16 3 25 3h10c6 0 19 -1 23 -4s8 -9 11 -16s4 -11 4 -15c0 -6 -5 -7 -12 -15c-32 -36 -62 -76 -97 -107c-33 -29 -66 -52 -116 -53c-4 0 -5 -1 -5 -3z" />
    <glyph glyph-name="Egrave" unicode="&#xc8;" horiz-adv-x="414" 
d="M175 490c-13 0 -16 0 -23 4c-11 6 -18 37 -18 50c0 3 1 5 6 7l15 5c47 16 91 37 133 56c33 15 139 52 229 52c24 0 30 -4 39 -11c14 -11 31 -28 31 -46c0 -13 -3 -19 -14 -19c-10 0 -7 -6 -25 -6c-25 0 -17 10 -39 10c-28 0 -94 -8 -181 -44c-12 -5 -14 -6 -18 -17
c-11 -30 -27 -70 -41 -106c-8 -21 -10 -25 -10 -27c0 -1 0 -2 2 -2c1 0 3 1 13 6c6 3 28 12 43 17c18 6 36 9 55 9c30 0 47 -7 66 -21c7 -5 9 -14 9 -24c0 -14 -5 -18 -27 -25c-3 -1 -9 -2 -25 -2c-20 0 -15 2 -27 2c-11 0 -28 -4 -68 -21c-54 -23 -59 -25 -73 -30
c-6 -2 -7 -3 -12 -14c-41 -89 -75 -179 -75 -220c0 -16 8 -28 13 -28c15 0 41 9 56 17c40 21 49 23 56 27c21 12 45 31 65 45c22 15 43 28 78 28c10 0 11 0 16 -6c10 -12 21 -19 21 -29c0 -6 -2 -10 -6 -12s-14 -8 -19 -14c-6 -7 -14 -14 -27 -23c-16 -11 -86 -54 -115 -66
c-44 -18 -95 -32 -153 -32c-14 0 -16 0 -35 11c-12 7 -26 17 -32 30c-3 6 -4 19 -4 31c0 4 0 7 1 20c6 83 40 153 65 225c-4 7 -8 15 -8 32c0 4 0 8 3 13c2 4 6 5 23 11c9 3 11 5 14 14c5 14 33 76 43 108c4 13 4 14 4 15c0 2 -1 2 -2 2c-2 0 -4 -2 -22 -2zM297 868
c3 0 7 -3 11 -9c4 -5 10 -11 31 -30l77 -69c12 -11 18 -18 18 -24c0 -10 -4 -18 -7 -31c-2 -9 -4 -14 -21 -14c-15 0 -22 2 -31 9l-77 67c-10 8 -34 23 -51 33c-5 3 -7 8 -7 17c0 23 1 28 11 41c5 6 11 13 27 13c14 0 15 -3 19 -3z" />
    <glyph glyph-name="Eacute" unicode="&#xc9;" horiz-adv-x="414" 
d="M175 490c-13 0 -16 0 -23 4c-11 6 -18 37 -18 50c0 3 1 5 6 7l15 5c47 16 91 37 133 56c33 15 139 52 229 52c24 0 30 -4 39 -11c14 -11 31 -28 31 -46c0 -13 -3 -19 -14 -19c-10 0 -7 -6 -25 -6c-25 0 -17 10 -39 10c-28 0 -94 -8 -181 -44c-12 -5 -14 -6 -18 -17
c-11 -30 -27 -70 -41 -106c-8 -21 -10 -25 -10 -27c0 -1 0 -2 2 -2c1 0 3 1 13 6c6 3 28 12 43 17c18 6 36 9 55 9c30 0 47 -7 66 -21c7 -5 9 -14 9 -24c0 -14 -5 -18 -27 -25c-3 -1 -9 -2 -25 -2c-20 0 -15 2 -27 2c-11 0 -28 -4 -68 -21c-54 -23 -59 -25 -73 -30
c-6 -2 -7 -3 -12 -14c-41 -89 -75 -179 -75 -220c0 -16 8 -28 13 -28c15 0 41 9 56 17c40 21 49 23 56 27c21 12 45 31 65 45c22 15 43 28 78 28c10 0 11 0 16 -6c10 -12 21 -19 21 -29c0 -6 -2 -10 -6 -12s-14 -8 -19 -14c-6 -7 -14 -14 -27 -23c-16 -11 -86 -54 -115 -66
c-44 -18 -95 -32 -153 -32c-14 0 -16 0 -35 11c-12 7 -26 17 -32 30c-3 6 -4 19 -4 31c0 4 0 7 1 20c6 83 40 153 65 225c-4 7 -8 15 -8 32c0 4 0 8 3 13c2 4 6 5 23 11c9 3 11 5 14 14c5 14 33 76 43 108c4 13 4 14 4 15c0 2 -1 2 -2 2c-2 0 -4 -2 -22 -2zM296 706
c3 1 9 4 18 12l62 52c13 11 28 25 48 48c10 12 28 14 32 14c5 0 20 -4 25 -18c4 -11 5 -20 5 -28c0 -19 -8 -25 -50 -56l-79 -58c-12 -9 -27 -15 -37 -15c-8 0 -13 4 -26 15c-7 6 -9 9 -9 15s2 16 11 19z" />
    <glyph glyph-name="Ecircumflex" unicode="&#xca;" horiz-adv-x="414" 
d="M175 490c-13 0 -16 0 -23 4c-11 6 -18 37 -18 50c0 3 1 5 6 7l15 5c47 16 91 37 133 56c33 15 139 52 229 52c24 0 30 -4 39 -11c14 -11 31 -28 31 -46c0 -13 -3 -19 -14 -19c-10 0 -7 -6 -25 -6c-25 0 -17 10 -39 10c-28 0 -94 -8 -181 -44c-12 -5 -14 -6 -18 -17
c-11 -30 -27 -70 -41 -106c-8 -21 -10 -25 -10 -27c0 -1 0 -2 2 -2c1 0 3 1 13 6c6 3 28 12 43 17c18 6 36 9 55 9c30 0 47 -7 66 -21c7 -5 9 -14 9 -24c0 -14 -5 -18 -27 -25c-3 -1 -9 -2 -25 -2c-20 0 -15 2 -27 2c-11 0 -28 -4 -68 -21c-54 -23 -59 -25 -73 -30
c-6 -2 -7 -3 -12 -14c-41 -89 -75 -179 -75 -220c0 -16 8 -28 13 -28c15 0 41 9 56 17c40 21 49 23 56 27c21 12 45 31 65 45c22 15 43 28 78 28c10 0 11 0 16 -6c10 -12 21 -19 21 -29c0 -6 -2 -10 -6 -12s-14 -8 -19 -14c-6 -7 -14 -14 -27 -23c-16 -11 -86 -54 -115 -66
c-44 -18 -95 -32 -153 -32c-14 0 -16 0 -35 11c-12 7 -26 17 -32 30c-3 6 -4 19 -4 31c0 4 0 7 1 20c6 83 40 153 65 225c-4 7 -8 15 -8 32c0 4 0 8 3 13c2 4 6 5 23 11c9 3 11 5 14 14c5 14 33 76 43 108c4 13 4 14 4 15c0 2 -1 2 -2 2c-2 0 -4 -2 -22 -2zM389 768
c-2 0 -4 -1 -12 -8c-28 -24 -67 -59 -73 -68c-5 -7 -12 -8 -19 -8c-21 0 -16 3 -23 8c-6 4 -12 10 -12 23c0 16 1 20 3 26c1 3 4 5 8 12c3 5 5 6 48 40l73 57c8 6 16 9 26 9c8 0 15 0 17 -3c3 -4 4 -2 8 -10l43 -88c6 -13 7 -15 7 -23c0 -10 -6 -14 -9 -21
c-5 -12 -13 -12 -22 -12c-12 0 -16 1 -22 10l-34 49c-4 5 -5 7 -7 7z" />
    <glyph glyph-name="Edieresis" unicode="&#xcb;" horiz-adv-x="414" 
d="M175 490c-13 0 -16 0 -23 4c-11 6 -18 37 -18 50c0 3 1 5 6 7l15 5c47 16 91 37 133 56c33 15 139 52 229 52c24 0 30 -4 39 -11c14 -11 31 -28 31 -46c0 -13 -3 -19 -14 -19c-10 0 -7 -6 -25 -6c-25 0 -17 10 -39 10c-28 0 -94 -8 -181 -44c-12 -5 -14 -6 -18 -17
c-11 -30 -27 -70 -41 -106c-8 -21 -10 -25 -10 -27c0 -1 0 -2 2 -2c1 0 3 1 13 6c6 3 28 12 43 17c18 6 36 9 55 9c30 0 47 -7 66 -21c7 -5 9 -14 9 -24c0 -14 -5 -18 -27 -25c-3 -1 -9 -2 -25 -2c-20 0 -15 2 -27 2c-11 0 -28 -4 -68 -21c-54 -23 -59 -25 -73 -30
c-6 -2 -7 -3 -12 -14c-41 -89 -75 -179 -75 -220c0 -16 8 -28 13 -28c15 0 41 9 56 17c40 21 49 23 56 27c21 12 45 31 65 45c22 15 43 28 78 28c10 0 11 0 16 -6c10 -12 21 -19 21 -29c0 -6 -2 -10 -6 -12s-14 -8 -19 -14c-6 -7 -14 -14 -27 -23c-16 -11 -86 -54 -115 -66
c-44 -18 -95 -32 -153 -32c-14 0 -16 0 -35 11c-12 7 -26 17 -32 30c-3 6 -4 19 -4 31c0 4 0 7 1 20c6 83 40 153 65 225c-4 7 -8 15 -8 32c0 4 0 8 3 13c2 4 6 5 23 11c9 3 11 5 14 14c5 14 33 76 43 108c4 13 4 14 4 15c0 2 -1 2 -2 2c-2 0 -4 -2 -22 -2zM302 833
c24 0 34 -3 38 -14c3 -8 7 -20 7 -28c0 -26 -13 -34 -21 -52c-5 -12 -18 -17 -37 -17c-24 0 -26 0 -31 10c-7 15 -8 11 -8 19c0 5 0 17 1 25c1 10 11 36 13 40c6 13 13 17 38 17zM499 805c1 -9 7 -22 7 -33c0 -10 0 -11 -9 -29c-14 -27 -18 -27 -48 -27c-17 0 -23 2 -28 20
c-4 13 -12 19 -12 34c0 8 1 14 7 29c10 24 14 25 29 25c5 0 11 -1 19 -1c5 0 33 -1 35 -18z" />
    <glyph glyph-name="Igrave" unicode="&#xcc;" horiz-adv-x="211" 
d="M99 -26c-12 0 -11 -19 -27 -19c-11 0 -8 8 -20 10c-15 3 -18 14 -24 16c-4 1 -5 3 -5 5c0 6 12 59 21 76c3 6 5 12 8 23c43 158 93 289 143 441c9 29 17 30 38 99c3 10 13 13 42 13c26 0 51 -15 51 -29c0 -25 -6 -47 -29 -70c-2 -2 -4 -6 -11 -24
c-54 -140 -101 -287 -151 -437c-7 -21 -7 -24 -7 -25v-10c0 -22 -7 -34 -16 -60c-2 -6 -3 -9 -13 -9zM227 844c3 0 7 -3 11 -9c4 -5 10 -11 31 -30l77 -69c12 -11 18 -18 18 -24c0 -10 -4 -18 -7 -31c-2 -9 -4 -14 -21 -14c-15 0 -22 2 -31 9l-77 67c-10 8 -34 23 -51 33
c-5 3 -7 8 -7 17c0 23 1 28 11 41c5 6 11 13 27 13c14 0 15 -3 19 -3z" />
    <glyph glyph-name="Iacute" unicode="&#xcd;" horiz-adv-x="211" 
d="M99 -26c-12 0 -11 -19 -27 -19c-11 0 -8 8 -20 10c-15 3 -18 14 -24 16c-4 1 -5 3 -5 5c0 6 12 59 21 76c3 6 5 12 8 23c43 158 93 289 143 441c9 29 17 30 38 99c3 10 13 13 42 13c26 0 51 -15 51 -29c0 -25 -6 -47 -29 -70c-2 -2 -4 -6 -11 -24
c-54 -140 -101 -287 -151 -437c-7 -21 -7 -24 -7 -25v-10c0 -22 -7 -34 -16 -60c-2 -6 -3 -9 -13 -9zM269 744c3 0 10 2 20 7l74 34c15 7 34 16 59 33c9 6 16 6 24 6c7 0 14 0 23 -9c5 -5 7 -9 7 -16c0 -17 -1 -29 -7 -38c-7 -10 -21 -17 -59 -31l-92 -35
c-14 -5 -24 -5 -28 -5c-17 0 -19 2 -32 22c-5 8 -5 9 -5 13c0 3 3 19 16 19z" />
    <glyph glyph-name="Icircumflex" unicode="&#xce;" horiz-adv-x="211" 
d="M99 -26c-12 0 -11 -19 -27 -19c-11 0 -8 8 -20 10c-15 3 -18 14 -24 16c-4 1 -5 3 -5 5c0 6 12 59 21 76c3 6 5 12 8 23c43 158 93 289 143 441c9 29 17 30 38 99c3 10 13 13 42 13c26 0 51 -15 51 -29c0 -25 -6 -47 -29 -70c-2 -2 -4 -6 -11 -24
c-54 -140 -101 -287 -151 -437c-7 -21 -7 -24 -7 -25v-10c0 -22 -7 -34 -16 -60c-2 -6 -3 -9 -13 -9zM324 761c-3 0 -4 0 -16 -6c-44 -22 -59 -31 -66 -38c-3 -3 -9 -3 -15 -3c-11 0 -17 0 -23 10c-2 3 -6 3 -6 14c0 3 1 23 5 33c3 8 5 8 7 11c4 6 6 8 46 25l73 31
c7 3 15 3 19 3c13 0 19 0 23 -9c2 -4 5 -3 8 -11l41 -103c6 -15 6 -16 6 -23c0 -13 -7 -14 -11 -21c-6 -11 -11 -11 -23 -11c-10 0 -16 0 -23 14l-38 74c-4 9 -5 10 -7 10z" />
    <glyph glyph-name="Idieresis" unicode="&#xcf;" horiz-adv-x="211" 
d="M99 -26c-12 0 -11 -19 -27 -19c-11 0 -8 8 -20 10c-15 3 -18 14 -24 16c-4 1 -5 3 -5 5c0 6 12 59 21 76c3 6 5 12 8 23c43 158 93 289 143 441c9 29 17 30 38 99c3 10 13 13 42 13c26 0 51 -15 51 -29c0 -25 -6 -47 -29 -70c-2 -2 -4 -6 -11 -24
c-54 -140 -101 -287 -151 -437c-7 -21 -7 -24 -7 -25v-10c0 -22 -7 -34 -16 -60c-2 -6 -3 -9 -13 -9zM246 829c24 0 34 -3 38 -14c3 -8 7 -20 7 -28c0 -26 -13 -34 -21 -52c-5 -12 -18 -17 -37 -17c-24 0 -26 0 -31 10c-7 15 -8 11 -8 19c0 5 0 17 1 25c1 10 11 36 13 40
c6 13 13 17 38 17zM428 758c1 -9 7 -22 7 -33c0 -10 0 -11 -9 -29c-14 -27 -18 -27 -48 -27c-17 0 -23 2 -28 20c-4 13 -12 19 -12 34c0 8 1 14 7 29c10 24 14 25 29 25c5 0 11 -1 19 -1c5 0 33 -1 35 -18z" />
    <glyph glyph-name="Eth" unicode="&#xd0;" horiz-adv-x="466" 
d="M120 220c6 17 8 24 8 25c0 2 0 4 -3 4c-4 0 -16 -3 -33 -3c-2 0 -14 1 -14 10c0 12 6 43 21 60c12 13 14 14 55 21c6 1 8 4 12 15l21 56c12 31 13 33 13 36c0 1 -1 2 -2 2s-3 -1 -6 -3s-11 -5 -21 -5c-7 0 -23 1 -23 23c0 3 0 8 2 23c4 28 18 40 62 76
c46 38 113 75 181 75c33 0 67 -6 84 -23c19 -19 42 -33 58 -66c11 -22 13 -36 13 -58c0 -50 -13 -82 -30 -118c-7 -15 -6 -20 -16 -42c-58 -127 -122 -253 -212 -320c-20 -15 -44 -28 -50 -30c-12 -4 -23 -5 -35 -5c-30 0 -49 9 -53 9c-2 0 0 -5 -25 -5c-28 0 -46 21 -53 38
c-37 20 -62 37 -62 71c0 7 1 17 17 17c27 0 27 -3 38 -3c15 0 13 -2 16 -2c1 0 2 0 9 26c9 32 17 64 28 96zM216 254c-18 -48 -36 -104 -48 -158c-3 -13 -9 -42 -9 -46s0 -5 4 -7c3 -2 9 -3 16 -3c20 0 49 16 72 42c83 94 140 205 188 325c4 10 23 61 23 84c0 12 0 37 -5 48
c-12 26 -34 36 -42 36c-18 0 -53 -18 -73 -26c-5 -2 -5 -3 -5 -10s-4 -14 -6 -16c-4 -4 -8 -8 -13 -20l-50 -118c-10 -23 -13 -30 -13 -33c0 -2 2 -2 5 -2c2 0 8 1 21 4c12 3 26 5 35 5c7 0 8 -2 10 -7c2 -6 3 -16 3 -27c0 -5 -1 -10 -3 -15c-6 -16 -8 -15 -15 -29
c-4 -7 -8 -8 -75 -16c-16 -2 -17 -3 -20 -11z" />
    <glyph glyph-name="Ntilde" unicode="&#xd1;" horiz-adv-x="486" 
d="M560 640c10 0 15 -5 21 -14c8 -11 10 -17 10 -20c0 -6 -2 -19 -10 -34l-16 -43c-48 -136 -90 -295 -169 -499c-7 -18 -8 -21 -19 -32c-20 -20 -25 -21 -43 -21c-9 0 -18 0 -36 11c-26 16 -34 36 -38 60c-13 80 -18 195 -21 283c-3 84 -3 85 -6 85c-4 0 -6 -10 -18 -47
c-55 -169 -79 -270 -90 -342c-4 -26 -5 -34 -5 -36c0 -5 -6 -18 -39 -18c-35 0 -30 7 -39 12c-6 3 -10 7 -10 15c0 35 103 360 110 384l16 54l41 153c4 15 17 9 17 17c0 18 -7 25 -7 50c0 13 0 14 7 18c8 5 25 11 57 11c11 0 15 -1 18 -15c36 -171 19 -365 38 -542
c3 -28 4 -28 6 -28s3 1 13 26c40 101 77 225 111 334c9 29 13 36 18 55c9 34 10 73 20 107c7 23 8 23 26 23s28 -7 37 -7zM463 758c4 0 10 2 25 8c33 13 34 13 44 13c14 0 21 -7 22 -19c1 -14 1 -19 1 -22s-1 -5 -8 -10c-11 -8 -19 -15 -41 -28c-28 -16 -34 -16 -52 -16
c-25 0 -47 7 -61 46c-9 24 -10 24 -14 24s-17 -8 -21 -11c-13 -9 -15 -9 -26 -9c-22 0 -34 4 -34 14c0 15 -3 18 -3 32c0 8 2 17 7 19l52 23c23 10 36 10 43 10c13 0 31 -5 45 -39c13 -33 15 -35 21 -35z" />
    <glyph glyph-name="Ograve" unicode="&#xd2;" horiz-adv-x="400" 
d="M402 600c38 -47 45 -101 45 -152c0 -38 -3 -56 -13 -94c-31 -118 -70 -234 -128 -316c-29 -41 -70 -62 -123 -62c-27 0 -38 3 -55 10c-15 6 -32 26 -42 47c-12 26 -19 49 -19 80c0 54 4 197 119 382c38 61 65 97 104 124c13 9 17 12 29 12c25 0 45 -21 57 -21
c14 0 18 0 26 -10zM326 546c-4 0 -29 -28 -53 -62c-42 -60 -79 -130 -101 -204c-6 -20 -12 -41 -14 -60c-2 -17 -10 -53 -10 -80c0 -32 5 -57 15 -78c5 -11 14 -17 24 -17c13 0 40 17 50 35c47 84 74 148 100 242c16 57 25 107 25 152c0 29 -8 53 -29 64c-2 1 -4 4 -4 5
c0 2 -1 3 -3 3zM337 828c3 0 7 -3 11 -9c4 -5 10 -11 31 -30l77 -69c12 -11 18 -18 18 -24c0 -10 -4 -18 -7 -31c-2 -9 -4 -14 -21 -14c-15 0 -22 2 -31 9l-77 67c-10 8 -34 23 -51 33c-5 3 -7 8 -7 17c0 23 1 28 11 41c5 6 11 13 27 13c14 0 15 -3 19 -3z" />
    <glyph glyph-name="Oacute" unicode="&#xd3;" horiz-adv-x="400" 
d="M402 600c38 -47 45 -101 45 -152c0 -38 -3 -56 -13 -94c-31 -118 -70 -234 -128 -316c-29 -41 -70 -62 -123 -62c-27 0 -38 3 -55 10c-15 6 -32 26 -42 47c-12 26 -19 49 -19 80c0 54 4 197 119 382c38 61 65 97 104 124c13 9 17 12 29 12c25 0 45 -21 57 -21
c14 0 18 0 26 -10zM326 546c-4 0 -29 -28 -53 -62c-42 -60 -79 -130 -101 -204c-6 -20 -12 -41 -14 -60c-2 -17 -10 -53 -10 -80c0 -32 5 -57 15 -78c5 -11 14 -17 24 -17c13 0 40 17 50 35c47 84 74 148 100 242c16 57 25 107 25 152c0 29 -8 53 -29 64c-2 1 -4 4 -4 5
c0 2 -1 3 -3 3zM317 734c3 0 10 2 20 7l74 34c15 7 34 16 59 33c9 6 16 6 24 6c7 0 14 0 23 -9c5 -5 7 -9 7 -16c0 -17 -1 -29 -7 -38c-7 -10 -21 -17 -59 -31l-92 -35c-14 -5 -24 -5 -28 -5c-17 0 -19 2 -32 22c-5 8 -5 9 -5 13c0 3 3 19 16 19z" />
    <glyph glyph-name="Ocircumflex" unicode="&#xd4;" horiz-adv-x="400" 
d="M402 600c38 -47 45 -101 45 -152c0 -38 -3 -56 -13 -94c-31 -118 -70 -234 -128 -316c-29 -41 -70 -62 -123 -62c-27 0 -38 3 -55 10c-15 6 -32 26 -42 47c-12 26 -19 49 -19 80c0 54 4 197 119 382c38 61 65 97 104 124c13 9 17 12 29 12c25 0 45 -21 57 -21
c14 0 18 0 26 -10zM326 546c-4 0 -29 -28 -53 -62c-42 -60 -79 -130 -101 -204c-6 -20 -12 -41 -14 -60c-2 -17 -10 -53 -10 -80c0 -32 5 -57 15 -78c5 -11 14 -17 24 -17c13 0 40 17 50 35c47 84 74 148 100 242c16 57 25 107 25 152c0 29 -8 53 -29 64c-2 1 -4 4 -4 5
c0 2 -1 3 -3 3zM408 741c-3 0 -4 0 -16 -6c-44 -22 -59 -31 -66 -38c-3 -3 -9 -3 -15 -3c-11 0 -17 0 -23 10c-2 3 -6 3 -6 14c0 3 1 23 5 33c3 8 5 8 7 11c4 6 6 8 46 25l73 31c7 3 15 3 19 3c13 0 19 0 23 -9c2 -4 5 -3 8 -11l41 -103c6 -15 6 -16 6 -23
c0 -13 -7 -14 -11 -21c-6 -11 -11 -11 -23 -11c-10 0 -16 0 -23 14l-38 74c-4 9 -5 10 -7 10z" />
    <glyph glyph-name="Otilde" unicode="&#xd5;" horiz-adv-x="400" 
d="M402 600c38 -47 45 -101 45 -152c0 -38 -3 -56 -13 -94c-31 -118 -70 -234 -128 -316c-29 -41 -70 -62 -123 -62c-27 0 -38 3 -55 10c-15 6 -32 26 -42 47c-12 26 -19 49 -19 80c0 54 4 197 119 382c38 61 65 97 104 124c13 9 17 12 29 12c25 0 45 -21 57 -21
c14 0 18 0 26 -10zM326 546c-4 0 -29 -28 -53 -62c-42 -60 -79 -130 -101 -204c-6 -20 -12 -41 -14 -60c-2 -17 -10 -53 -10 -80c0 -32 5 -57 15 -78c5 -11 14 -17 24 -17c13 0 40 17 50 35c47 84 74 148 100 242c16 57 25 107 25 152c0 29 -8 53 -29 64c-2 1 -4 4 -4 5
c0 2 -1 3 -3 3zM447 736c4 0 10 2 25 8c33 13 34 13 44 13c14 0 21 -7 22 -19c1 -14 1 -19 1 -22s-1 -5 -8 -10c-11 -8 -19 -15 -41 -28c-28 -16 -34 -16 -52 -16c-25 0 -47 7 -61 46c-9 24 -10 24 -14 24s-17 -8 -21 -11c-13 -9 -15 -9 -26 -9c-22 0 -34 4 -34 14
c0 15 -3 18 -3 32c0 8 2 17 7 19l52 23c23 10 36 10 43 10c13 0 31 -5 45 -39c13 -33 15 -35 21 -35z" />
    <glyph glyph-name="Odieresis" unicode="&#xd6;" horiz-adv-x="400" 
d="M402 600c38 -47 45 -101 45 -152c0 -38 -3 -56 -13 -94c-31 -118 -70 -234 -128 -316c-29 -41 -70 -62 -123 -62c-27 0 -38 3 -55 10c-15 6 -32 26 -42 47c-12 26 -19 49 -19 80c0 54 4 197 119 382c38 61 65 97 104 124c13 9 17 12 29 12c25 0 45 -21 57 -21
c14 0 18 0 26 -10zM326 546c-4 0 -29 -28 -53 -62c-42 -60 -79 -130 -101 -204c-6 -20 -12 -41 -14 -60c-2 -17 -10 -53 -10 -80c0 -32 5 -57 15 -78c5 -11 14 -17 24 -17c13 0 40 17 50 35c47 84 74 148 100 242c16 57 25 107 25 152c0 29 -8 53 -29 64c-2 1 -4 4 -4 5
c0 2 -1 3 -3 3zM312 799c24 0 34 -3 38 -14c3 -8 7 -20 7 -28c0 -26 -13 -34 -21 -52c-5 -12 -18 -17 -37 -17c-24 0 -26 0 -31 10c-7 15 -8 11 -8 19c0 5 0 17 1 25c1 10 11 36 13 40c6 13 13 17 38 17zM504 723c1 -9 7 -22 7 -33c0 -10 0 -11 -9 -29
c-14 -27 -18 -27 -48 -27c-17 0 -23 2 -28 20c-4 13 -12 19 -12 34c0 8 1 14 7 29c10 24 14 25 29 25c5 0 11 -1 19 -1c5 0 33 -1 35 -18z" />
    <glyph glyph-name="multiply" unicode="&#xd7;" horiz-adv-x="480" 
d="M223 165c-26 -28 -65 -61 -87 -108c-8 -17 -12 -20 -28 -20c-5 0 -9 2 -16 2c-10 0 -12 1 -15 4c-6 6 -8 15 -10 17c-9 9 -11 13 -11 20c0 17 13 38 39 65l109 111c10 10 12 14 12 17c0 2 -1 8 -3 15c-8 27 -7 39 -9 50c-16 88 -21 96 -21 116c0 8 3 25 23 25h16
c17 0 22 0 30 -3c6 -2 4 -7 10 -10c7 -3 8 -10 8 -13c0 -29 0 -31 12 -107c2 -13 3 -14 4 -14c2 0 3 1 11 9c45 45 85 73 120 119c3 4 7 7 27 7c17 0 21 -4 31 -4c8 0 16 -3 20 -11s6 -15 6 -19c0 -5 -1 -8 -5 -13c-24 -29 -40 -39 -68 -61c-36 -28 -70 -64 -109 -103
c-14 -14 -15 -16 -15 -19s0 -5 4 -20c18 -69 33 -109 40 -123c9 -18 18 -37 18 -43s-4 -11 -19 -23c-5 -4 -8 -4 -15 -4s-15 0 -22 1c-6 1 -9 8 -14 8c-9 0 -13 1 -18 13c-20 46 -28 76 -39 121c-2 8 -2 9 -4 9c-1 0 -2 0 -12 -11z" />
    <glyph glyph-name="Oslash" unicode="&#xd8;" horiz-adv-x="440" 
d="M454 580c5 0 9 10 27 10c5 0 15 -2 19 -4c8 -4 10 -7 12 -13c3 -9 7 -7 7 -25c0 -10 -2 -15 -10 -22l-23 -19c-7 -6 -8 -8 -8 -11s0 -7 1 -15c1 -6 2 -21 2 -37c0 -12 0 -24 -1 -36c-2 -29 -43 -221 -136 -361c-26 -39 -61 -74 -139 -74c-35 0 -69 4 -92 33
c-3 4 -3 5 -5 5c-1 0 -2 -1 -5 -4c-6 -6 -8 -6 -10 -8c-3 -3 -4 -3 -17 -3c-4 0 -12 0 -19 2c-6 2 -5 8 -9 15s-7 13 -7 23c0 6 14 21 29 38c7 8 8 10 8 13c0 2 0 3 -1 9c-2 14 -2 24 -2 36s0 27 1 42c8 114 51 217 107 315c18 32 66 102 105 126c13 8 37 16 56 16
c24 0 21 -10 37 -10c4 0 7 3 20 3c11 0 18 -4 29 -14c6 -5 11 -12 16 -20s6 -10 8 -10zM393 395c-1 0 -2 -1 -12 -14c-67 -87 -131 -175 -196 -265c-16 -22 -16 -23 -16 -26s1 -8 4 -15c11 -29 26 -35 33 -35c17 0 43 8 61 39c44 77 92 175 116 265c10 37 11 45 11 47
s0 4 -1 4zM166 204c1 0 3 2 19 23l198 262c9 11 11 16 11 19c0 2 -1 6 -4 12c-7 14 -20 28 -28 28c-10 0 -13 0 -17 4c-2 2 -3 3 -5 3c-3 0 -5 -2 -12 -10c-64 -73 -112 -158 -143 -248c-19 -56 -20 -87 -20 -90c0 -2 0 -3 1 -3z" />
    <glyph glyph-name="Ugrave" unicode="&#xd9;" horiz-adv-x="488" 
d="M365 217c-57 -75 -118 -155 -174 -211c-7 -7 -10 -9 -17 -12c-9 -4 -18 -6 -29 -6c-7 0 -29 0 -40 16c-5 7 -14 13 -22 15c-9 3 -20 4 -20 25c0 25 0 42 1 56c4 61 19 120 31 157c38 116 87 229 129 344c4 11 7 17 10 23c13 26 19 27 34 27c11 0 21 -11 31 -14
c6 -2 16 -7 17 -13c2 -14 2 -19 2 -22c0 -2 -4 -16 -9 -29c-58 -151 -130 -284 -157 -428c-4 -21 -8 -50 -8 -55c0 -8 1 -9 3 -9s4 0 19 17c156 178 253 334 300 416c11 19 17 36 22 46c5 9 11 16 21 26c3 3 4 3 13 3c6 0 21 -3 27 -3c10 0 11 -1 15 -10l10 -22
c3 -6 4 -11 4 -13s-3 -10 -8 -24c-16 -44 -38 -70 -57 -122c-48 -131 -76 -258 -84 -395c-1 -17 -2 -29 -2 -30c0 -5 -1 -12 -20 -12c-13 0 -21 6 -26 8c-8 3 -17 10 -27 20c-4 4 -12 3 -12 18c0 6 2 14 3 19s4 5 6 18c11 69 17 129 27 171c3 13 3 16 3 18s-1 3 -2 3
c-2 0 -5 -4 -14 -16zM419 834c3 0 7 -3 11 -9c4 -5 10 -11 31 -30l77 -69c12 -11 18 -18 18 -24c0 -10 -4 -18 -7 -31c-2 -9 -4 -14 -21 -14c-15 0 -22 2 -31 9l-77 67c-10 8 -34 23 -51 33c-5 3 -7 8 -7 17c0 23 1 28 11 41c5 6 11 13 27 13c14 0 15 -3 19 -3z" />
    <glyph glyph-name="Uacute" unicode="&#xda;" horiz-adv-x="488" 
d="M365 217c-57 -75 -118 -155 -174 -211c-7 -7 -10 -9 -17 -12c-9 -4 -18 -6 -29 -6c-7 0 -29 0 -40 16c-5 7 -14 13 -22 15c-9 3 -20 4 -20 25c0 25 0 42 1 56c4 61 19 120 31 157c38 116 87 229 129 344c4 11 7 17 10 23c13 26 19 27 34 27c11 0 21 -11 31 -14
c6 -2 16 -7 17 -13c2 -14 2 -19 2 -22c0 -2 -4 -16 -9 -29c-58 -151 -130 -284 -157 -428c-4 -21 -8 -50 -8 -55c0 -8 1 -9 3 -9s4 0 19 17c156 178 253 334 300 416c11 19 17 36 22 46c5 9 11 16 21 26c3 3 4 3 13 3c6 0 21 -3 27 -3c10 0 11 -1 15 -10l10 -22
c3 -6 4 -11 4 -13s-3 -10 -8 -24c-16 -44 -38 -70 -57 -122c-48 -131 -76 -258 -84 -395c-1 -17 -2 -29 -2 -30c0 -5 -1 -12 -20 -12c-13 0 -21 6 -26 8c-8 3 -17 10 -27 20c-4 4 -12 3 -12 18c0 6 2 14 3 19s4 5 6 18c11 69 17 129 27 171c3 13 3 16 3 18s-1 3 -2 3
c-2 0 -5 -4 -14 -16zM419 726c3 0 10 2 20 7l74 34c15 7 34 16 59 33c9 6 16 6 24 6c7 0 14 0 23 -9c5 -5 7 -9 7 -16c0 -17 -1 -29 -7 -38c-7 -10 -21 -17 -59 -31l-92 -35c-14 -5 -24 -5 -28 -5c-17 0 -19 2 -32 22c-5 8 -5 9 -5 13c0 3 3 19 16 19z" />
    <glyph glyph-name="Ucircumflex" unicode="&#xdb;" horiz-adv-x="488" 
d="M365 217c-57 -75 -118 -155 -174 -211c-7 -7 -10 -9 -17 -12c-9 -4 -18 -6 -29 -6c-7 0 -29 0 -40 16c-5 7 -14 13 -22 15c-9 3 -20 4 -20 25c0 25 0 42 1 56c4 61 19 120 31 157c38 116 87 229 129 344c4 11 7 17 10 23c13 26 19 27 34 27c11 0 21 -11 31 -14
c6 -2 16 -7 17 -13c2 -14 2 -19 2 -22c0 -2 -4 -16 -9 -29c-58 -151 -130 -284 -157 -428c-4 -21 -8 -50 -8 -55c0 -8 1 -9 3 -9s4 0 19 17c156 178 253 334 300 416c11 19 17 36 22 46c5 9 11 16 21 26c3 3 4 3 13 3c6 0 21 -3 27 -3c10 0 11 -1 15 -10l10 -22
c3 -6 4 -11 4 -13s-3 -10 -8 -24c-16 -44 -38 -70 -57 -122c-48 -131 -76 -258 -84 -395c-1 -17 -2 -29 -2 -30c0 -5 -1 -12 -20 -12c-13 0 -21 6 -26 8c-8 3 -17 10 -27 20c-4 4 -12 3 -12 18c0 6 2 14 3 19s4 5 6 18c11 69 17 129 27 171c3 13 3 16 3 18s-1 3 -2 3
c-2 0 -5 -4 -14 -16zM476 759c-3 0 -4 0 -16 -6c-44 -22 -59 -31 -66 -38c-3 -3 -9 -3 -15 -3c-11 0 -17 0 -23 10c-2 3 -6 3 -6 14c0 3 1 23 5 33c3 8 5 8 7 11c4 6 6 8 46 25l73 31c7 3 15 3 19 3c13 0 19 0 23 -9c2 -4 5 -3 8 -11l41 -103c6 -15 6 -16 6 -23
c0 -13 -7 -14 -11 -21c-6 -11 -11 -11 -23 -11c-10 0 -16 0 -23 14l-38 74c-4 9 -5 10 -7 10z" />
    <glyph glyph-name="Udieresis" unicode="&#xdc;" horiz-adv-x="488" 
d="M365 217c-57 -75 -118 -155 -174 -211c-7 -7 -10 -9 -17 -12c-9 -4 -18 -6 -29 -6c-7 0 -29 0 -40 16c-5 7 -14 13 -22 15c-9 3 -20 4 -20 25c0 25 0 42 1 56c4 61 19 120 31 157c38 116 87 229 129 344c4 11 7 17 10 23c13 26 19 27 34 27c11 0 21 -11 31 -14
c6 -2 16 -7 17 -13c2 -14 2 -19 2 -22c0 -2 -4 -16 -9 -29c-58 -151 -130 -284 -157 -428c-4 -21 -8 -50 -8 -55c0 -8 1 -9 3 -9s4 0 19 17c156 178 253 334 300 416c11 19 17 36 22 46c5 9 11 16 21 26c3 3 4 3 13 3c6 0 21 -3 27 -3c10 0 11 -1 15 -10l10 -22
c3 -6 4 -11 4 -13s-3 -10 -8 -24c-16 -44 -38 -70 -57 -122c-48 -131 -76 -258 -84 -395c-1 -17 -2 -29 -2 -30c0 -5 -1 -12 -20 -12c-13 0 -21 6 -26 8c-8 3 -17 10 -27 20c-4 4 -12 3 -12 18c0 6 2 14 3 19s4 5 6 18c11 69 17 129 27 171c3 13 3 16 3 18s-1 3 -2 3
c-2 0 -5 -4 -14 -16zM404 819c24 0 34 -3 38 -14c3 -8 7 -20 7 -28c0 -26 -13 -34 -21 -52c-5 -12 -18 -17 -37 -17c-24 0 -26 0 -31 10c-7 15 -8 11 -8 19c0 5 0 17 1 25c1 10 11 36 13 40c6 13 13 17 38 17zM586 748c1 -9 7 -22 7 -33c0 -10 0 -11 -9 -29
c-14 -27 -18 -27 -48 -27c-17 0 -23 2 -28 20c-4 13 -12 19 -12 34c0 8 1 14 7 29c10 24 14 25 29 25c5 0 11 -1 19 -1c5 0 33 -1 35 -18z" />
    <glyph glyph-name="Yacute" unicode="&#xdd;" horiz-adv-x="410" 
d="M188 239c3 0 8 0 16 6c40 30 75 62 97 87c18 21 53 70 99 165c41 84 50 102 57 110c6 7 6 10 19 10c20 0 44 -7 54 -22c2 -3 6 -24 6 -30c0 -3 -3 -8 -13 -24c-122 -196 -210 -476 -276 -851c-3 -17 -7 -26 -7 -29c0 -8 0 -10 -13 -10s-15 3 -27 5c-20 3 -36 15 -37 27
c-1 9 -1 14 -1 23c0 27 9 61 20 101c12 44 15 65 19 83c23 104 55 215 88 322c-20 -21 -55 -44 -100 -44c-13 0 -14 0 -29 11c-10 7 -21 17 -31 29c-16 19 -27 41 -27 54c0 10 8 96 10 110s6 17 7 37c1 14 5 19 10 44c15 74 32 144 53 214c3 10 4 10 14 10
c28 0 52 -10 58 -10c3 0 8 -12 8 -22c0 -33 -11 -35 -22 -80c-22 -92 -48 -213 -56 -287c-3 -27 -3 -29 -3 -31c0 -6 1 -8 7 -8zM331 720c3 0 10 2 20 7l74 34c15 7 34 16 59 33c9 6 16 6 24 6c7 0 14 0 23 -9c5 -5 7 -9 7 -16c0 -17 -1 -29 -7 -38c-7 -10 -21 -17 -59 -31
l-92 -35c-14 -5 -24 -5 -28 -5c-17 0 -19 2 -32 22c-5 8 -5 9 -5 13c0 3 3 19 16 19z" />
    <glyph glyph-name="Thorn" unicode="&#xde;" horiz-adv-x="408" 
d="M329 566c4 2 25 11 43 16c21 6 44 10 67 10c34 0 47 -3 59 -19c11 -15 16 -32 16 -69c0 -33 -8 -68 -53 -150c-43 -78 -82 -128 -163 -203c-12 -11 -53 -19 -89 -19c-24 0 -33 2 -43 9c-2 1 -2 2 -4 2s-3 -1 -9 -22c-7 -23 -33 -104 -33 -126c0 -4 -3 -11 -9 -15
c-12 -8 -22 -8 -27 -8c-21 0 -22 2 -24 5c-4 6 -8 9 -17 14c-10 6 -11 8 -11 18c0 2 17 70 45 147c16 44 20 61 20 64c0 4 -1 5 -4 8c-7 7 -11 11 -11 20c0 13 3 10 7 15c14 17 24 27 32 27c2 0 3 0 5 5c12 32 20 51 26 73c2 8 2 9 2 10s-1 2 -3 3c-8 5 -15 16 -18 26
c-2 8 -4 5 -4 12c0 10 16 29 23 35s16 13 34 25c11 7 12 9 15 16c23 52 45 114 70 170c4 9 8 11 19 14c7 2 12 2 16 2c15 0 9 -6 31 -10c10 -2 18 -7 18 -19c0 -20 -13 -33 -15 -45c-1 -8 -2 -12 -8 -21c-10 -16 -12 -20 -12 -21s0 -2 2 -2c1 0 3 1 7 3zM239 209
c55 44 100 104 140 168c8 13 34 63 45 95c8 24 9 34 9 40c0 4 0 8 -9 8c-6 0 -12 -1 -16 -2c-48 -12 -94 -35 -138 -72c-21 -59 -56 -136 -77 -207l25 -28c5 -5 8 -7 11 -7s5 1 10 5z" />
    <glyph glyph-name="germandbls" unicode="&#xdf;" horiz-adv-x="355" 
d="M324 364c0 -2 1 -2 5 -2c33 0 45 -27 45 -60c0 -16 -1 -57 -38 -142c-36 -82 -69 -141 -130 -170c-17 -8 -32 -10 -46 -10c-25 0 -44 6 -66 28c-7 7 -9 9 -11 9c-3 0 -4 -2 -10 -20c-25 -76 -72 -225 -82 -295c-2 -14 -13 -23 -23 -27c-12 -5 -22 -13 -35 -13
c-4 0 -11 1 -16 5l-9 8c-2 2 -2 5 -2 10c0 7 0 13 1 27c2 34 20 69 29 101c2 7 6 10 14 42c12 50 102 299 136 392c18 49 62 157 82 208c4 10 6 13 12 18c5 4 6 5 13 20c11 24 53 86 73 107c35 37 59 59 102 59c31 0 38 -16 51 -21s27 -10 27 -30c0 -13 0 -15 -11 -39
c-6 -13 1 -16 -38 -89c-19 -36 -35 -64 -63 -102c-9 -12 -10 -13 -10 -14zM282 294c-3 0 -4 -1 -11 -8c-11 -11 -24 -21 -36 -34c-37 -40 -52 -45 -73 -45c-12 0 -13 -1 -16 -10c-7 -21 -9 -27 -25 -66c-4 -10 -11 -30 -11 -32c0 -3 2 -4 8 -4c18 0 28 -4 39 -35
c4 -11 7 -16 13 -16c7 0 8 1 20 13c28 28 48 61 69 109c9 21 29 77 29 110c0 15 -4 18 -6 18zM360 587c0 1 -1 2 -2 2s-8 -6 -11 -8c-16 -12 -34 -36 -38 -41c-29 -37 -45 -67 -64 -114c-11 -27 -16 -27 -19 -27c-1 0 -2 0 -5 -6c-11 -23 -27 -69 -27 -70c0 -2 1 -2 2 -2
s3 0 15 13c62 66 109 160 132 213c15 34 17 39 17 40z" />
    <glyph glyph-name="agrave" unicode="&#xe0;" horiz-adv-x="382" 
d="M262 130c-3 0 -28 -27 -49 -50c-32 -35 -59 -58 -90 -71c-21 -9 -23 -9 -31 -9c-9 0 -12 0 -24 9c-9 7 -20 18 -36 37c-8 10 -15 23 -15 46c0 24 6 78 58 161c42 67 89 118 125 149c34 30 112 82 160 82c25 0 43 -12 55 -29c4 -6 7 -13 9 -20c2 -6 10 -19 16 -19
c21 0 25 -14 25 -20c0 -4 -1 -7 -3 -10c-39 -59 -86 -135 -108 -212c-10 -35 -18 -74 -18 -100c0 -21 6 -46 10 -56s4 -11 4 -13s-3 -12 -17 -15c-5 -1 -12 -4 -23 -4c-23 0 -40 10 -43 21c-6 21 -8 42 -8 63c0 31 5 54 5 57c0 2 0 3 -2 3zM366 419c-5 0 -10 -1 -30 -14
c-73 -48 -135 -104 -180 -167c-37 -51 -69 -112 -69 -142c0 -17 3 -20 6 -20c4 0 7 1 13 5c9 6 16 12 26 23c80 87 163 149 211 245c8 16 16 27 26 37c2 2 5 8 5 16c0 12 -5 17 -8 17zM413 664c3 0 7 -3 11 -9c4 -5 10 -11 31 -30l77 -69c12 -11 18 -18 18 -24
c0 -10 -4 -18 -7 -31c-2 -9 -4 -14 -21 -14c-15 0 -22 2 -31 9l-77 67c-10 8 -34 23 -51 33c-5 3 -7 8 -7 17c0 23 1 28 11 41c5 6 11 13 27 13c14 0 15 -3 19 -3z" />
    <glyph glyph-name="aacute" unicode="&#xe1;" horiz-adv-x="382" 
d="M262 130c-3 0 -28 -27 -49 -50c-32 -35 -59 -58 -90 -71c-21 -9 -23 -9 -31 -9c-9 0 -12 0 -24 9c-9 7 -20 18 -36 37c-8 10 -15 23 -15 46c0 24 6 78 58 161c42 67 89 118 125 149c34 30 112 82 160 82c25 0 43 -12 55 -29c4 -6 7 -13 9 -20c2 -6 10 -19 16 -19
c21 0 25 -14 25 -20c0 -4 -1 -7 -3 -10c-39 -59 -86 -135 -108 -212c-10 -35 -18 -74 -18 -100c0 -21 6 -46 10 -56s4 -11 4 -13s-3 -12 -17 -15c-5 -1 -12 -4 -23 -4c-23 0 -40 10 -43 21c-6 21 -8 42 -8 63c0 31 5 54 5 57c0 2 0 3 -2 3zM366 419c-5 0 -10 -1 -30 -14
c-73 -48 -135 -104 -180 -167c-37 -51 -69 -112 -69 -142c0 -17 3 -20 6 -20c4 0 7 1 13 5c9 6 16 12 26 23c80 87 163 149 211 245c8 16 16 27 26 37c2 2 5 8 5 16c0 12 -5 17 -8 17zM375 588c3 0 10 2 20 7l74 34c15 7 34 16 59 33c9 6 16 6 24 6c7 0 14 0 23 -9
c5 -5 7 -9 7 -16c0 -17 -1 -29 -7 -38c-7 -10 -21 -17 -59 -31l-92 -35c-14 -5 -24 -5 -28 -5c-17 0 -19 2 -32 22c-5 8 -5 9 -5 13c0 3 3 19 16 19z" />
    <glyph glyph-name="acircumflex" unicode="&#xe2;" horiz-adv-x="382" 
d="M262 130c-3 0 -28 -27 -49 -50c-32 -35 -59 -58 -90 -71c-21 -9 -23 -9 -31 -9c-9 0 -12 0 -24 9c-9 7 -20 18 -36 37c-8 10 -15 23 -15 46c0 24 6 78 58 161c42 67 89 118 125 149c34 30 112 82 160 82c25 0 43 -12 55 -29c4 -6 7 -13 9 -20c2 -6 10 -19 16 -19
c21 0 25 -14 25 -20c0 -4 -1 -7 -3 -10c-39 -59 -86 -135 -108 -212c-10 -35 -18 -74 -18 -100c0 -21 6 -46 10 -56s4 -11 4 -13s-3 -12 -17 -15c-5 -1 -12 -4 -23 -4c-23 0 -40 10 -43 21c-6 21 -8 42 -8 63c0 31 5 54 5 57c0 2 0 3 -2 3zM366 419c-5 0 -10 -1 -30 -14
c-73 -48 -135 -104 -180 -167c-37 -51 -69 -112 -69 -142c0 -17 3 -20 6 -20c4 0 7 1 13 5c9 6 16 12 26 23c80 87 163 149 211 245c8 16 16 27 26 37c2 2 5 8 5 16c0 12 -5 17 -8 17zM464 589c-3 0 -4 0 -16 -6c-44 -22 -59 -31 -66 -38c-3 -3 -9 -3 -15 -3
c-11 0 -17 0 -23 10c-2 3 -6 3 -6 14c0 3 1 23 5 33c3 8 5 8 7 11c4 6 6 8 46 25l73 31c7 3 15 3 19 3c13 0 19 0 23 -9c2 -4 5 -3 8 -11l41 -103c6 -15 6 -16 6 -23c0 -13 -7 -14 -11 -21c-6 -11 -11 -11 -23 -11c-10 0 -16 0 -23 14l-38 74c-4 9 -5 10 -7 10z" />
    <glyph glyph-name="atilde" unicode="&#xe3;" horiz-adv-x="382" 
d="M262 130c-3 0 -28 -27 -49 -50c-32 -35 -59 -58 -90 -71c-21 -9 -23 -9 -31 -9c-9 0 -12 0 -24 9c-9 7 -20 18 -36 37c-8 10 -15 23 -15 46c0 24 6 78 58 161c42 67 89 118 125 149c34 30 112 82 160 82c25 0 43 -12 55 -29c4 -6 7 -13 9 -20c2 -6 10 -19 16 -19
c21 0 25 -14 25 -20c0 -4 -1 -7 -3 -10c-39 -59 -86 -135 -108 -212c-10 -35 -18 -74 -18 -100c0 -21 6 -46 10 -56s4 -11 4 -13s-3 -12 -17 -15c-5 -1 -12 -4 -23 -4c-23 0 -40 10 -43 21c-6 21 -8 42 -8 63c0 31 5 54 5 57c0 2 0 3 -2 3zM366 419c-5 0 -10 -1 -30 -14
c-73 -48 -135 -104 -180 -167c-37 -51 -69 -112 -69 -142c0 -17 3 -20 6 -20c4 0 7 1 13 5c9 6 16 12 26 23c80 87 163 149 211 245c8 16 16 27 26 37c2 2 5 8 5 16c0 12 -5 17 -8 17zM515 590c4 0 10 2 25 8c33 13 34 13 44 13c14 0 21 -7 22 -19c1 -14 1 -19 1 -22
s-1 -5 -8 -10c-11 -8 -19 -15 -41 -28c-28 -16 -34 -16 -52 -16c-25 0 -47 7 -61 46c-9 24 -10 24 -14 24s-17 -8 -21 -11c-13 -9 -15 -9 -26 -9c-22 0 -34 4 -34 14c0 15 -3 18 -3 32c0 8 2 17 7 19l52 23c23 10 36 10 43 10c13 0 31 -5 45 -39c13 -33 15 -35 21 -35z" />
    <glyph glyph-name="adieresis" unicode="&#xe4;" horiz-adv-x="382" 
d="M262 130c-3 0 -28 -27 -49 -50c-32 -35 -59 -58 -90 -71c-21 -9 -23 -9 -31 -9c-9 0 -12 0 -24 9c-9 7 -20 18 -36 37c-8 10 -15 23 -15 46c0 24 6 78 58 161c42 67 89 118 125 149c34 30 112 82 160 82c25 0 43 -12 55 -29c4 -6 7 -13 9 -20c2 -6 10 -19 16 -19
c21 0 25 -14 25 -20c0 -4 -1 -7 -3 -10c-39 -59 -86 -135 -108 -212c-10 -35 -18 -74 -18 -100c0 -21 6 -46 10 -56s4 -11 4 -13s-3 -12 -17 -15c-5 -1 -12 -4 -23 -4c-23 0 -40 10 -43 21c-6 21 -8 42 -8 63c0 31 5 54 5 57c0 2 0 3 -2 3zM366 419c-5 0 -10 -1 -30 -14
c-73 -48 -135 -104 -180 -167c-37 -51 -69 -112 -69 -142c0 -17 3 -20 6 -20c4 0 7 1 13 5c9 6 16 12 26 23c80 87 163 149 211 245c8 16 16 27 26 37c2 2 5 8 5 16c0 12 -5 17 -8 17zM359 671c24 0 34 -3 38 -14c3 -8 7 -20 7 -28c0 -26 -13 -34 -21 -52
c-5 -12 -18 -17 -37 -17c-24 0 -26 0 -31 10c-7 15 -8 11 -8 19c0 5 0 17 1 25c1 10 11 36 13 40c6 13 13 17 38 17zM541 600c1 -9 7 -22 7 -33c0 -10 0 -11 -9 -29c-13 -26 -18 -27 -48 -27c-17 0 -23 2 -28 20c-4 13 -12 19 -12 34c0 8 1 14 7 29c10 24 14 25 29 25
c5 0 11 -1 19 -1c5 0 33 -1 35 -18z" />
    <glyph glyph-name="aring" unicode="&#xe5;" horiz-adv-x="382" 
d="M262 130c-3 0 -28 -27 -49 -50c-32 -35 -59 -58 -90 -71c-21 -9 -23 -9 -31 -9c-9 0 -12 0 -24 9c-9 7 -20 18 -36 37c-8 10 -15 23 -15 46c0 24 6 78 58 161c42 67 89 118 125 149c34 30 112 82 160 82c25 0 43 -12 55 -29c4 -6 7 -13 9 -20c2 -6 10 -19 16 -19
c21 0 25 -14 25 -20c0 -4 -1 -7 -3 -10c-39 -59 -86 -135 -108 -212c-10 -35 -18 -74 -18 -100c0 -21 6 -46 10 -56s4 -11 4 -13s-3 -12 -17 -15c-5 -1 -12 -4 -23 -4c-23 0 -40 10 -43 21c-6 21 -8 42 -8 63c0 31 5 54 5 57c0 2 0 3 -2 3zM366 419c-5 0 -10 -1 -30 -14
c-73 -48 -135 -104 -180 -167c-37 -51 -69 -112 -69 -142c0 -17 3 -20 6 -20c4 0 7 1 13 5c9 6 16 12 26 23c80 87 163 149 211 245c8 16 16 27 26 37c2 2 5 8 5 16c0 12 -5 17 -8 17zM526 673c27 -21 29 -29 29 -56c0 -20 -4 -48 -27 -88c-8 -14 -22 -30 -56 -30
c-33 0 -56 9 -64 19c-15 18 -19 35 -19 51c0 21 29 93 57 107c6 3 22 7 39 7c20 0 33 -4 41 -10zM464 542c1 0 2 0 5 7l9 18c12 23 14 35 14 41c0 7 -1 16 -4 25c-2 6 -3 6 -4 6s-3 -3 -5 -6c-14 -22 -24 -40 -24 -65c0 -17 5 -26 9 -26z" />
    <glyph glyph-name="ae" unicode="&#xe6;" horiz-adv-x="505" 
d="M221 83c-1 0 -2 -1 -9 -11c-8 -11 -26 -32 -36 -40c-19 -16 -50 -34 -81 -34c-12 0 -17 2 -24 7c-8 6 -32 25 -36 29c-5 5 -18 27 -18 65c0 22 4 61 48 145c30 57 59 99 96 140c24 27 63 63 89 80c33 22 65 38 92 38c18 0 32 -3 40 -10c5 -4 6 -4 7 -4c2 0 3 0 5 4l11 19
c2 4 9 4 16 4c11 0 29 -11 33 -11s9 2 16 5s22 7 36 7c22 0 37 -4 47 -18c6 -9 13 -21 13 -48c0 -38 -25 -92 -36 -109c-50 -78 -157 -204 -221 -236c-4 -2 -6 -6 -6 -18c0 -22 5 -32 20 -32c9 0 18 3 31 9c17 8 36 20 48 29c45 36 77 70 120 106c20 17 42 33 60 33
c8 0 11 0 15 -4c8 -8 8 -11 8 -16c0 -9 -3 -23 -9 -29c-31 -31 -24 -28 -76 -81c-29 -30 -62 -57 -117 -90c-22 -13 -47 -21 -83 -21c-25 0 -46 5 -54 8c-31 12 -43 34 -43 76v5c0 1 0 3 -2 3zM352 439c-5 0 -9 -2 -44 -27c-81 -60 -159 -143 -199 -250
c-10 -27 -20 -58 -20 -72c0 -16 1 -22 10 -22c7 0 22 6 29 14c31 36 67 77 90 101c36 38 88 132 103 163l26 55c9 20 11 25 11 29c0 6 -1 9 -6 9zM374 251c33 39 64 82 84 115c17 28 28 56 28 75c0 7 0 10 -2 10c-3 0 -7 -3 -16 -13c-37 -42 -78 -110 -108 -171
c-16 -33 -24 -51 -24 -53c0 -1 0 -2 2 -2s3 1 36 39z" />
    <glyph glyph-name="ccedilla" unicode="&#xe7;" horiz-adv-x="285" 
d="M94 -3c-30 6 -54 34 -58 46c-5 15 -7 27 -7 40c0 24 10 48 19 86c3 13 12 38 20 54c49 99 110 209 177 247c7 4 11 5 20 5c38 0 70 -17 89 -43c3 -4 3 -6 3 -8c0 -4 -1 -6 -1 -12s1 -7 1 -9s0 -3 -2 -9c-5 -16 -27 -52 -31 -84c-1 -8 -2 -15 -6 -18c-6 -5 -8 -5 -21 -5
c-7 0 -17 1 -23 7l-20 19c-6 6 -7 15 -7 20c0 19 23 49 23 59c0 3 -2 3 -3 3s-2 0 -12 -12c-27 -33 -70 -99 -97 -149c-23 -43 -57 -124 -57 -157c0 -3 1 -15 10 -15c23 0 59 23 103 62c9 8 35 29 56 45c17 13 33 23 54 23c8 0 15 0 26 -13c4 -5 7 -12 7 -14
c0 -4 -3 -6 -3 -10c0 -5 -1 -8 -8 -11c-14 -6 -42 -28 -87 -71c-37 -35 -67 -60 -95 -71c-5 -2 -6 -3 -6 -4c0 -2 1 -3 3 -4c8 -5 10 -16 10 -25c0 -19 -13 -47 -21 -58c-22 -30 -47 -47 -84 -47c-19 0 -41 5 -58 18c-14 11 -23 24 -23 33c0 7 0 10 11 24c4 5 9 6 19 6
c12 0 14 -2 17 -6c4 -5 6 -5 11 -13s10 -10 13 -10c4 0 8 0 20 12c7 7 11 13 25 38c6 11 7 15 7 19s0 9 -14 12z" />
    <glyph glyph-name="egrave" unicode="&#xe8;" horiz-adv-x="301" 
d="M154 56c4 0 10 1 55 28c58 35 94 90 145 128c9 7 15 7 26 7c17 0 21 -11 21 -17c0 -7 -2 -12 -2 -16s0 -9 -5 -14c-39 -39 -58 -88 -188 -175c-15 -10 -20 -10 -37 -10c-11 0 -27 1 -38 7c-17 9 -44 24 -50 29c-13 11 -39 37 -39 132c0 17 0 21 7 46
c29 102 88 189 155 270c15 18 47 46 97 46c25 0 41 -5 55 -11c9 -4 22 -22 22 -50c0 -17 -1 -40 -23 -84c-13 -26 -19 -34 -29 -47c-73 -95 -125 -160 -192 -207c-10 -7 -13 -10 -13 -18c0 -15 10 -32 16 -36c8 -6 12 -8 17 -8zM153 264c-12 -27 -17 -42 -17 -44
c0 -1 0 -2 2 -2c1 0 3 2 25 25c33 35 64 75 92 113c12 16 15 29 22 41c9 15 17 31 17 42c0 4 -1 6 -4 6s-14 -8 -18 -12c-39 -39 -94 -112 -119 -169zM299 738c3 0 7 -3 11 -9c4 -5 10 -11 31 -30l77 -69c12 -11 18 -18 18 -24c0 -10 -4 -18 -7 -31c-2 -9 -4 -14 -21 -14
c-15 0 -22 2 -31 9l-77 67c-10 8 -34 23 -51 33c-5 3 -7 8 -7 17c0 23 1 28 11 41c5 6 11 13 27 13c14 0 15 -3 19 -3z" />
    <glyph glyph-name="eacute" unicode="&#xe9;" horiz-adv-x="301" 
d="M154 56c4 0 10 1 55 28c58 35 94 90 145 128c9 7 15 7 26 7c17 0 21 -11 21 -17c0 -7 -2 -12 -2 -16s0 -9 -5 -14c-39 -39 -58 -88 -188 -175c-15 -10 -20 -10 -37 -10c-11 0 -27 1 -38 7c-17 9 -44 24 -50 29c-13 11 -39 37 -39 132c0 17 0 21 7 46
c29 102 88 189 155 270c15 18 47 46 97 46c25 0 41 -5 55 -11c9 -4 22 -22 22 -50c0 -17 -1 -40 -23 -84c-13 -26 -19 -34 -29 -47c-73 -95 -125 -160 -192 -207c-10 -7 -13 -10 -13 -18c0 -15 10 -32 16 -36c8 -6 12 -8 17 -8zM153 264c-12 -27 -17 -42 -17 -44
c0 -1 0 -2 2 -2c1 0 3 2 25 25c33 35 64 75 92 113c12 16 15 29 22 41c9 15 17 31 17 42c0 4 -1 6 -4 6s-14 -8 -18 -12c-39 -39 -94 -112 -119 -169zM317 632c3 0 10 2 20 7l74 34c15 7 34 16 59 33c9 6 16 6 24 6c7 0 14 0 23 -9c5 -5 7 -9 7 -16c0 -17 -1 -29 -7 -38
c-7 -10 -21 -17 -59 -31l-92 -35c-14 -5 -24 -5 -28 -5c-17 0 -19 2 -32 22c-5 8 -5 9 -5 13c0 3 3 19 16 19z" />
    <glyph glyph-name="ecircumflex" unicode="&#xea;" horiz-adv-x="301" 
d="M154 56c4 0 10 1 55 28c58 35 94 90 145 128c9 7 15 7 26 7c17 0 21 -11 21 -17c0 -7 -2 -12 -2 -16s0 -9 -5 -14c-39 -39 -58 -88 -188 -175c-15 -10 -20 -10 -37 -10c-11 0 -27 1 -38 7c-17 9 -44 24 -50 29c-13 11 -39 37 -39 132c0 17 0 21 7 46
c29 102 88 189 155 270c15 18 47 46 97 46c25 0 41 -5 55 -11c9 -4 22 -22 22 -50c0 -17 -1 -40 -23 -84c-13 -26 -19 -34 -29 -47c-73 -95 -125 -160 -192 -207c-10 -7 -13 -10 -13 -18c0 -15 10 -32 16 -36c8 -6 12 -8 17 -8zM153 264c-12 -27 -17 -42 -17 -44
c0 -1 0 -2 2 -2c1 0 3 2 25 25c33 35 64 75 92 113c12 16 15 29 22 41c9 15 17 31 17 42c0 4 -1 6 -4 6s-14 -8 -18 -12c-39 -39 -94 -112 -119 -169zM372 637c-3 0 -4 0 -16 -6c-44 -22 -59 -31 -66 -38c-3 -3 -9 -3 -15 -3c-11 0 -17 0 -23 10c-2 3 -6 3 -6 14
c0 3 1 23 5 33c3 8 5 8 7 11c4 6 6 8 46 25l73 31c7 3 15 3 19 3c13 0 19 0 23 -9c2 -4 5 -3 8 -11l41 -103c6 -15 6 -16 6 -23c0 -13 -7 -14 -11 -21c-6 -11 -11 -11 -23 -11c-10 0 -16 0 -23 14l-38 74c-4 9 -5 10 -7 10z" />
    <glyph glyph-name="edieresis" unicode="&#xeb;" horiz-adv-x="301" 
d="M154 56c4 0 10 1 55 28c58 35 94 90 145 128c9 7 15 7 26 7c17 0 21 -11 21 -17c0 -7 -2 -12 -2 -16s0 -9 -5 -14c-39 -39 -58 -88 -188 -175c-15 -10 -20 -10 -37 -10c-11 0 -27 1 -38 7c-17 9 -44 24 -50 29c-13 11 -39 37 -39 132c0 17 0 21 7 46
c29 102 88 189 155 270c15 18 47 46 97 46c25 0 41 -5 55 -11c9 -4 22 -22 22 -50c0 -17 -1 -40 -23 -84c-13 -26 -19 -34 -29 -47c-73 -95 -125 -160 -192 -207c-10 -7 -13 -10 -13 -18c0 -15 10 -32 16 -36c8 -6 12 -8 17 -8zM153 264c-12 -27 -17 -42 -17 -44
c0 -1 0 -2 2 -2c1 0 3 2 25 25c33 35 64 75 92 113c12 16 15 29 22 41c9 15 17 31 17 42c0 4 -1 6 -4 6s-14 -8 -18 -12c-39 -39 -94 -112 -119 -169zM316 723c24 0 34 -3 38 -14c3 -8 7 -20 7 -28c0 -26 -13 -34 -21 -52c-5 -12 -18 -17 -37 -17c-24 0 -26 0 -31 10
c-7 15 -8 11 -8 19c0 5 0 17 1 25c1 10 11 36 13 40c6 13 13 17 38 17zM498 652c1 -9 7 -22 7 -33c0 -10 0 -11 -9 -29c-13 -26 -18 -27 -48 -27c-17 0 -23 2 -28 20c-4 13 -12 19 -12 34c0 8 1 14 7 29c10 24 14 25 29 25c5 0 11 -1 19 -1c5 0 33 -1 35 -18z" />
    <glyph glyph-name="igrave" unicode="&#xec;" horiz-adv-x="184" 
d="M118 66c8 0 22 6 51 32c20 18 28 23 46 23c25 0 33 -7 33 -19c0 -11 -7 -20 -15 -29l-36 -39c-18 -19 -48 -48 -94 -48c-39 0 -64 58 -64 93c0 55 12 92 19 109c8 19 12 38 17 50c30 72 57 144 92 221c9 20 25 28 50 28c9 0 24 0 32 -8c3 -3 5 -7 5 -12
c0 -54 -38 -81 -59 -131c-16 -37 -43 -105 -57 -142c-21 -57 -27 -96 -27 -110c0 -16 4 -18 7 -18zM191 694c3 0 7 -3 11 -9c4 -5 10 -11 31 -30l77 -69c12 -11 18 -18 18 -24c0 -10 -4 -18 -7 -31c-2 -9 -4 -14 -21 -14c-15 0 -22 2 -31 9l-77 67c-10 8 -34 23 -51 33
c-5 3 -7 8 -7 17c0 23 1 28 11 41c5 6 11 13 27 13c14 0 15 -3 19 -3z" />
    <glyph glyph-name="iacute" unicode="&#xed;" horiz-adv-x="184" 
d="M116 66c8 0 22 6 51 32c20 18 28 23 46 23c25 0 33 -7 33 -19c0 -11 -7 -20 -15 -29l-36 -39c-18 -19 -48 -48 -94 -48c-39 0 -64 58 -64 93c0 55 12 92 19 109c8 19 12 38 17 50c30 72 57 144 92 221c9 20 25 28 50 28c9 0 24 0 32 -8c3 -3 5 -7 5 -12
c0 -54 -38 -81 -59 -131c-16 -37 -43 -105 -57 -142c-21 -57 -27 -96 -27 -110c0 -16 4 -18 7 -18zM213 602c3 0 10 2 20 7l74 34c15 7 34 16 59 33c9 6 16 6 24 6c7 0 14 0 23 -9c5 -5 7 -9 7 -16c0 -17 -1 -29 -7 -38c-7 -10 -21 -17 -59 -31l-92 -35
c-14 -5 -24 -5 -28 -5c-17 0 -19 2 -32 22c-5 8 -5 9 -5 13c0 3 3 19 16 19z" />
    <glyph glyph-name="icircumflex" unicode="&#xee;" horiz-adv-x="184" 
d="M118 66c8 0 22 6 51 32c20 18 28 23 46 23c25 0 33 -7 33 -19c0 -11 -7 -20 -15 -29l-36 -39c-18 -19 -48 -48 -94 -48c-39 0 -64 58 -64 93c0 55 12 92 19 109c8 19 12 38 17 50c30 72 57 144 92 221c9 20 25 28 50 28c9 0 24 0 32 -8c3 -3 5 -7 5 -12
c0 -54 -38 -81 -59 -131c-16 -37 -43 -105 -57 -142c-21 -57 -27 -96 -27 -110c0 -16 4 -18 7 -18zM258 603c-3 0 -4 0 -16 -6c-44 -22 -59 -31 -66 -38c-3 -3 -9 -3 -15 -3c-11 0 -17 0 -23 10c-2 3 -6 3 -6 14c0 3 1 23 5 33c3 8 5 8 7 11c4 6 6 8 46 25l73 31
c7 3 15 3 19 3c13 0 19 0 23 -9c2 -4 5 -3 8 -11l41 -103c6 -15 6 -16 6 -23c0 -13 -7 -14 -11 -21c-6 -11 -11 -11 -23 -11c-10 0 -16 0 -23 14l-38 74c-4 9 -5 10 -7 10z" />
    <glyph glyph-name="idieresis" unicode="&#xef;" horiz-adv-x="184" 
d="M118 66c8 0 22 6 51 32c20 18 28 23 46 23c25 0 33 -7 33 -19c0 -11 -7 -20 -15 -29l-36 -39c-18 -19 -48 -48 -94 -48c-39 0 -64 58 -64 93c0 55 12 92 19 109c8 19 12 38 17 50c30 72 57 144 92 221c9 20 25 28 50 28c9 0 24 0 32 -8c3 -3 5 -7 5 -12
c0 -54 -38 -81 -59 -131c-16 -37 -43 -105 -57 -142c-21 -57 -27 -96 -27 -110c0 -16 4 -18 7 -18zM190 705c24 0 34 -3 38 -14c3 -8 7 -20 7 -28c0 -26 -13 -34 -21 -52c-5 -12 -18 -17 -37 -17c-24 0 -26 0 -31 10c-7 15 -8 11 -8 19c0 5 0 17 1 25c1 10 11 36 13 40
c6 13 13 17 38 17zM372 634c1 -9 7 -22 7 -33c0 -10 0 -11 -9 -29c-13 -26 -18 -27 -48 -27c-17 0 -23 2 -28 20c-4 13 -12 19 -12 34c0 8 1 14 7 29c10 24 14 25 29 25c5 0 11 -1 19 -1c5 0 33 -1 35 -18z" />
    <glyph glyph-name="eth" unicode="&#xf0;" horiz-adv-x="328" 
d="M314 632c15 10 21 14 34 25c14 11 16 12 29 12c9 0 14 0 23 -9c5 -5 9 -11 9 -20c0 -14 -16 -25 -17 -32c-1 -8 -6 -12 -49 -38c-10 -6 -13 -8 -13 -10c0 -1 0 -2 2 -9c17 -61 23 -105 23 -156c0 -9 0 -35 -2 -59c-6 -77 -41 -210 -114 -294c-13 -15 -23 -27 -35 -39
c-10 -10 -26 -21 -50 -21c-46 0 -40 9 -56 17c-26 13 -41 24 -48 50c-6 21 -8 45 -8 62c0 23 4 58 8 77c11 53 40 122 64 158l35 52c21 32 43 47 76 47c24 0 34 -4 47 -17c2 -2 4 -4 5 -4s2 0 2 4c0 2 -2 40 -13 79c-3 11 -4 14 -5 14s-3 -1 -16 -9c-5 -3 -18 -12 -28 -20
c-21 -17 -27 -17 -39 -17c-5 0 -9 0 -12 4c-6 9 -8 17 -8 24c0 22 5 21 14 35c5 8 43 34 53 40c8 5 10 6 10 7c0 4 -4 13 -28 48c-16 23 -28 38 -33 44c-9 11 -11 14 -11 22c0 25 5 29 16 31c5 1 9 14 29 14c14 0 15 0 35 -18c16 -14 20 -20 20 -23c0 -2 -1 -4 -1 -6
s0 -3 11 -21l24 -42c4 -8 5 -8 6 -8s2 0 11 6zM236 383c-3 0 -15 -4 -30 -29c-53 -88 -73 -132 -83 -197c-5 -33 -5 -43 -5 -58c0 -31 14 -47 23 -47c5 0 13 5 28 21c64 69 95 173 99 218c-6 2 -10 5 -11 15c-4 35 -8 57 -13 68c-4 8 -5 9 -8 9z" />
    <glyph glyph-name="ntilde" unicode="&#xf1;" horiz-adv-x="344" 
d="M210 130c-19 -27 -43 -63 -50 -75c-9 -16 -15 -24 -20 -29c-7 -6 -12 -11 -17 -17c-7 -8 -12 -14 -41 -14c-12 0 -20 3 -38 20c-24 22 -28 32 -28 43c0 30 8 48 13 72c3 17 18 58 30 87l20 49c28 68 50 117 90 184c6 10 7 15 13 21c8 8 14 11 37 11c29 0 35 -7 38 -15
c2 -5 4 -11 4 -16c0 -18 -12 -41 -22 -52c-12 -13 -32 -42 -56 -88c-13 -25 -35 -72 -68 -155c-4 -10 -14 -43 -14 -45c0 -3 2 -3 3 -3c2 0 4 2 29 39c97 143 147 179 165 221c7 16 12 27 18 34s12 8 21 8c19 0 21 -9 35 -12c12 -3 15 -12 15 -27c0 -3 -4 -16 -9 -25
c-33 -59 -50 -97 -67 -147c-5 -15 -16 -84 -16 -90c0 -18 3 -25 4 -44c1 -17 20 -30 26 -36c7 -7 10 -12 10 -23c0 -2 -2 -9 -6 -14c-7 -8 -11 -10 -25 -10c-26 0 -44 8 -48 14c-9 13 -19 18 -29 36c-6 11 -10 29 -10 47c0 11 2 35 4 46c1 6 2 12 2 13c0 2 0 4 -3 4
c-1 0 -2 -1 -10 -12zM403 596c4 0 10 2 25 8c33 13 34 13 44 13c14 0 21 -7 22 -19c1 -14 1 -19 1 -22s-1 -5 -8 -10c-11 -8 -19 -15 -41 -28c-28 -16 -34 -16 -52 -16c-25 0 -47 7 -61 46c-9 24 -10 24 -14 24s-17 -8 -21 -11c-13 -9 -15 -9 -26 -9c-22 0 -34 4 -34 14
c0 15 -3 18 -3 32c0 8 2 17 7 19l52 23c23 10 36 10 43 10c13 0 31 -5 45 -39c13 -33 15 -35 21 -35z" />
    <glyph glyph-name="ograve" unicode="&#xf2;" horiz-adv-x="302" 
d="M333 335c-4 0 -5 -3 -6 -7c-27 -107 -62 -200 -118 -268c-18 -22 -21 -25 -28 -32c-20 -20 -32 -28 -56 -28c-12 0 -21 2 -27 6c-28 18 -51 44 -56 62c-6 21 -6 43 -6 62c0 35 2 44 6 64c12 61 53 139 73 169l31 48c27 41 59 85 104 85c23 0 37 -4 50 -19
c6 -7 9 -13 10 -17c4 -18 5 -22 12 -37c5 -11 14 -17 19 -17c23 0 42 3 66 3c37 0 57 -11 57 -27c0 -12 -19 -14 -25 -22c-2 -3 -4 -4 -9 -5c-17 -3 -40 -13 -61 -17c-10 -2 -25 -3 -36 -3zM123 75c3 0 6 2 10 6c5 5 8 11 16 24c46 76 86 142 99 225c4 25 5 47 5 52
c0 8 -7 17 -9 24c-2 8 -3 8 -4 8s-2 0 -5 -3c-4 -4 -10 -9 -12 -12c-11 -17 -78 -109 -107 -212c-4 -14 -12 -52 -12 -71c0 -6 1 -14 7 -25c8 -15 9 -16 12 -16zM253 688c3 0 7 -3 11 -9c4 -5 10 -11 31 -30l77 -69c12 -11 18 -18 18 -24c0 -10 -4 -18 -7 -31
c-2 -9 -4 -14 -21 -14c-15 0 -22 2 -31 9l-77 67c-10 8 -34 23 -51 33c-5 3 -7 8 -7 17c0 23 1 28 11 41c5 6 11 13 27 13c14 0 15 -3 19 -3z" />
    <glyph glyph-name="oacute" unicode="&#xf3;" horiz-adv-x="302" 
d="M333 335c-4 0 -5 -3 -6 -7c-27 -107 -62 -200 -118 -268c-18 -22 -21 -25 -28 -32c-20 -20 -32 -28 -56 -28c-12 0 -21 2 -27 6c-28 18 -51 44 -56 62c-6 21 -6 43 -6 62c0 35 2 44 6 64c12 61 53 139 73 169l31 48c27 41 59 85 104 85c23 0 37 -4 50 -19
c6 -7 9 -13 10 -17c4 -18 5 -22 12 -37c5 -11 14 -17 19 -17c23 0 42 3 66 3c37 0 57 -11 57 -27c0 -12 -19 -14 -25 -22c-2 -3 -4 -4 -9 -5c-17 -3 -40 -13 -61 -17c-10 -2 -25 -3 -36 -3zM123 75c3 0 6 2 10 6c5 5 8 11 16 24c46 76 86 142 99 225c4 25 5 47 5 52
c0 8 -7 17 -9 24c-2 8 -3 8 -4 8s-2 0 -5 -3c-4 -4 -10 -9 -12 -12c-11 -17 -78 -109 -107 -212c-4 -14 -12 -52 -12 -71c0 -6 1 -14 7 -25c8 -15 9 -16 12 -16zM243 604c3 0 10 2 20 7l74 34c15 7 34 16 59 33c9 6 16 6 24 6c7 0 14 0 23 -9c5 -5 7 -9 7 -16
c0 -17 -1 -29 -7 -38c-7 -10 -21 -17 -59 -31l-92 -35c-14 -5 -24 -5 -28 -5c-17 0 -19 2 -32 22c-5 8 -5 9 -5 13c0 3 3 19 16 19z" />
    <glyph glyph-name="ocircumflex" unicode="&#xf4;" horiz-adv-x="302" 
d="M333 335c-4 0 -5 -3 -6 -7c-27 -107 -62 -200 -118 -268c-18 -22 -21 -25 -28 -32c-20 -20 -32 -28 -56 -28c-12 0 -21 2 -27 6c-28 18 -51 44 -56 62c-6 21 -6 43 -6 62c0 35 2 44 6 64c12 61 53 139 73 169l31 48c27 41 59 85 104 85c23 0 37 -4 50 -19
c6 -7 9 -13 10 -17c4 -18 5 -22 12 -37c5 -11 14 -17 19 -17c23 0 42 3 66 3c37 0 57 -11 57 -27c0 -12 -19 -14 -25 -22c-2 -3 -4 -4 -9 -5c-17 -3 -40 -13 -61 -17c-10 -2 -25 -3 -36 -3zM123 75c3 0 6 2 10 6c5 5 8 11 16 24c46 76 86 142 99 225c4 25 5 47 5 52
c0 8 -7 17 -9 24c-2 8 -3 8 -4 8s-2 0 -5 -3c-4 -4 -10 -9 -12 -12c-11 -17 -78 -109 -107 -212c-4 -14 -12 -52 -12 -71c0 -6 1 -14 7 -25c8 -15 9 -16 12 -16zM296 605c-3 0 -4 0 -16 -6c-44 -22 -59 -31 -66 -38c-3 -3 -9 -3 -15 -3c-11 0 -17 0 -23 10c-2 3 -6 3 -6 14
c0 3 1 23 5 33c3 8 5 8 7 11c4 6 6 8 46 25l73 31c7 3 15 3 19 3c13 0 19 0 23 -9c2 -4 5 -3 8 -11l41 -103c6 -15 6 -16 6 -23c0 -13 -7 -14 -11 -21c-6 -11 -11 -11 -23 -11c-10 0 -16 0 -23 14l-38 74c-4 9 -5 10 -7 10z" />
    <glyph glyph-name="otilde" unicode="&#xf5;" horiz-adv-x="302" 
d="M333 335c-4 0 -5 -3 -6 -7c-27 -107 -62 -200 -118 -268c-18 -22 -21 -25 -28 -32c-20 -20 -32 -28 -56 -28c-12 0 -21 2 -27 6c-28 18 -51 44 -56 62c-6 21 -6 43 -6 62c0 35 2 44 6 64c12 61 53 139 73 169l31 48c27 41 59 85 104 85c23 0 37 -4 50 -19
c6 -7 9 -13 10 -17c4 -18 5 -22 12 -37c5 -11 14 -17 19 -17c23 0 42 3 66 3c37 0 57 -11 57 -27c0 -12 -19 -14 -25 -22c-2 -3 -4 -4 -9 -5c-17 -3 -40 -13 -61 -17c-10 -2 -25 -3 -36 -3zM123 75c3 0 6 2 10 6c5 5 8 11 16 24c46 76 86 142 99 225c4 25 5 47 5 52
c0 8 -7 17 -9 24c-2 8 -3 8 -4 8s-2 0 -5 -3c-4 -4 -10 -9 -12 -12c-11 -17 -78 -109 -107 -212c-4 -14 -12 -52 -12 -71c0 -6 1 -14 7 -25c8 -15 9 -16 12 -16zM335 608c4 0 10 2 25 8c33 13 34 13 44 13c14 0 21 -7 22 -19c1 -14 1 -19 1 -22s-1 -5 -8 -10
c-11 -8 -19 -15 -41 -28c-28 -16 -34 -16 -52 -16c-25 0 -47 7 -61 46c-9 24 -10 24 -14 24s-17 -8 -21 -11c-13 -9 -15 -9 -26 -9c-22 0 -34 4 -34 14c0 15 -3 18 -3 32c0 8 2 17 7 19l52 23c23 10 36 10 43 10c13 0 31 -5 45 -39c13 -33 15 -35 21 -35z" />
    <glyph glyph-name="odieresis" unicode="&#xf6;" horiz-adv-x="302" 
d="M333 335c-4 0 -5 -3 -6 -7c-27 -107 -62 -200 -118 -268c-18 -22 -21 -25 -28 -32c-20 -20 -32 -28 -56 -28c-12 0 -21 2 -27 6c-28 18 -51 44 -56 62c-6 21 -6 43 -6 62c0 35 2 44 6 64c12 61 53 139 73 169l31 48c27 41 59 85 104 85c23 0 37 -4 50 -19
c6 -7 9 -13 10 -17c4 -18 5 -22 12 -37c5 -11 14 -17 19 -17c23 0 42 3 66 3c37 0 57 -11 57 -27c0 -12 -19 -14 -25 -22c-2 -3 -4 -4 -9 -5c-17 -3 -40 -13 -61 -17c-10 -2 -25 -3 -36 -3zM123 75c3 0 6 2 10 6c5 5 8 11 16 24c46 76 86 142 99 225c4 25 5 47 5 52
c0 8 -7 17 -9 24c-2 8 -3 8 -4 8s-2 0 -5 -3c-4 -4 -10 -9 -12 -12c-11 -17 -78 -109 -107 -212c-4 -14 -12 -52 -12 -71c0 -6 1 -14 7 -25c8 -15 9 -16 12 -16zM254 703c24 0 34 -3 38 -14c3 -8 7 -20 7 -28c0 -26 -13 -34 -21 -52c-5 -12 -18 -17 -37 -17
c-24 0 -26 0 -31 10c-7 15 -8 11 -8 19c0 5 0 17 1 25c1 10 11 36 13 40c6 13 13 17 38 17zM436 632c1 -9 7 -22 7 -33c0 -10 0 -11 -9 -29c-13 -26 -18 -27 -48 -27c-17 0 -23 2 -28 20c-4 13 -12 19 -12 34c0 8 1 14 7 29c10 24 14 25 29 25c5 0 11 -1 19 -1
c5 0 33 -1 35 -18z" />
    <glyph glyph-name="divide" unicode="&#xf7;" horiz-adv-x="480" 
d="M463 302c2 -3 2 -4 2 -8c0 -11 -2 -33 -9 -48c-4 -8 -5 -9 -18 -9c-3 0 -11 2 -22 2c-20 0 -130 -8 -189 -8c-32 0 -68 4 -90 6c-12 1 -15 1 -21 3c-8 3 -12 27 -12 54c0 11 3 16 8 18c12 5 18 5 28 5c16 0 73 -9 126 -9c40 0 101 9 170 9c14 0 18 -1 27 -15zM318 508
c24 0 55 -34 55 -47c0 -11 -11 -96 -56 -96c-11 0 -12 0 -37 13c-13 7 -24 20 -24 32c0 35 21 67 31 89c4 9 8 9 31 9zM258 167c4 -4 7 -10 14 -16c13 -12 15 -28 15 -49s-5 -41 -14 -50c-8 -8 -22 -12 -42 -12c-11 0 -18 2 -24 5c-8 4 -4 6 -12 17c-9 13 -18 19 -18 31
c0 31 17 86 50 86c14 0 19 0 31 -12z" />
    <glyph glyph-name="oslash" unicode="&#xf8;" horiz-adv-x="333" 
d="M73 30c-1 0 -2 -1 -4 -4c-3 -5 -12 -14 -26 -23c-5 -3 -11 -3 -15 -3c-6 0 -14 0 -15 7c-3 19 -8 23 -8 36c0 5 1 8 8 11c5 2 10 5 23 18c12 12 12 13 12 17s-7 20 -7 52c0 37 9 75 27 119c15 37 42 82 79 136c20 29 37 49 50 65c17 21 36 38 70 38c31 0 45 -15 59 -36
c3 -5 10 -7 12 -11c2 -3 3 -4 4 -4s2 0 6 5c14 17 20 19 31 19c14 0 16 0 23 -13c3 -6 6 -13 6 -20c0 -15 -7 -11 -25 -28c-15 -14 -15 -15 -15 -22c0 -21 0 -29 -6 -59c-26 -130 -80 -234 -111 -277c-41 -57 -77 -65 -100 -65c-9 0 -18 1 -30 7c-20 10 -38 24 -43 31
c-3 4 -4 4 -5 4zM132 184c39 48 117 146 157 197c8 10 8 11 8 12c0 2 -1 3 -3 3c-6 0 -13 2 -18 16s-6 15 -8 15c-1 0 -8 -1 -21 -19c-59 -82 -93 -137 -116 -204c-8 -23 -8 -24 -8 -25c0 -2 1 -2 2 -2s2 1 7 7zM258 259l-36 -46c-18 -22 -48 -59 -76 -96
c-6 -8 -18 -20 -21 -24c-5 -6 -5 -8 -5 -10s1 -5 5 -10c12 -14 16 -15 19 -15c5 0 22 7 32 21c44 62 66 107 90 174c5 14 6 17 6 18s0 2 -2 2c-1 0 -2 -1 -12 -14z" />
    <glyph glyph-name="ugrave" unicode="&#xf9;" horiz-adv-x="344" 
d="M215 72c-15 -22 -56 -65 -86 -84c-8 -5 -10 -5 -19 -5c-25 0 -48 14 -55 19c-14 11 -21 21 -22 31c-1 8 -1 24 -1 35c0 23 11 75 26 122c9 28 10 40 18 63c21 59 34 122 69 188c10 19 24 26 43 26c23 0 35 -11 36 -16c1 -7 7 -15 7 -26c0 -6 -7 -19 -18 -28
c-7 -6 -18 -15 -27 -48c-24 -88 -64 -186 -78 -259c-3 -16 -3 -22 -3 -23c0 -6 2 -10 4 -10c1 0 3 1 8 6c29 29 29 36 47 58c54 67 102 140 133 223c5 14 10 18 17 23c4 3 14 6 27 6c17 0 17 -7 27 -11s14 -9 14 -15c0 -9 0 -16 -7 -32c-32 -72 -58 -146 -73 -225
c-5 -27 -10 -60 -10 -78c0 -23 10 -38 10 -58c0 -9 -3 -19 -6 -22c-4 -4 -11 -4 -20 -4c-16 0 -25 4 -37 15s-16 4 -19 19c-4 20 -5 37 -5 44c0 23 7 61 7 69c0 1 0 2 -2 2c-1 0 -2 -1 -5 -5zM253 648c3 0 7 -3 11 -9c4 -5 10 -11 31 -30l77 -69c12 -11 18 -18 18 -24
c0 -10 -4 -18 -7 -31c-2 -9 -4 -14 -21 -14c-15 0 -22 2 -31 9l-77 67c-10 8 -34 23 -51 33c-5 3 -7 8 -7 17c0 23 1 28 11 41c5 6 11 13 27 13c14 0 15 -3 19 -3z" />
    <glyph glyph-name="uacute" unicode="&#xfa;" horiz-adv-x="344" 
d="M215 72c-15 -22 -56 -65 -86 -84c-8 -5 -10 -5 -19 -5c-25 0 -48 14 -55 19c-14 11 -21 21 -22 31c-1 8 -1 24 -1 35c0 23 11 75 26 122c9 28 10 40 18 63c21 59 34 122 69 188c10 19 24 26 43 26c23 0 35 -11 36 -16c1 -7 7 -15 7 -26c0 -6 -7 -19 -18 -28
c-7 -6 -18 -15 -27 -48c-24 -88 -64 -186 -78 -259c-3 -16 -3 -22 -3 -23c0 -6 2 -10 4 -10c1 0 3 1 8 6c29 29 29 36 47 58c54 67 102 140 133 223c5 14 10 18 17 23c4 3 14 6 27 6c17 0 17 -7 27 -11s14 -9 14 -15c0 -9 0 -16 -7 -32c-32 -72 -58 -146 -73 -225
c-5 -27 -10 -60 -10 -78c0 -23 10 -38 10 -58c0 -9 -3 -19 -6 -22c-4 -4 -11 -4 -20 -4c-16 0 -25 4 -37 15s-16 4 -19 19c-4 20 -5 37 -5 44c0 23 7 61 7 69c0 1 0 2 -2 2c-1 0 -2 -1 -5 -5zM257 568c3 0 10 2 20 7l74 34c15 7 34 16 59 33c9 6 16 6 24 6c7 0 14 0 23 -9
c5 -5 7 -9 7 -16c0 -17 -1 -29 -7 -38c-7 -10 -21 -17 -59 -31l-92 -35c-14 -5 -24 -5 -28 -5c-17 0 -19 2 -32 22c-5 8 -5 9 -5 13c0 3 3 19 16 19z" />
    <glyph glyph-name="ucircumflex" unicode="&#xfb;" horiz-adv-x="344" 
d="M215 72c-15 -22 -56 -65 -86 -84c-8 -5 -10 -5 -19 -5c-25 0 -48 14 -55 19c-14 11 -21 21 -22 31c-1 8 -1 24 -1 35c0 23 11 75 26 122c9 28 10 40 18 63c21 59 34 122 69 188c10 19 24 26 43 26c23 0 35 -11 36 -16c1 -7 7 -15 7 -26c0 -6 -7 -19 -18 -28
c-7 -6 -18 -15 -27 -48c-24 -88 -64 -186 -78 -259c-3 -16 -3 -22 -3 -23c0 -6 2 -10 4 -10c1 0 3 1 8 6c29 29 29 36 47 58c54 67 102 140 133 223c5 14 10 18 17 23c4 3 14 6 27 6c17 0 17 -7 27 -11s14 -9 14 -15c0 -9 0 -16 -7 -32c-32 -72 -58 -146 -73 -225
c-5 -27 -10 -60 -10 -78c0 -23 10 -38 10 -58c0 -9 -3 -19 -6 -22c-4 -4 -11 -4 -20 -4c-16 0 -25 4 -37 15s-16 4 -19 19c-4 20 -5 37 -5 44c0 23 7 61 7 69c0 1 0 2 -2 2c-1 0 -2 -1 -5 -5zM332 577c-3 0 -4 0 -16 -6c-44 -22 -59 -31 -66 -38c-3 -3 -9 -3 -15 -3
c-11 0 -17 0 -23 10c-2 3 -6 3 -6 14c0 3 1 23 5 33c3 8 5 8 7 11c4 6 6 8 46 25l73 31c7 3 15 3 19 3c13 0 19 0 23 -9c2 -4 5 -3 8 -11l41 -103c6 -15 6 -16 6 -23c0 -13 -7 -14 -11 -21c-6 -11 -11 -11 -23 -11c-10 0 -16 0 -23 14l-38 74c-4 9 -5 10 -7 10z" />
    <glyph glyph-name="udieresis" unicode="&#xfc;" horiz-adv-x="344" 
d="M215 72c-15 -22 -56 -65 -86 -84c-8 -5 -10 -5 -19 -5c-25 0 -48 14 -55 19c-14 11 -21 21 -22 31c-1 8 -1 24 -1 35c0 23 11 75 26 122c9 28 10 40 18 63c21 59 34 122 69 188c10 19 24 26 43 26c23 0 35 -11 36 -16c1 -7 7 -15 7 -26c0 -6 -7 -19 -18 -28
c-7 -6 -18 -15 -27 -48c-24 -88 -64 -186 -78 -259c-3 -16 -3 -22 -3 -23c0 -6 2 -10 4 -10c1 0 3 1 8 6c29 29 29 36 47 58c54 67 102 140 133 223c5 14 10 18 17 23c4 3 14 6 27 6c17 0 17 -7 27 -11s14 -9 14 -15c0 -9 0 -16 -7 -32c-32 -72 -58 -146 -73 -225
c-5 -27 -10 -60 -10 -78c0 -23 10 -38 10 -58c0 -9 -3 -19 -6 -22c-4 -4 -11 -4 -20 -4c-16 0 -25 4 -37 15s-16 4 -19 19c-4 20 -5 37 -5 44c0 23 7 61 7 69c0 1 0 2 -2 2c-1 0 -2 -1 -5 -5zM279 673c24 0 34 -3 38 -14c3 -8 7 -20 7 -28c0 -26 -13 -34 -21 -52
c-5 -12 -18 -17 -37 -17c-24 0 -26 0 -31 10c-7 15 -8 11 -8 19c0 5 0 17 1 25c1 10 11 36 13 40c6 13 13 17 38 17zM436 553c1 -9 7 -22 7 -33c0 -10 0 -11 -9 -29c-14 -27 -18 -27 -48 -27c-17 0 -23 2 -28 20c-4 13 -12 19 -12 34c0 8 1 14 7 29c10 24 14 25 29 25
c5 0 11 -1 19 -1c5 0 33 -1 35 -18z" />
    <glyph glyph-name="yacute" unicode="&#xfd;" horiz-adv-x="357" 
d="M267 -7c8 0 22 -1 22 -11c0 -4 -2 -17 -8 -26c-61 -92 -93 -186 -115 -281c-4 -17 -5 -36 -16 -65c-8 -21 -18 -37 -41 -41c-6 -1 -18 -7 -30 -7c-22 0 -35 7 -35 32c0 23 4 46 21 87c21 51 49 114 80 171c3 17 35 118 62 200c10 30 13 40 13 41s0 2 -2 2
c-1 0 -2 -1 -4 -3c-4 -4 -15 -14 -41 -36c-31 -26 -34 -26 -46 -26c-44 0 -64 15 -80 42c-3 5 -5 9 -5 13c0 24 7 67 14 99c19 88 65 181 94 274c5 16 17 30 40 30c9 0 16 -6 25 -6c19 0 22 -15 22 -18c0 -12 -2 -27 -9 -42c-4 -8 -12 -24 -16 -28c-5 -5 -6 -6 -9 -13
c-33 -77 -44 -126 -71 -204c-8 -23 -14 -56 -14 -67c0 -7 0 -8 3 -8c4 0 43 28 70 66c7 10 19 22 32 40c28 39 68 70 116 197c2 6 7 18 14 25c4 4 6 5 17 5c15 0 13 -7 28 -7c11 0 20 0 26 -13c3 -6 3 -16 3 -19c0 -19 -14 -43 -22 -55c-10 -15 -12 -22 -17 -30
c-23 -37 -41 -81 -57 -128c-8 -24 -47 -127 -54 -150l-8 -25c-3 -9 -4 -11 -4 -13s1 -2 2 -2zM269 556c3 0 10 2 20 7l74 34c15 7 34 16 59 33c9 6 16 6 24 6c7 0 14 0 23 -9c5 -5 7 -9 7 -16c0 -17 -1 -29 -7 -38c-7 -10 -21 -17 -59 -31l-92 -35c-14 -5 -24 -5 -28 -5
c-17 0 -19 2 -32 22c-5 8 -5 9 -5 13c0 3 3 19 16 19z" />
    <glyph glyph-name="thorn" unicode="&#xfe;" horiz-adv-x="374" 
d="M226 373c31 36 54 61 87 82c11 7 15 7 22 7c27 0 43 -9 73 -35c6 -5 10 -11 10 -27c0 -27 -4 -50 -13 -82c-3 -11 -1 -16 -8 -34c-31 -80 -84 -208 -150 -274c-3 -3 -8 -8 -32 -8c-25 0 -53 20 -59 29c-13 19 -22 37 -28 56c-1 4 -2 6 -3 6c-2 0 -3 -2 -9 -14
c-33 -66 -68 -155 -111 -291c-6 -19 -8 -32 -9 -43c-1 -9 -2 -12 -7 -15c-3 -2 -9 -2 -13 -2c-20 0 -19 3 -27 4c-22 3 -24 4 -27 9c-4 7 -10 8 -10 22c0 5 2 12 9 33c74 222 169 419 289 804c10 32 13 50 13 60c0 7 3 16 20 18c9 1 16 7 33 7c29 0 35 -7 35 -15
c0 -3 -2 -19 -8 -40c-17 -60 -57 -174 -83 -246c-5 -14 -6 -18 -6 -19c0 -2 1 -2 2 -2s4 3 10 10zM311 360c-46 -43 -91 -104 -119 -155c-6 -11 -8 -29 -8 -35c0 -29 3 -47 10 -72c5 -17 9 -23 12 -23c2 0 4 2 11 12c20 29 34 56 56 105c11 25 33 82 47 130
c3 10 12 49 12 52c0 2 -1 2 -2 2s-3 -1 -19 -16z" />
    <glyph glyph-name="ydieresis" unicode="&#xff;" horiz-adv-x="357" 
d="M267 -7c8 0 22 -1 22 -11c0 -4 -2 -17 -8 -26c-61 -92 -93 -186 -115 -281c-4 -17 -5 -36 -16 -65c-8 -21 -18 -37 -41 -41c-6 -1 -18 -7 -30 -7c-22 0 -35 7 -35 32c0 23 4 46 21 87c21 51 49 114 80 171c3 17 35 118 62 200c10 30 13 40 13 41s0 2 -2 2
c-1 0 -2 -1 -4 -3c-4 -4 -15 -14 -41 -36c-31 -26 -34 -26 -46 -26c-44 0 -64 15 -80 42c-3 5 -5 9 -5 13c0 24 7 67 14 99c19 88 65 181 94 274c5 16 17 30 40 30c9 0 16 -6 25 -6c19 0 22 -15 22 -18c0 -12 -2 -27 -9 -42c-4 -8 -12 -24 -16 -28c-5 -5 -6 -6 -9 -13
c-33 -77 -44 -126 -71 -204c-8 -23 -14 -56 -14 -67c0 -7 0 -8 3 -8c4 0 43 28 70 66c7 10 19 22 32 40c28 39 68 70 116 197c2 6 7 18 14 25c4 4 6 5 17 5c15 0 13 -7 28 -7c11 0 20 0 26 -13c3 -6 3 -16 3 -19c0 -19 -14 -43 -22 -55c-10 -15 -12 -22 -17 -30
c-23 -37 -41 -81 -57 -128c-8 -24 -47 -127 -54 -150l-8 -25c-3 -9 -4 -11 -4 -13s1 -2 2 -2zM284 663c24 0 34 -3 38 -14c3 -8 7 -20 7 -28c0 -26 -13 -34 -21 -52c-5 -12 -18 -17 -37 -17c-24 0 -26 0 -31 10c-7 15 -8 11 -8 19c0 5 0 17 1 25c1 10 11 36 13 40
c6 13 13 17 38 17zM466 592c1 -9 7 -22 7 -33c0 -10 0 -11 -9 -29c-13 -26 -18 -27 -48 -27c-17 0 -23 2 -28 20c-4 13 -12 19 -12 34c0 8 1 14 7 29c10 24 14 25 29 25c5 0 11 -1 19 -1c5 0 33 -1 35 -18z" />
    <glyph glyph-name="dotlessi" unicode="&#x131;" horiz-adv-x="184" 
d="M116 66c8 0 22 6 51 32c20 18 28 23 46 23c25 0 33 -7 33 -19c0 -11 -7 -20 -15 -29l-36 -39c-18 -19 -48 -48 -94 -48c-39 0 -64 58 -64 93c0 55 12 92 19 109c8 19 12 38 17 50c30 72 57 144 92 221c9 20 25 28 50 28c9 0 24 0 32 -8c3 -3 5 -7 5 -12
c0 -54 -38 -81 -59 -131c-16 -37 -43 -105 -57 -142c-21 -57 -27 -96 -27 -110c0 -16 4 -18 7 -18z" />
    <glyph glyph-name="IJ" unicode="&#x132;" horiz-adv-x="539" 
d="M99 -26c-12 0 -11 -19 -27 -19c-11 0 -8 8 -20 10c-15 3 -18 14 -24 16c-4 1 -5 3 -5 5c0 6 12 59 21 76c3 6 5 12 8 23c43 158 93 289 143 441c9 29 17 30 38 99c3 10 13 13 42 13c26 0 51 -15 51 -29c0 -25 -6 -47 -29 -70c-2 -2 -4 -6 -11 -24
c-54 -140 -101 -287 -151 -437c-7 -21 -7 -24 -7 -25v-10c0 -22 -7 -34 -16 -60c-2 -6 -3 -9 -13 -9zM290 236c22 -4 28 -15 28 -35c0 -14 -9 -18 -18 -49c-5 -17 -8 -18 -11 -26c-2 -6 -5 -42 -5 -53c0 -24 0 -33 4 -52s11 -29 16 -29c7 0 24 7 51 55c21 37 41 87 58 136
c70 203 92 259 146 383c7 16 11 24 11 26s-1 2 -2 2s-2 0 -14 -4l-52 -17c-8 -3 -10 -4 -17 -9c-12 -9 -30 -13 -54 -13c-6 0 -29 1 -36 3c-8 2 -11 7 -12 14c-1 11 -7 8 -7 20c0 7 8 34 8 40c0 4 3 7 8 7c17 0 39 2 112 22c55 15 91 23 127 23c13 0 15 -1 32 -15
c13 -11 20 -18 20 -30c0 -36 -22 -43 -40 -83c-59 -131 -114 -267 -160 -411c-16 -50 -47 -117 -54 -129c-30 -52 -71 -98 -115 -98c-16 0 -19 1 -35 12c-6 4 -18 12 -26 15c-32 13 -48 68 -48 133c0 17 5 79 14 111c3 10 11 28 16 38c9 17 11 17 25 17c13 0 18 -2 30 -4z
" />
    <glyph glyph-name="ij" unicode="&#x133;" horiz-adv-x="384" 
d="M118 66c8 0 24 8 57 28c26 16 37 27 53 40c35 95 75 192 106 291c4 13 8 19 14 24c8 7 11 8 40 8c16 0 27 -4 30 -10c4 -8 6 -14 6 -19c0 -3 -4 -11 -10 -24c-27 -59 -44 -103 -69 -168c-9 -23 -10 -26 -10 -27s0 -2 2 -2s6 4 16 14c8 8 43 40 59 50c19 12 22 13 33 13
c21 0 22 -7 22 -16c0 -7 -4 -22 -14 -31c-11 -10 -35 -34 -44 -44c-54 -60 -100 -129 -144 -198c-14 -22 -26 -46 -31 -59c-39 -101 -69 -191 -106 -293c-4 -11 -15 -38 -47 -38c-13 0 -19 7 -26 10c-17 7 -18 32 -18 45c0 8 2 21 17 57c44 107 102 203 137 311
c-18 -18 -46 -42 -88 -42c-39 0 -64 58 -64 93c0 55 12 92 19 109c8 19 12 38 17 50c30 72 57 144 92 221c9 20 25 28 50 28c9 0 24 0 32 -8c3 -3 5 -7 5 -12c0 -54 -38 -81 -59 -131c-16 -37 -43 -105 -57 -142c-21 -57 -27 -96 -27 -110c0 -16 4 -18 7 -18zM516 669
c11 -13 12 -17 12 -23c0 -28 -25 -36 -29 -56c-2 -9 -8 -18 -32 -18c-16 0 -39 4 -49 32c-2 6 -3 10 -3 22c0 2 -1 3 -1 21c0 4 1 6 6 13c12 16 25 29 52 29c23 0 32 -6 44 -20zM351 665c0 -13 -3 -22 -6 -26l-20 -26c-11 -14 -22 -23 -37 -23c-29 0 -47 4 -47 43
c0 54 20 71 61 71c32 0 49 -10 49 -39z" />
    <glyph glyph-name="Lslash" unicode="&#x141;" horiz-adv-x="368" 
d="M404 635c-19 0 -39 -10 -65 -10c-35 -2 -74 -8 -107 -19c-8 -2 -9 -8 -17 -15c-7 -6 -3 -15 -19 -20c-8 -2 -13 -3 -17 -3c-8 0 -12 3 -17 3c-6 1 -22 7 -22 29c0 13 23 57 63 69c37 11 67 16 120 20c39 3 90 11 112 18c39 12 44 22 55 25c5 2 8 2 11 2c4 0 6 -1 11 -5
c5 -3 12 -13 16 -21c3 -7 10 -17 10 -27c0 -8 -14 -23 -46 -33c-27 -8 -50 -11 -51 -11c-6 -2 -15 -3 -23 -3c-5 0 -10 1 -14 1zM147 49c3 0 10 1 23 5c50 15 107 41 165 69c4 2 6 2 22 2c10 0 22 -3 28 -7c7 -5 12 -9 19 -16c5 -5 7 -11 7 -15s4 -6 4 -18
c0 -14 -6 -19 -23 -22c-5 -1 -9 -1 -16 -1c-4 0 -8 0 -14 -2c-48 -16 -80 -31 -119 -47c-36 -15 -76 -30 -129 -30c-25 0 -32 7 -46 22c-10 11 -16 22 -22 34c-3 6 -4 10 -4 14c0 14 9 34 18 59c6 16 1 17 13 52c49 146 117 286 177 425c0 1 1 2 1 3c6 14 8 17 35 17
c30 0 30 -12 30 -14c9 -2 23 -12 23 -21c0 -20 -16 -41 -16 -50c0 -3 -2 -7 -5 -10c-6 -3 -11 -8 -15 -15c-5 -14 -12 -25 -25 -55c-44 -101 -87 -213 -124 -316c-9 -25 -14 -40 -14 -52c0 -5 1 -11 7 -11z" />
    <glyph glyph-name="lslash" unicode="&#x142;" horiz-adv-x="194" 
d="M404 708c-19 0 -39 -10 -65 -10c-35 0 -74 -8 -107 -19c-8 -2 -9 -9 -17 -15c-7 -7 -3 -15 -19 -20c-8 -2 -13 -3 -17 -3c-8 0 -12 3 -17 3c-6 0 -22 7 -22 29c0 13 23 57 63 69c37 11 67 16 120 20c39 3 90 11 112 18c39 12 44 22 55 25c5 2 8 2 11 2c4 0 6 -1 11 -5
c5 -3 12 -13 16 -21c3 -7 10 -17 10 -27c0 -8 -14 -23 -46 -33c-27 -8 -50 -11 -51 -11c-6 -2 -15 -3 -23 -3c-5 0 -10 1 -14 1zM102 77c0 -22 7 -27 10 -27s4 0 13 8c16 15 34 38 52 59c20 24 39 47 67 47c12 0 15 -1 23 -6c6 -4 11 -10 11 -18c0 -12 -10 -16 -19 -27
c-25 -31 -49 -70 -64 -86c-23 -25 -46 -45 -88 -45c-10 0 -22 2 -45 18c-10 7 -21 16 -30 34c-4 8 -7 25 -7 44s1 31 8 58s13 43 36 105c33 92 99 223 153 329c8 16 13 34 22 53c13 19 13 29 38 32c8 1 14 3 30 3c9 0 22 -1 28 -13c2 -4 4 -12 4 -23c0 -20 -4 -30 -19 -56
c-66 -116 -138 -223 -184 -346c-12 -32 -19 -48 -27 -72c-9 -26 -12 -62 -12 -71z" />
    <glyph glyph-name="OE" unicode="&#x152;" horiz-adv-x="610" 
d="M447 369c1 0 6 2 14 6c13 6 39 16 49 19c35 10 45 11 62 11c26 0 39 -4 56 -12c6 -3 9 -5 9 -12c0 -29 -5 -40 -16 -49c-6 -5 -10 -6 -24 -6s-19 3 -27 3c-16 0 -46 -9 -66 -18c-26 -12 -52 -24 -76 -33c-14 -5 -16 -6 -22 -23c-17 -47 -39 -104 -64 -164
c-7 -17 -7 -21 -7 -24c0 -4 1 -8 8 -8s69 15 118 35c22 9 45 26 67 40c21 13 41 24 77 24c23 0 38 -23 38 -34c0 -4 -2 -18 -12 -27c-13 -11 -21 -14 -40 -26c-105 -67 -238 -91 -283 -91c-14 0 -31 3 -36 8c-4 4 -6 4 -7 4c-3 0 -5 -1 -10 -4c-15 -9 -29 -12 -69 -12
c-15 0 -43 0 -57 10c-47 33 -59 85 -59 137c0 24 5 81 24 155c21 82 54 150 97 218c62 98 106 135 137 135c48 0 68 -8 87 -19c7 -4 18 -16 22 -23c2 -3 3 -4 5 -4c3 0 6 1 14 5c30 14 54 23 103 37c45 13 98 27 150 27c6 0 74 -3 74 -42c0 -7 -3 -25 -8 -35
c-3 -6 -9 -6 -15 -6c-8 0 -19 1 -24 2c-25 5 -36 6 -47 6c-57 0 -139 -27 -191 -53c-16 -8 -17 -10 -21 -26c-6 -23 -18 -78 -28 -112c-2 -7 -4 -16 -4 -17s0 -2 2 -2zM346 560c-6 0 -12 -4 -21 -14c-69 -77 -121 -171 -153 -274c-6 -18 -9 -31 -10 -41
c-3 -31 -10 -63 -10 -97c0 -40 8 -91 38 -91c10 0 38 20 45 31c21 32 44 73 81 173c3 8 5 14 5 17c0 2 -1 6 -3 10c-6 11 -7 18 -7 41c0 5 9 10 19 11c9 1 12 2 17 15c21 55 40 128 40 139c0 6 -1 9 -3 9c-1 0 -7 2 -10 4c-13 9 -17 37 -17 53c0 8 -3 14 -11 14z" />
    <glyph glyph-name="oe" unicode="&#x153;" horiz-adv-x="466" 
d="M226 70c-2 0 -3 0 -8 -8c-13 -20 -44 -64 -85 -64c-7 0 -15 0 -27 6c-23 11 -49 30 -60 61c-7 20 -10 44 -10 67c0 15 6 60 23 106c20 54 48 106 79 156s77 118 135 118c26 0 40 -8 55 -25c9 -10 15 -18 21 -36c1 -3 2 -6 4 -6s3 1 9 8c31 37 70 62 121 62
c34 0 53 -13 59 -35c2 -8 2 -14 2 -22c0 -36 -25 -95 -40 -116c-57 -80 -126 -170 -202 -220c-9 -6 -9 -7 -9 -13c0 -4 0 -17 11 -33c4 -6 12 -13 18 -13c5 0 29 11 58 33c57 43 76 70 130 118c17 15 18 15 33 15c18 0 33 -2 33 -17c0 -10 -1 -16 -8 -24
c-105 -120 -163 -164 -208 -186c-10 -5 -14 -5 -29 -5c-37 0 -60 15 -83 38c-11 11 -15 19 -18 29c-2 6 -3 6 -4 6zM255 434c-2 0 -3 -1 -14 -17c-45 -65 -89 -135 -113 -207c-12 -36 -19 -75 -19 -92c0 -19 14 -42 18 -42c3 0 5 2 19 17c21 23 109 169 127 266
c3 16 4 29 4 37c0 9 -3 12 -14 22c-6 5 -7 10 -7 13c0 2 0 3 -1 3zM463 450c-1 0 -4 0 -17 -14c-52 -56 -100 -116 -129 -187c-7 -17 -9 -25 -9 -26s1 -2 2 -2c2 0 18 18 20 20c35 39 67 83 103 128c15 19 33 58 33 74c0 5 0 7 -3 7z" />
    <glyph glyph-name="Scaron" unicode="&#x160;" horiz-adv-x="352" 
d="M332 574c-3 5 -7 9 -10 9c-4 0 -7 -5 -12 -17c-7 -18 -11 -46 -11 -82c0 -17 1 -54 4 -75c9 -63 34 -201 38 -279c2 -32 2 -45 2 -58c0 -56 -35 -88 -56 -98c-6 -3 -17 -3 -40 -3c-81 0 -146 53 -190 132c-5 9 -38 40 -38 108c0 28 1 29 13 44c3 4 5 4 15 4
c21 0 38 -5 48 -14c14 -13 25 -30 25 -36c0 -17 -8 -17 -8 -39c0 -3 0 -8 3 -16c15 -40 54 -86 93 -108c16 -9 19 -9 24 -9c7 0 20 16 22 36c1 13 2 24 2 35c0 36 -1 53 -3 76c-9 96 -29 178 -37 279c-3 37 -3 45 -3 69c0 28 13 76 18 88c8 18 18 33 49 33
c53 0 93 -10 125 -57c16 -24 18 -56 22 -83c3 -23 3 -28 3 -34c0 -10 -22 -12 -26 -12c-20 0 -39 10 -54 39c-9 17 -1 40 -18 68zM399 765c2 0 3 0 7 3c13 8 13 10 23 16l52 34c9 6 13 6 20 6c12 0 15 -2 15 -18c0 -5 1 -10 1 -15c0 -2 -1 -7 -4 -14c-2 -5 -3 -7 -18 -18
l-86 -65c-14 -10 -13 -7 -17 -10c-3 -2 -11 -2 -15 -2c-7 0 -17 0 -22 10l-35 70c-4 7 -14 33 -14 41c0 20 5 32 17 45c6 6 18 7 27 7c12 0 13 -1 14 -7c1 -4 6 -19 29 -73c3 -7 4 -10 6 -10z" />
    <glyph glyph-name="scaron" unicode="&#x161;" horiz-adv-x="245" 
d="M118 45c2 0 2 3 2 5c0 3 -1 19 -2 27c-6 54 -11 155 -11 232c0 20 13 82 38 126c26 46 58 65 85 65c50 0 70 -18 82 -37c9 -14 11 -38 11 -57c0 -22 -3 -52 -29 -91c-8 -12 -9 -12 -20 -12c-15 0 -25 4 -35 13c-7 7 -10 16 -10 30c0 4 1 6 4 12c15 30 16 40 16 48
c0 17 -6 32 -10 32c-2 0 -4 -2 -12 -14c-20 -29 -33 -55 -38 -84c-3 -16 -3 -23 -3 -31c0 -15 0 -59 3 -111c8 -132 8 -142 8 -155c0 -26 -2 -29 -8 -37c-7 -9 -15 -18 -27 -27s-19 -9 -33 -9c-18 0 -21 0 -29 4c-48 24 -84 79 -107 133c-3 7 -4 13 -4 15c0 14 12 38 40 38
c24 0 30 -2 37 -15c17 -31 22 -66 45 -95c4 -5 6 -5 7 -5zM318 623c2 0 3 0 7 3c13 8 13 10 23 16l52 34c9 6 13 6 20 6c12 0 15 -2 15 -18c0 -5 1 -10 1 -15c0 -2 -1 -7 -4 -14c-2 -5 -3 -7 -18 -18l-86 -65c-14 -10 -13 -7 -17 -10c-3 -2 -11 -2 -15 -2c-7 0 -17 0 -22 10
l-35 70c-4 7 -14 33 -14 41c0 20 5 32 17 45c6 6 18 7 27 7c12 0 13 -1 14 -7c1 -4 6 -19 29 -73c3 -7 4 -10 6 -10z" />
    <glyph glyph-name="Ydieresis" unicode="&#x178;" horiz-adv-x="410" 
d="M188 239c3 0 8 0 16 6c40 30 75 62 97 87c18 21 53 70 99 165c41 84 50 102 57 110c6 7 6 10 19 10c20 0 44 -7 54 -22c2 -3 6 -24 6 -30c0 -3 -3 -8 -13 -24c-122 -196 -210 -476 -276 -851c-3 -17 -7 -26 -7 -29c0 -8 0 -10 -13 -10s-15 3 -27 5c-20 3 -36 15 -37 27
c-1 9 -1 14 -1 23c0 27 9 61 20 101c12 44 15 65 19 83c23 104 55 215 88 322c-20 -21 -55 -44 -100 -44c-13 0 -14 0 -29 11c-10 7 -21 17 -31 29c-16 19 -27 41 -27 54c0 10 8 96 10 110s6 17 7 37c1 14 5 19 10 44c15 74 32 144 53 214c3 10 4 10 14 10
c28 0 52 -10 58 -10c3 0 8 -12 8 -22c0 -33 -11 -35 -22 -80c-22 -92 -48 -213 -56 -287c-3 -27 -3 -29 -3 -31c0 -6 1 -8 7 -8zM342 833c24 0 34 -3 38 -14c3 -8 7 -20 7 -28c0 -26 -13 -34 -21 -52c-5 -12 -18 -17 -37 -17c-24 0 -26 0 -31 10c-7 15 -8 11 -8 19
c0 5 0 17 1 25c1 10 11 36 13 40c6 13 13 17 38 17zM524 762c1 -9 7 -22 7 -33c0 -10 0 -11 -9 -29c-14 -27 -18 -27 -48 -27c-17 0 -23 2 -28 20c-4 13 -12 19 -12 34c0 8 1 14 7 29c10 24 14 25 29 25c5 0 11 -1 19 -1c5 0 33 -1 35 -18z" />
    <glyph glyph-name="Zcaron" unicode="&#x17d;" horiz-adv-x="456" 
d="M430 20c-4 0 -1 -4 -15 -11c-67 -33 -145 -58 -219 -58c-66 0 -117 17 -165 55c-5 4 -28 51 -28 70c0 7 2 21 4 26c13 32 66 87 100 118c20 18 21 19 21 23c0 2 -1 4 -7 5c-13 2 -28 9 -32 16c-5 9 -6 14 -6 20c0 10 5 22 5 26c0 7 3 13 7 17c6 6 18 6 22 6
c8 0 16 -1 25 -5c12 -5 35 -13 41 -13c5 0 41 5 52 13c83 60 180 137 232 220c5 8 6 10 6 12c0 24 -69 29 -88 29c-33 0 -82 -12 -104 -57c-1 -2 -5 -7 -27 -7c-12 0 -23 3 -30 7c-21 12 -21 58 -21 60c0 8 0 10 4 13c45 34 102 52 171 52c61 0 111 -14 151 -45
c9 -7 39 -41 39 -57c0 -7 -2 -23 -5 -33c-4 -12 -16 -29 -39 -57c-19 -24 -71 -78 -86 -93c-4 -4 -6 -6 -6 -9c0 -1 0 -3 5 -3c41 0 68 -13 79 -35c2 -4 2 -10 2 -17c0 -8 -2 -14 -7 -19c-2 -2 -6 -2 -14 -2c-17 0 -10 1 -42 1c-24 0 -68 -7 -84 -12c-30 -9 -70 -21 -89 -23
c-59 -59 -141 -103 -178 -183c-6 -13 -6 -15 -6 -18s4 -7 14 -14c14 -10 21 -10 24 -10c19 0 26 -8 42 -8c56 0 170 53 187 62c10 5 19 8 31 8c23 0 34 -6 36 -11c7 -17 22 -36 22 -51c0 -5 -1 -10 -10 -10c-6 0 -10 2 -14 2zM483 781c2 0 3 0 7 3c13 8 13 10 23 16l52 34
c9 6 13 6 20 6c12 0 15 -2 15 -18c0 -5 1 -10 1 -15c0 -2 -1 -7 -4 -14c-2 -5 -3 -7 -18 -18l-86 -65c-14 -10 -13 -7 -17 -10c-3 -2 -11 -2 -15 -2c-7 0 -17 0 -22 10l-35 70c-4 7 -14 33 -14 41c0 20 5 32 17 45c6 6 18 7 27 7c12 0 13 -1 14 -7c1 -4 6 -19 29 -73
c3 -7 4 -10 6 -10z" />
    <glyph glyph-name="zcaron" unicode="&#x17e;" horiz-adv-x="315" 
d="M278 403c-3 0 -15 -5 -31 -7c-29 -4 -54 -21 -74 -45c-5 -6 -9 -7 -19 -7c-18 0 -31 19 -31 44c0 13 1 34 18 39c20 6 41 14 64 22c15 5 39 11 73 11c42 0 71 -14 77 -24c4 -7 15 -14 18 -27c2 -8 2 -14 2 -20c0 -5 -3 -18 -7 -25c-6 -11 -17 -21 -52 -52
c-8 -7 -8 -10 -8 -11s1 -3 3 -3c21 0 50 -4 67 -28c5 -7 5 -11 5 -13s-3 -16 -17 -16c-48 0 -107 -17 -139 -29c-24 -9 -26 -10 -35 -20c-27 -30 -70 -89 -84 -103c-7 -7 -12 -22 -12 -27s0 -7 8 -13c7 -5 12 -7 17 -7c19 0 24 10 50 10c5 0 21 4 43 19c24 16 34 20 56 20
s33 -4 43 -19c4 -6 4 -8 4 -16c0 -5 -1 -8 -9 -12c-26 -13 -55 -29 -83 -40c-35 -14 -68 -21 -99 -21c-37 0 -68 10 -89 27c-16 13 -21 29 -21 54c0 9 2 26 5 33c12 27 32 49 50 72c14 18 16 21 16 24c0 2 0 4 -10 8c-14 6 -19 9 -24 21c-6 14 -8 20 -8 29c0 4 3 23 30 23
c28 0 41 -14 60 -14c17 0 37 16 55 35c23 25 32 41 57 56c10 6 37 34 37 48c0 2 0 4 -6 4zM351 587c2 0 3 0 7 3c13 8 13 10 23 16l52 34c9 6 13 6 20 6c12 0 15 -2 15 -18c0 -5 1 -10 1 -15c0 -2 -1 -7 -4 -14c-2 -5 -3 -7 -18 -18l-86 -65c-14 -10 -13 -7 -17 -10
c-3 -2 -11 -2 -15 -2c-7 0 -17 0 -22 10l-35 70c-4 7 -14 33 -14 41c0 20 5 32 17 45c6 6 18 7 27 7c12 0 13 -1 14 -7c1 -4 6 -19 29 -73c3 -7 4 -10 6 -10z" />
    <glyph glyph-name="florin" unicode="&#x192;" horiz-adv-x="344" 
d="M-109 -188c-42 0 -51 2 -51 13c0 19 11 31 14 44c4 16 18 25 52 25c21 0 29 0 36 -1c11 -2 12 -4 16 -4c8 0 29 10 45 28c12 13 35 55 52 100c36 95 59 158 81 220c9 25 10 28 10 32c0 2 0 4 -3 7c-9 11 -40 14 -40 38c0 16 -2 10 -2 22c0 8 3 17 9 23c1 1 3 2 12 2
c7 0 46 -6 48 -6c3 0 11 0 16 14c23 64 46 116 56 142c46 119 115 164 197 164c26 0 61 -4 64 -7s5 -6 5 -11c0 -9 2 -12 2 -13c0 -9 -7 -26 -11 -34c-5 -9 -13 -10 -20 -10c-4 0 -5 -7 -12 -7h-9c-33 0 -36 4 -43 4c-5 0 -19 -3 -35 -18c-20 -18 -45 -53 -71 -123
c-28 -75 -34 -92 -34 -93s0 -3 3 -3c13 0 55 6 73 6h18c11 0 18 -3 21 -7c8 -10 7 -19 12 -27c2 -3 2 -5 2 -6c0 -16 -3 -24 -5 -26c-1 -1 -4 -1 -12 -1c-10 0 -25 -1 -61 -10c-16 -4 -43 -10 -72 -10c-7 0 -9 -3 -15 -19c-84 -223 -113 -288 -124 -312
c-57 -125 -148 -139 -185 -139c-19 0 -30 3 -39 3z" />
    <glyph glyph-name="uni02BB" unicode="&#x2bb;" horiz-adv-x="162" 
d="M125 429l57 107c13 24 43 85 46 93c5 14 18 14 32 14c19 0 31 -4 36 -11c4 -6 7 -14 7 -25c0 -39 -24 -61 -47 -104l-56 -102c-6 -11 -15 -19 -38 -19s-20 5 -29 6c-10 1 -14 16 -14 21s1 10 6 20z" />
    <glyph glyph-name="afii57929" unicode="&#x2bc;" horiz-adv-x="162" 
d="M125 429l57 107c13 24 43 85 46 93c5 14 18 14 32 14c19 0 31 -4 36 -11c4 -6 7 -14 7 -25c0 -39 -24 -61 -47 -104l-56 -102c-6 -11 -15 -19 -38 -19s-20 5 -29 6c-10 1 -14 16 -14 21s1 10 6 20z" />
    <glyph glyph-name="circumflex" unicode="&#x2c6;" horiz-adv-x="416" 
d="M384 773c-3 0 -4 0 -16 -6c-44 -22 -59 -31 -66 -38c-3 -3 -9 -3 -15 -3c-11 0 -17 0 -23 10c-2 3 -6 3 -6 14c0 3 1 23 5 33c3 8 5 8 7 11c4 6 6 8 46 25l73 31c7 3 15 3 19 3c13 0 19 0 23 -9c2 -4 5 -3 8 -11l41 -103c6 -15 6 -16 6 -23c0 -13 -7 -14 -11 -21
c-6 -11 -11 -11 -23 -11c-10 0 -16 0 -23 14l-38 74c-4 9 -5 10 -7 10z" />
    <glyph glyph-name="caron" unicode="&#x2c7;" horiz-adv-x="416" 
d="M387 769c2 0 3 0 7 3c13 8 13 10 23 16l52 34c9 6 13 6 20 6c12 0 15 -2 15 -18c0 -5 1 -10 1 -15c0 -2 -1 -7 -4 -14c-2 -5 -3 -7 -18 -18l-86 -65c-14 -10 -13 -7 -17 -10c-3 -2 -11 -2 -15 -2c-7 0 -17 0 -22 10l-35 70c-4 7 -14 33 -14 41c0 20 5 32 17 45
c6 6 18 7 27 7c12 0 13 -1 14 -7c1 -4 6 -19 29 -73c3 -7 4 -10 6 -10z" />
    <glyph glyph-name="breve" unicode="&#x2d8;" horiz-adv-x="416" 
d="M338 840c6 -12 10 -29 10 -35c0 -2 -2 -6 -2 -9s1 -11 6 -21c7 -14 17 -24 30 -24c15 0 33 17 49 34c31 32 35 32 45 32c16 0 19 0 21 -11c2 -8 8 -12 8 -22c0 -13 -4 -13 -10 -21c-44 -59 -73 -77 -119 -77c-76 0 -99 63 -107 117c-1 7 -1 9 -1 12c0 4 1 7 6 14
c3 4 6 6 10 7c10 2 12 4 18 10c5 5 7 6 15 6c9 0 15 0 21 -12z" />
    <glyph glyph-name="dotaccent" unicode="&#x2d9;" horiz-adv-x="416" 
d="M395 816c24 0 37 -5 42 -14c7 -10 8 -23 8 -34c0 -4 -2 -12 -6 -17c-9 -12 -17 -24 -27 -34c-12 -12 -20 -18 -36 -18c-11 0 -25 0 -37 16c-6 8 -7 15 -7 32c0 12 0 30 14 51c9 13 22 18 49 18z" />
    <glyph glyph-name="ring" unicode="&#x2da;" horiz-adv-x="416" 
d="M434 837c27 -21 29 -29 29 -56c0 -20 -4 -48 -27 -88c-8 -14 -22 -30 -56 -30c-33 0 -56 9 -64 19c-15 18 -19 35 -19 51c0 21 29 93 57 107c6 3 22 7 39 7c20 0 33 -4 41 -10zM372 706c1 0 2 0 5 7l9 18c12 23 14 35 14 41c0 7 -1 16 -4 25c-2 6 -3 6 -4 6s-3 -3 -5 -6
c-14 -22 -24 -40 -24 -65c0 -17 5 -26 9 -26z" />
    <glyph glyph-name="ogonek" unicode="&#x2db;" horiz-adv-x="286" 
d="M105 -107c14 0 -3 8 37 8c16 0 27 -2 27 -10c0 -9 -1 -11 -7 -21s0 -13 -9 -26c-5 -7 -12 -14 -57 -14c-34 0 -54 11 -63 29c-9 17 -9 26 -9 42c0 57 37 120 61 147h68c-22 -25 -42 -58 -54 -88c-6 -15 -9 -30 -9 -43c0 -16 8 -24 15 -24z" />
    <glyph glyph-name="tilde" unicode="&#x2dc;" horiz-adv-x="416" 
d="M415 764c4 0 10 2 25 8c33 13 34 13 44 13c14 0 21 -7 22 -19c1 -14 1 -19 1 -22s-1 -5 -8 -10c-11 -8 -19 -15 -41 -28c-28 -16 -34 -16 -52 -16c-25 0 -47 7 -61 46c-9 24 -10 24 -14 24s-17 -8 -21 -11c-13 -9 -15 -9 -26 -9c-22 0 -34 4 -34 14c0 15 -3 18 -3 32
c0 8 2 17 7 19l52 23c23 10 36 10 43 10c13 0 31 -5 45 -39c13 -33 15 -35 21 -35z" />
    <glyph glyph-name="hungarumlaut" unicode="&#x2dd;" horiz-adv-x="416" 
d="M527 793c-4 -1 -9 -5 -14 -10l-90 -94c-7 -7 -9 -8 -19 -8c-6 0 -9 0 -11 3c-5 7 -12 0 -20 11c-6 8 -8 14 -8 18c0 3 1 5 3 9c6 11 8 14 14 19c7 6 16 21 24 31l65 80c17 21 24 25 46 25c9 0 11 0 13 -2c7 -7 5 -10 14 -19c7 -7 9 -10 9 -26c0 -8 -23 -36 -26 -37z
M275 751c0 9 16 23 41 61l33 50c9 14 36 46 43 53c3 3 5 3 11 3c7 0 11 0 15 -2s18 -11 23 -18c4 -5 11 -15 11 -23c0 -9 -10 -21 -12 -26c-1 -3 -4 -6 -11 -11c-6 -4 -13 -11 -35 -39c-21 -27 -45 -57 -56 -74c-8 -12 -16 -13 -30 -13c-5 0 -20 0 -20 13c0 8 -4 18 -8 19
s-5 2 -5 7z" />
    <glyph glyph-name="gravecomb" unicode="&#x300;" horiz-adv-x="1" 
d="M-173 716c3 0 7 -3 11 -9c4 -5 10 -11 31 -30l77 -69c12 -11 18 -18 18 -24c0 -10 -4 -18 -7 -31c-2 -9 -4 -14 -21 -14c-15 0 -22 2 -31 9l-77 67c-10 8 -34 23 -51 33c-5 3 -7 8 -7 17c0 23 1 28 11 41c5 6 11 13 27 13c14 0 15 -3 19 -3z" />
    <glyph glyph-name="acutecomb" unicode="&#x301;" horiz-adv-x="1" 
d="M-58 604c3 0 10 2 20 7l74 34c15 7 34 16 59 33c9 6 16 6 24 6c7 0 14 0 23 -9c5 -5 7 -9 7 -16c0 -17 -1 -29 -7 -38c-7 -10 -21 -17 -59 -31l-92 -35c-14 -5 -24 -5 -28 -5c-17 0 -19 2 -32 22c-5 8 -5 9 -5 13c0 3 3 19 16 19z" />
    <glyph glyph-name="uni0302" unicode="&#x302;" horiz-adv-x="1" 
d="M-5 635c-3 0 -4 0 -16 -6c-44 -22 -59 -31 -66 -38c-3 -3 -9 -3 -15 -3c-11 0 -17 0 -23 10c-2 3 -6 3 -6 14c0 3 1 23 5 33c3 8 5 8 7 11c4 6 6 8 46 25l73 31c7 3 15 3 19 3c13 0 19 0 23 -9c2 -4 5 -3 8 -11l41 -103c6 -15 6 -16 6 -23c0 -13 -7 -14 -11 -21
c-6 -11 -11 -11 -23 -11c-10 0 -16 0 -23 14l-38 74c-4 9 -5 10 -7 10z" />
    <glyph glyph-name="tildecomb" unicode="&#x303;" horiz-adv-x="1" 
d="M60 628c4 0 10 2 25 8c33 13 34 13 44 13c14 0 21 -7 22 -19c1 -14 1 -19 1 -22s-1 -5 -8 -10c-11 -8 -19 -15 -41 -28c-28 -16 -34 -16 -52 -16c-25 0 -47 7 -61 46c-9 24 -10 24 -14 24s-17 -8 -21 -11c-13 -9 -15 -9 -26 -9c-22 0 -34 4 -34 14c0 15 -3 18 -3 32
c0 8 2 17 7 19l52 23c23 10 36 10 43 10c13 0 31 -5 45 -39c13 -33 15 -35 21 -35z" />
    <glyph glyph-name="uni0304" unicode="&#x304;" horiz-adv-x="1" 
d="M-98 682c7 -1 45 -2 71 -2c31 0 78 3 104 3c6 0 16 0 16 -10c0 -5 5 -5 5 -12c0 -3 -2 -7 -2 -10c0 -6 -2 -21 -8 -31c-4 -7 -5 -9 -21 -9c-12 0 -19 2 -29 2c-17 0 -82 -3 -125 -3c-21 0 -58 1 -69 4s-16 20 -16 44c0 13 0 15 3 19c5 6 18 7 33 7c19 0 32 -1 38 -2z" />
    <glyph glyph-name="uni0306" unicode="&#x306;" horiz-adv-x="1" 
d="M-77 707c6 -12 10 -29 10 -35c0 -2 -2 -6 -2 -9s1 -11 6 -21c7 -14 17 -24 30 -24c15 0 33 17 49 34c31 32 35 32 45 32c16 0 19 0 21 -11c2 -8 8 -12 8 -22c0 -13 -4 -13 -10 -21c-44 -59 -73 -77 -119 -77c-76 0 -99 63 -107 117c-1 7 -1 9 -1 12c0 4 1 7 6 14
c3 4 6 6 10 7c10 2 12 4 18 10c5 5 7 6 15 6c9 0 15 0 21 -12z" />
    <glyph glyph-name="uni0307" unicode="&#x307;" horiz-adv-x="1" 
d="M166 665c0 -13 -3 -22 -6 -26l-20 -26c-11 -14 -22 -23 -37 -23c-29 0 -47 4 -47 43c0 54 20 71 61 71c32 0 49 -10 49 -39z" />
    <glyph glyph-name="uni0308" unicode="&#x308;" horiz-adv-x="1" 
d="M-192 708c24 0 34 -3 38 -14c3 -8 7 -20 7 -28c0 -26 -13 -34 -21 -52c-5 -12 -18 -17 -37 -17c-24 0 -26 0 -31 10c-7 15 -8 11 -8 19c0 5 0 17 1 25c1 10 11 36 13 40c6 13 13 17 38 17zM-10 637c1 -9 7 -22 7 -33c0 -10 0 -11 -9 -29c-13 -26 -18 -27 -48 -27
c-17 0 -23 2 -28 20c-4 13 -12 19 -12 34c0 8 1 14 7 29c10 24 14 25 29 25c5 0 11 -1 19 -1c5 0 33 -1 35 -18z" />
    <glyph glyph-name="uni030A" unicode="&#x30a;" horiz-adv-x="1" 
d="M19 712c27 -21 29 -29 29 -56c0 -20 -4 -48 -27 -88c-8 -14 -22 -30 -56 -30c-33 0 -56 9 -64 19c-15 18 -19 35 -19 51c0 21 29 93 57 107c6 3 22 7 39 7c20 0 33 -4 41 -10zM-43 581c1 0 2 0 5 7l9 18c12 23 14 35 14 41c0 7 -1 16 -4 25c-2 6 -3 6 -4 6s-3 -3 -5 -6
c-14 -22 -24 -40 -24 -65c0 -17 5 -26 9 -26z" />
    <glyph glyph-name="uni030B" unicode="&#x30b;" horiz-adv-x="1" 
d="M112 622c-4 -1 -9 -5 -14 -10l-90 -94c-7 -7 -9 -8 -19 -8c-6 0 -9 0 -11 3c-5 7 -12 0 -20 11c-6 8 -8 14 -8 18c0 3 1 5 3 9c6 11 8 14 14 19c7 6 16 21 24 31l65 80c17 21 24 25 46 25c9 0 11 0 13 -2c7 -7 5 -10 14 -19c7 -7 9 -10 9 -26c0 -8 -23 -36 -26 -37z
M-140 580c0 9 16 23 41 61l33 50c9 14 36 46 43 53c3 3 5 3 11 3c7 0 11 0 15 -2s18 -11 23 -18c4 -5 11 -15 11 -23c0 -9 -10 -21 -12 -26c-1 -3 -4 -6 -11 -11c-6 -4 -13 -11 -35 -39c-21 -27 -45 -57 -56 -74c-8 -12 -16 -13 -30 -13c-5 0 -20 0 -20 13c0 8 -4 18 -8 19
s-5 2 -5 7z" />
    <glyph glyph-name="uni030C" unicode="&#x30c;" horiz-adv-x="1" 
d="M37 625c2 0 3 0 7 3c13 8 13 10 23 16l52 34c9 6 13 6 20 6c12 0 15 -2 15 -18c0 -5 1 -10 1 -15c0 -2 -1 -7 -4 -14c-2 -5 -3 -7 -18 -18l-86 -65c-14 -10 -13 -7 -17 -10c-3 -2 -11 -2 -15 -2c-7 0 -17 0 -22 10l-35 70c-4 7 -14 33 -14 41c0 20 5 32 17 45
c6 6 18 7 27 7c12 0 13 -1 14 -7c1 -4 6 -19 29 -73c3 -7 4 -10 6 -10z" />
    <glyph glyph-name="uni0312" unicode="&#x312;" horiz-adv-x="1" 
d="M-139 682c7 0 11 -16 11 -21c0 -3 0 -6 -6 -19c-4 -9 -29 -56 -39 -77c-8 -16 -13 -21 -33 -21c-5 0 -14 0 -19 6c-3 4 -3 8 -6 12c-11 15 -11 18 -11 27c0 4 11 25 13 29l31 52c7 12 14 18 19 18h7c22 0 22 -6 33 -6z" />
    <glyph glyph-name="uni0313" unicode="&#x313;" horiz-adv-x="1" 
d="M-141 550c-7 0 -11 16 -11 21c0 3 0 6 6 19c4 9 29 56 39 77c8 16 13 21 33 21c5 0 14 0 19 -6c3 -4 3 -8 6 -12c11 -15 11 -18 11 -27c0 -4 -11 -25 -13 -29l-31 -52c-7 -12 -14 -18 -19 -18h-7c-22 0 -22 6 -33 6z" />
    <glyph glyph-name="uni0326" unicode="&#x326;" horiz-adv-x="1" 
d="M-141 -163c-7 0 -11 16 -11 21c0 3 0 6 6 19c4 9 29 56 39 77c8 16 13 21 33 21c5 0 14 0 19 -6c3 -4 3 -8 6 -12c11 -15 11 -18 11 -27c0 -4 -11 -25 -13 -29l-31 -52c-7 -12 -14 -18 -19 -18h-7c-22 0 -22 6 -33 6z" />
    <glyph glyph-name="uni0327" unicode="&#x327;" horiz-adv-x="1" 
d="M-250 -46c11 -2 14 -12 14 -15c0 -4 4 -9 8 -13c3 -3 8 -4 12 -4c3 0 10 2 20 14c8 9 17 27 26 46c5 10 6 23 6 26c0 2 -1 8 -3 12l-19 41h59l23 -51c6 -13 6 -19 6 -30c0 -23 -9 -41 -17 -55c-28 -46 -51 -61 -84 -61c-5 0 -30 0 -54 14c-17 10 -27 16 -38 35
c-3 5 -4 10 -4 16c0 8 10 23 17 27c4 2 9 2 11 2c15 0 12 -3 17 -4z" />
    <glyph glyph-name="uni0328" unicode="&#x328;" horiz-adv-x="1" 
d="M-180 -73c14 0 -3 8 37 8c16 0 27 -2 27 -10c0 -9 -1 -11 -7 -21s0 -13 -9 -26c-5 -7 -12 -14 -57 -14c-34 0 -54 11 -63 29c-9 17 -9 26 -9 42c0 57 37 120 61 147h68c-22 -25 -42 -58 -54 -88c-6 -15 -9 -30 -9 -43c0 -16 8 -24 15 -24z" />
    <glyph glyph-name="uni0335" unicode="&#x335;" horiz-adv-x="1" 
d="M-98 206c7 -1 45 -2 71 -2c31 0 78 3 104 3c6 0 16 0 16 -10c0 -5 5 -5 5 -12c0 -3 -2 -7 -2 -10c0 -6 -2 -21 -8 -31c-4 -7 -5 -9 -21 -9c-12 0 -19 2 -29 2c-17 0 -82 -3 -125 -3c-21 0 -58 1 -69 4s-16 20 -16 44c0 13 0 15 3 19c5 6 18 7 33 7c19 0 32 -1 38 -2z" />
    <glyph glyph-name="uni0336" unicode="&#x336;" horiz-adv-x="1" 
d="M72 198c3 -4 3 -5 3 -14c0 -16 -4 -32 -10 -44c-3 -6 -4 -6 -20 -6h-528c-15 0 -20 1 -23 6c-5 8 -8 19 -8 39c0 21 1 22 6 26c3 2 13 4 27 4h526c18 0 19 0 27 -11z" />
    <glyph glyph-name="uni0394" unicode="&#x394;" horiz-adv-x="488" 
d="M384 703c9 0 40 9 60 9c18 0 27 -2 27 -7c0 -6 7 -8 10 -8c5 0 6 -2 6 -4c0 -3 -2 -17 -15 -132c-13 -116 -21 -282 -21 -355c0 -48 2 -97 6 -149c1 -13 4 -17 10 -18c7 -1 10 -10 10 -17v-27c0 -8 -4 -14 -7 -16c-6 -4 -13 -7 -27 -17c-10 -7 -17 -7 -27 -7
c-22 0 -28 0 -38 1c-14 1 -98 13 -146 16c-18 1 -139 5 -150 6c-10 1 -13 1 -21 1h-37c-8 0 -11 0 -14 3c-4 4 -10 15 -10 71c0 11 3 15 16 32c11 14 30 40 63 104c81 156 168 311 283 491c14 22 17 23 22 23zM383 571c-1 0 -3 -2 -11 -16c-62 -108 -119 -210 -171 -307
c-35 -65 -90 -170 -90 -177c0 -5 2 -10 11 -11c6 -1 22 -2 29 -2c38 0 119 -1 169 -6c20 -2 39 -4 42 -4c4 0 4 4 4 6c0 4 -1 23 -1 49c0 35 3 182 18 418c2 32 3 46 3 47c0 3 -2 3 -3 3z" />
    <glyph glyph-name="uni03A9" unicode="&#x3a9;" horiz-adv-x="586" 
d="M218 -5c-11 0 -77 -7 -108 -7c-25 0 -30 0 -45 3c-6 1 -6 4 -6 5c0 5 -1 7 -3 8c-9 4 -11 11 -11 29c0 9 0 23 5 28c2 2 14 2 21 2c46 0 42 -2 72 -2c10 0 14 4 14 7s-2 6 -9 16c-17 25 -44 73 -44 166c0 31 0 114 48 215c59 123 164 201 261 201c74 0 116 -8 147 -64
c14 -25 33 -44 45 -84c13 -45 15 -57 15 -89c0 -11 0 -23 -1 -35c-5 -59 -34 -173 -98 -261c-8 -11 -23 -28 -38 -43c-5 -5 -6 -7 -6 -9c0 -4 3 -5 5 -5c3 0 46 4 64 4c6 0 13 0 15 -1c5 -3 8 -6 8 -10s-5 -6 -5 -11c0 -1 1 -4 1 -8c0 -10 -8 -25 -13 -37
c-2 -5 -4 -8 -17 -8c-41 0 -53 -3 -68 -3c-20 0 -33 2 -47 2c-18 0 -42 -3 -56 -3s-18 0 -18 18c0 17 11 31 12 40c1 8 2 11 13 17c7 4 5 7 15 14c7 5 20 18 47 50c25 30 67 107 88 193c8 32 12 74 12 105c0 115 -53 155 -113 155c-56 0 -128 -55 -173 -139
c-32 -60 -55 -136 -55 -214c0 -83 26 -131 72 -171c8 -7 8 -8 8 -17c0 -13 -12 -30 -12 -42c0 -3 -5 -7 -10 -10c-7 -4 -14 -5 -32 -5z" />
    <glyph glyph-name="uni03BC" unicode="&#x3bc;" horiz-adv-x="416" 
d="M271 -20c0 34 1 54 3 71c0 4 1 7 1 9c0 1 0 3 -1 3c-2 0 -11 -16 -12 -17c-16 -25 -34 -44 -46 -53c-19 -15 -27 -19 -39 -19c-19 0 -37 4 -53 17c-15 12 -16 14 -19 26c-1 4 -2 12 -2 24c0 21 2 40 2 41c0 2 0 3 -1 3s-2 -2 -8 -18c-3 -8 -12 -30 -21 -50
c-37 -83 -59 -132 -106 -230c-13 -28 -18 -45 -28 -59c-7 -10 -11 -12 -21 -12c-8 0 -16 0 -29 2c-11 2 -13 16 -22 17c-6 1 -7 10 -7 23c0 8 2 17 6 26c4 10 21 33 35 51c13 16 14 18 40 70c71 141 146 302 238 514c13 30 16 31 22 31c10 0 12 9 28 9c17 0 30 -4 33 -6
c7 -4 7 -11 7 -37c0 -8 -15 -24 -20 -38c-8 -23 -28 -53 -38 -93c-20 -80 -30 -90 -36 -191c-1 -17 -1 -20 -1 -23c0 -10 0 -12 2 -12s3 1 6 4c14 14 62 86 70 97c50 69 58 84 96 191c5 14 9 19 13 23c3 3 8 6 29 6c16 0 22 -11 27 -11c13 0 15 -6 15 -13
c0 -3 -4 -25 -8 -34c-32 -73 -59 -147 -73 -225c-5 -27 -10 -61 -10 -74c0 -12 1 -16 5 -24c2 -4 3 -11 3 -23c0 -6 0 -13 -1 -24s-7 -15 -33 -15c-21 0 -21 8 -33 10c-10 2 -13 4 -13 33z" />
    <glyph glyph-name="pi" unicode="&#x3c0;" horiz-adv-x="469" 
d="M360 388c-2 0 -5 0 -17 -2c-15 -2 -48 -6 -58 -6c-5 0 -8 0 -13 -17c-15 -51 -59 -151 -62 -164c-2 -8 -10 -15 -15 -36c-8 -32 -36 -94 -47 -141c-3 -13 -3 -21 -6 -27s-5 -8 -18 -10c-6 -1 -11 -9 -27 -9c-17 0 -21 8 -35 13c-5 2 -7 6 -7 12s2 19 8 34
c30 74 52 140 83 218l34 86c8 19 10 24 10 25c0 2 -1 3 -3 3c-5 0 -12 -2 -27 -12c-11 -7 -19 -8 -32 -8c-18 0 -31 1 -37 5s-11 11 -11 15c0 11 -8 2 -8 17c0 12 7 24 9 35c1 5 4 7 6 7c5 0 23 1 30 2c57 8 106 22 238 33c35 3 83 9 97 11c22 3 30 3 43 3
c42 0 61 -7 61 -17c0 -8 7 -17 7 -25c0 -13 -7 -16 -9 -25c-1 -4 -2 -8 -23 -8c-7 0 -13 1 -17 1c-22 0 -74 -5 -90 -5c-2 0 -3 -1 -3 -2c0 -2 1 -3 4 -4c5 -2 13 -9 13 -21c0 -4 -1 -9 -8 -28c-13 -35 -37 -75 -53 -129c-11 -36 -34 -87 -34 -128c0 -10 1 -21 3 -29
c3 -10 5 -13 8 -13c4 0 17 5 44 37l21 26c8 10 12 11 16 11c16 0 9 7 37 7c22 0 25 -2 25 -13c0 -13 -3 -28 -16 -44c-17 -20 -48 -60 -57 -67c-17 -14 -33 -24 -70 -24c-16 0 -38 10 -50 19c-18 14 -38 34 -41 61c-1 8 -1 13 -1 22c0 8 0 21 4 44c6 35 21 83 30 108
c7 19 34 81 57 133c7 16 9 21 9 24c0 1 -1 2 -2 2z" />
    <glyph glyph-name="uni2007" unicode="&#x2007;" horiz-adv-x="360" 
 />
    <glyph glyph-name="uni2008" unicode="&#x2008;" horiz-adv-x="235" 
 />
    <glyph glyph-name="uni200B" unicode="&#x200b;" horiz-adv-x="0" 
 />
    <glyph glyph-name="uniFEFF" unicode="&#xfeff;" horiz-adv-x="0" 
 />
    <glyph glyph-name="endash" unicode="&#x2013;" horiz-adv-x="480" 
d="M464 302c2 -3 2 -4 2 -8c0 -11 -3 -33 -10 -48c-4 -8 -5 -8 -18 -8h-18c-56 0 -134 -7 -193 -7c-48 0 -97 3 -109 9c-8 4 -14 27 -14 54c0 11 3 16 8 18c12 5 18 5 28 5c16 0 73 -9 126 -9c44 0 68 4 109 4c22 0 23 6 52 6c14 0 28 -2 37 -16z" />
    <glyph glyph-name="emdash" unicode="&#x2014;" horiz-adv-x="707" 
d="M690 302c3 -4 3 -5 3 -14c0 -16 -4 -32 -10 -44c-3 -6 -4 -6 -20 -6h-528c-15 0 -20 1 -23 6c-5 8 -8 19 -8 39c0 21 1 22 6 26c3 2 13 4 27 4h526c18 0 19 0 27 -11z" />
    <glyph glyph-name="quoteleft" unicode="&#x2018;" horiz-adv-x="162" 
d="M125 429l57 107c13 24 43 85 46 93c5 14 18 14 32 14c19 0 31 -4 36 -11c4 -6 7 -14 7 -25c0 -39 -24 -61 -47 -104l-56 -102c-6 -11 -15 -19 -38 -19s-20 5 -29 6c-10 1 -14 16 -14 21s1 10 6 20z" />
    <glyph glyph-name="quoteright" unicode="&#x2019;" horiz-adv-x="162" 
d="M125 429l57 107c13 24 43 85 46 93c5 14 18 14 32 14c19 0 31 -4 36 -11c4 -6 7 -14 7 -25c0 -39 -24 -61 -47 -104l-56 -102c-6 -11 -15 -19 -38 -19s-20 5 -29 6c-10 1 -14 16 -14 21s1 10 6 20z" />
    <glyph glyph-name="quotesinglbase" unicode="&#x201a;" horiz-adv-x="162" 
d="M-54 -106l57 107c13 24 43 85 46 93c5 14 18 14 32 14c19 0 31 -4 36 -11c4 -6 7 -14 7 -25c0 -39 -24 -61 -47 -104l-56 -102c-6 -11 -15 -19 -38 -19s-20 5 -29 6c-10 1 -14 16 -14 21s1 10 6 20z" />
    <glyph glyph-name="quotedblleft" unicode="&#x201c;" horiz-adv-x="286" 
d="M251 429l57 107c13 24 43 85 46 93c5 14 18 14 32 14c19 0 31 -4 36 -11c4 -6 7 -14 7 -25c0 -39 -24 -61 -47 -104l-56 -102c-6 -11 -15 -19 -38 -19s-20 5 -29 6c-10 1 -14 16 -14 21s1 10 6 20zM143 416c-4 0 -5 0 -8 3c-5 5 -8 12 -8 18c0 3 8 13 12 20
c21 37 41 74 59 110c10 20 28 60 37 84c6 16 14 21 32 21c10 0 23 0 35 -21c4 -7 11 -13 11 -21c0 -11 0 -14 -3 -19c-19 -31 -38 -67 -46 -84l-49 -98c-5 -10 -10 -15 -23 -19c-3 -1 -5 -1 -14 -1c-25 0 -28 7 -35 7z" />
    <glyph glyph-name="quotedblright" unicode="&#x201d;" horiz-adv-x="286" 
d="M251 429l57 107c13 24 43 85 46 93c5 14 18 14 32 14c19 0 31 -4 36 -11c4 -6 7 -14 7 -25c0 -39 -24 -61 -47 -104l-56 -102c-6 -11 -15 -19 -38 -19s-20 5 -29 6c-10 1 -14 16 -14 21s1 10 6 20zM143 416c-4 0 -5 0 -8 3c-5 5 -8 12 -8 18c0 3 8 13 12 20
c21 37 41 74 59 110c10 20 28 60 37 84c6 16 14 21 32 21c10 0 23 0 35 -21c4 -7 11 -13 11 -21c0 -11 0 -14 -3 -19c-19 -31 -38 -67 -46 -84l-49 -98c-5 -10 -10 -15 -23 -19c-3 -1 -5 -1 -14 -1c-25 0 -28 7 -35 7z" />
    <glyph glyph-name="quotedblbase" unicode="&#x201e;" horiz-adv-x="286" 
d="M69 -113l57 107c13 24 43 85 46 93c5 14 18 14 32 14c19 0 31 -4 36 -11c4 -6 7 -14 7 -25c0 -39 -24 -61 -47 -104l-56 -102c-6 -11 -15 -19 -38 -19s-20 5 -29 6c-10 1 -14 16 -14 21s1 10 6 20zM-39 -126c-4 0 -5 0 -8 3c-5 5 -8 12 -8 18c0 3 8 13 12 20
c21 37 41 74 59 110c10 20 28 60 37 84c6 16 14 21 32 21c10 0 23 0 35 -21c4 -7 11 -13 11 -21c0 -11 0 -14 -3 -19c-19 -31 -38 -67 -46 -84l-49 -98c-5 -10 -10 -15 -23 -19c-3 -1 -5 -1 -14 -1c-25 0 -28 7 -35 7z" />
    <glyph glyph-name="dagger" unicode="&#x2020;" horiz-adv-x="464" 
d="M242 373c-46 0 -101 5 -107 10c-4 3 -7 11 -7 35c0 28 1 29 4 32l3 4c4 9 12 11 26 11c3 0 5 0 20 -2l47 -7c29 -4 32 -4 38 -4c14 0 17 1 31 42l47 133c3 8 4 9 8 10c21 5 24 11 48 11c9 0 20 0 29 -7c3 -2 6 -4 6 -8c0 -2 -1 -4 -1 -6c0 -3 3 -6 3 -9
c0 -2 -1 -8 -2 -12l-12 -40c-4 -12 -6 -14 -13 -25c-6 -10 -13 -22 -25 -52c-2 -5 -6 -19 -6 -22c0 -1 0 -3 3 -3s64 9 80 12c10 2 21 3 31 3c4 0 16 0 27 -6c4 -2 10 -9 10 -18c0 -26 -10 -34 -16 -52c-2 -6 -4 -7 -18 -7c-32 0 -72 -7 -90 -8c-15 -1 -38 -3 -51 -7
c-7 -2 -11 -6 -20 -29c-4 -10 -16 -47 -22 -67c-33 -110 -71 -201 -104 -313c-5 -17 -10 -17 -20 -17c-15 0 -21 3 -24 14c-1 4 -8 8 -14 11c-8 4 -13 8 -13 14c0 13 13 48 17 63c2 7 14 40 27 84l56 187c6 20 10 38 10 41c0 2 0 4 -6 4z" />
    <glyph glyph-name="daggerdbl" unicode="&#x2021;" horiz-adv-x="464" 
d="M303 247c45 0 82 10 109 10h4c15 0 20 0 27 -10c6 -8 7 -11 7 -21c0 -5 -7 -20 -10 -29c-4 -11 -5 -14 -5 -17s-2 -7 -7 -7h-30c-29 0 -53 -3 -73 -3c-13 0 -29 -1 -47 -6c-7 -2 -11 -12 -39 -95c-7 -21 -26 -93 -41 -130c-4 -10 -8 -11 -23 -11c-9 0 -16 0 -19 11
s-8 16 -16 16c-5 0 -8 5 -8 16c0 3 3 22 18 65c8 23 13 57 22 80c7 19 9 27 9 31c0 5 -1 8 -6 8h-17c-43 0 -53 5 -78 5c-10 0 -18 1 -20 10c-1 4 -2 13 -2 25c0 5 0 11 1 19c3 16 6 11 9 22c2 7 6 8 23 8c16 0 52 -6 63 -7c13 -1 24 -1 37 -1c11 0 14 1 17 4c4 4 5 6 15 40
l20 65c6 20 10 35 10 38c0 4 0 7 -6 7c-2 0 -16 0 -30 1c-67 5 -73 6 -78 11c-3 3 -5 6 -5 30c0 20 0 34 4 37c8 5 3 14 29 14c11 0 13 -4 28 -5l44 -4c9 -1 29 -3 32 -3c8 0 11 0 14 3c4 4 5 6 16 38l31 89c4 13 12 32 18 45c3 6 6 10 15 10c16 0 14 11 37 11
c5 0 15 0 27 -8c6 -4 7 -6 7 -14c0 -5 1 -7 1 -9c0 -3 0 -6 -2 -13l-12 -40c-1 -6 -7 -15 -13 -24c-3 -4 -13 -23 -24 -53c-5 -13 -6 -19 -6 -20c0 -2 0 -4 3 -4c7 0 56 8 70 11c11 2 27 2 30 2c37 0 47 -3 47 -21c0 -28 -15 -46 -15 -53c0 -3 -4 -7 -9 -7h-9
c-32 0 -71 -7 -91 -9c-9 -1 -26 0 -53 -7c-8 -2 -16 -25 -17 -28l-23 -67c-9 -33 -14 -47 -14 -52c0 -2 0 -4 4 -4z" />
    <glyph glyph-name="bullet" unicode="&#x2022;" horiz-adv-x="400" 
d="M416 313c0 -122 -85 -299 -236 -299c-35 0 -64 14 -81 31c-44 44 -44 87 -44 117c0 126 99 314 218 314c53 0 81 -12 101 -50c13 -24 22 -30 34 -66c7 -20 8 -33 8 -47z" />
    <glyph glyph-name="ellipsis" unicode="&#x2026;" horiz-adv-x="576" 
d="M511 96c2 -5 2 -16 2 -20c0 -21 -7 -44 -28 -72c-3 -4 -10 -10 -37 -10c-26 0 -43 15 -47 35c-1 5 -1 7 -1 10s1 13 2 31c1 13 2 26 5 33c4 10 13 18 17 23s6 7 26 7c25 0 49 -2 61 -37zM219 55c0 5 4 55 39 75c7 4 16 4 21 4c23 0 40 -3 56 -44c2 -5 2 -7 2 -11
c0 -2 -3 -26 -8 -34c-3 -5 -14 -21 -15 -25c-2 -10 -4 -12 -14 -20c-4 -3 -7 -4 -19 -4c-15 0 -22 0 -37 7c-11 5 -25 15 -25 52zM127 7c-18 -6 -15 -13 -41 -13c-27 0 -34 14 -45 35c-2 4 -3 9 -3 15c0 2 3 18 5 28s9 12 13 27c9 33 12 33 48 33c16 0 18 0 30 -15
c6 -8 8 -10 12 -12s6 -9 6 -25c0 -51 -16 -70 -25 -73z" />
    <glyph glyph-name="perthousand" unicode="&#x2030;" horiz-adv-x="880" 
d="M359 637c21 -6 37 -33 37 -79c0 -8 -7 -109 -65 -188c-19 -26 -42 -51 -85 -51c-52 0 -68 23 -88 58c-14 24 -18 40 -18 70c0 13 7 59 39 123c20 40 59 89 117 89c6 0 12 -1 23 -4c19 -5 23 -13 40 -18zM565 308c21 -10 49 -42 49 -86c0 -27 -3 -91 -58 -184
c-16 -27 -40 -51 -95 -51c-25 0 -58 4 -79 37c-15 23 -24 43 -24 64c0 24 6 69 41 143c20 42 43 67 65 79c14 8 24 9 37 9c22 0 51 -5 64 -11zM810 300c26 -6 57 -40 57 -86c0 -13 -4 -56 -14 -88c-8 -25 -24 -64 -54 -108c-9 -13 -26 -31 -77 -31c-27 0 -52 4 -77 27
c-11 10 -31 44 -31 77c0 16 0 59 38 133c20 39 35 58 55 76c11 10 19 15 59 15c9 0 20 -1 23 -2c12 -4 7 -10 21 -13zM610 630c0 -2 0 -37 -8 -40c-5 -2 -11 -6 -15 -12c-14 -20 -26 -23 -32 -32c-104 -156 -169 -294 -274 -474c-7 -12 -25 -40 -44 -69
c-7 -10 -11 -15 -19 -23c-4 -4 -10 -4 -16 -4c-11 0 -25 0 -34 8c-8 8 -11 12 -11 21c0 40 7 45 16 50c7 4 14 7 46 63l252 442c12 22 42 62 55 78c6 7 21 23 42 23c12 0 18 -1 23 -4c14 -9 19 -13 19 -27zM299 609c-2 0 -7 -1 -17 -19c-32 -57 -64 -114 -64 -164
c0 -27 7 -54 21 -54c4 0 6 0 24 31c30 52 44 88 50 117c5 23 6 35 6 41c0 9 -1 21 -7 23c-10 3 -10 12 -10 18c0 4 0 7 -3 7zM516 268c-3 0 -5 -2 -14 -17c-28 -47 -65 -115 -65 -174c0 -28 12 -44 20 -44c4 0 12 5 26 34c52 108 54 135 54 159c0 27 -14 42 -21 42zM765 259
c-4 0 -18 -19 -27 -38c-28 -58 -45 -100 -45 -147c0 -14 1 -20 6 -29c3 -6 7 -10 11 -10c2 0 4 0 15 11c4 4 10 13 15 25c33 79 50 92 50 136c0 11 -3 26 -8 28c-9 4 -12 10 -13 17c-1 6 -2 7 -4 7z" />
    <glyph glyph-name="guilsinglleft" unicode="&#x2039;" horiz-adv-x="212" 
d="M135 184c-7 16 -29 60 -43 88c-3 6 -3 7 -3 26c0 9 -1 16 -1 18c0 5 6 20 12 28l67 84c17 21 28 35 33 40c7 7 8 7 19 7c14 0 27 0 27 -11c0 -6 4 -9 8 -19c3 -7 7 -15 7 -24c0 -4 -2 -15 -37 -46c-23 -20 -30 -32 -45 -45c-6 -5 -8 -11 -8 -16c0 -3 0 -7 4 -20
c16 -53 19 -59 23 -65c2 -3 4 -10 4 -16c0 -5 -1 -32 -4 -36c-4 -5 -9 -11 -13 -14c-7 -5 -9 -6 -27 -6c-6 0 -10 0 -12 2c-9 9 -8 19 -11 25z" />
    <glyph glyph-name="guilsinglright" unicode="&#x203a;" horiz-adv-x="212" 
d="M250 319c0 -5 -7 -28 -21 -44l-87 -99c-14 -16 -19 -19 -44 -19c-4 0 -20 1 -20 23c0 4 -4 4 -4 13c0 2 0 7 6 14l80 97c3 4 6 8 6 14c0 3 -1 6 -3 11c-4 10 -6 16 -8 26c-2 9 -10 23 -12 33c-2 11 -14 20 -14 34c0 16 12 17 28 41c4 6 11 11 28 11c23 0 24 0 38 -46
l24 -79c2 -6 3 -10 3 -30z" />
    <glyph glyph-name="fraction" unicode="&#x2044;" horiz-adv-x="272" 
d="M435 662c5 -6 5 -8 5 -28c0 -13 0 -24 -8 -29c-5 -3 -8 -6 -14 -13c-16 -20 -24 -20 -32 -32c-110 -165 -182 -314 -288 -493c-19 -32 -34 -55 -45 -70c-20 -27 -21 -27 -35 -27c-22 0 -26 3 -30 8c-6 7 -11 11 -11 22c0 36 6 40 11 42c7 3 13 9 45 63l275 469
c22 37 54 78 63 87s19 14 34 14c12 0 20 -2 30 -13z" />
    <glyph glyph-name="uni2070" unicode="&#x2070;" 
d="M358 507c0 -67 -20 -115 -37 -157c-4 -10 -9 -41 -57 -119c-25 -41 -58 -67 -94 -67c-28 0 -72 30 -85 69c-2 5 -5 23 -5 44c0 28 11 94 42 164c26 59 62 110 102 163c6 8 14 8 30 8c14 0 22 -2 25 -5c5 -5 7 -7 12 -7c17 0 25 -2 36 -10c8 -6 19 -15 22 -24
c8 -22 9 -40 9 -59zM287 509c0 17 -2 26 -5 32c-4 8 -5 8 -7 8s-3 -1 -19 -24c-34 -49 -67 -108 -87 -163c-8 -22 -8 -29 -10 -36c-9 -32 -11 -70 -11 -76c0 -9 2 -27 7 -27c3 0 10 0 39 40c8 11 15 24 23 39c5 9 12 20 17 32c38 91 53 138 53 175z" />
    </font>
</defs>
</svg>
