<?xml version="1.0" standalone="no"?>
<!DOCTYPE svg PUBLIC "-//W3C//DTD SVG 1.1//EN" "http://www.w3.org/Graphics/SVG/1.1/DTD/svg11.dtd" >
<svg xmlns="http://www.w3.org/2000/svg" xmlns:xlink="http://www.w3.org/1999/xlink" version="1.1">
<metadata>
Created by FontForge 20201107 at Tue Apr 10 14:42:37 2012
 By Unknown

</metadata>
<defs>
<font id="MarketOT" horiz-adv-x="364" >
  <font-face 
    font-family="MarketOT"
    font-weight="400"
    font-stretch="normal"
    units-per-em="1000"
    panose-1="3 1 5 4 2 1 1 1 1 1"
    ascent="800"
    descent="-200"
    x-height="448"
    cap-height="638"
    bbox="-643 -438 1721 918"
    underline-thickness="64"
    underline-position="-128"
    stemh="69"
    stemv="80"
    unicode-range="U+000D-FEFF"
  />
<missing-glyph horiz-adv-x="420" 
d="M30 0v700h360v-700h-360zM94 64h232v572h-232v-572z" />
    <glyph glyph-name="f_i" unicode="fi" horiz-adv-x="488" 
d="M224 277c-6 -6 -9 -13 -11 -18c-45 -132 -95 -258 -108 -408c-1 -12 -13 -24 -28 -29c-12 -4 -27 -11 -31 -11c-12 0 -16 6 -25 12c-3 2 -7 24 -7 39c0 38 17 72 27 107c2 7 8 27 10 40c9 52 79 241 79 265c0 3 0 4 -2 7c-12 21 -38 34 -46 58c-3 8 -6 17 -6 24
c0 10 8 20 14 20c15 0 38 -14 57 -14c4 0 18 2 23 14c59 141 99 237 160 336c8 13 37 22 51 22c13 0 25 -5 34 -17c5 -7 8 -14 8 -20c0 -20 -27 -39 -30 -58c-1 -7 -2 -11 -4 -16c-26 -54 -90 -105 -108 -171c-3 -11 -5 -17 -11 -30c-5 -11 -23 -46 -23 -59c0 -4 4 -5 7 -5
c14 0 44 5 97 26c60 24 86 36 98 61c15 30 28 35 54 35c9 0 21 -2 29 -8c5 -4 8 -7 8 -16c0 -53 -41 -78 -64 -127c-18 -38 -45 -106 -59 -142c-17 -45 -24 -82 -24 -98c0 -10 2 -32 18 -32c22 0 33 6 73 34c24 17 31 22 47 22c8 0 19 -2 25 -7s6 -10 6 -14
c0 -11 -5 -16 -16 -27l-41 -38c-22 -21 -58 -48 -103 -48c-30 0 -64 42 -75 79c-4 13 -5 28 -5 42c0 25 4 47 16 81c9 27 23 69 51 131c5 11 7 17 7 20c0 2 -1 3 -3 3s-5 -1 -21 -8c-14 -6 -63 -23 -87 -30c-34 -10 -53 -19 -61 -27zM632 691c10 -11 12 -23 12 -33
c0 -6 -1 -13 -5 -18c-18 -22 -42 -49 -64 -49c-20 0 -35 11 -40 20c-5 10 -7 23 -7 34c0 14 4 31 13 42c10 12 28 17 49 17c16 0 35 -5 42 -13z" />
    <glyph glyph-name="f_l" unicode="fl" horiz-adv-x="500" 
d="M410 -18c-8 0 -91 22 -101 77c-2 11 -3 22 -3 34c0 46 21 92 43 149c8 21 22 53 27 64c11 25 12 27 12 29s-1 3 -3 3s-5 -1 -17 -6c-14 -6 -47 -17 -63 -22c-47 -15 -68 -22 -82 -33c-5 -4 -7 -8 -9 -13c-45 -132 -96 -263 -109 -413c-1 -12 -13 -25 -28 -29
c-11 -3 -27 -11 -31 -11c-12 0 -16 6 -25 12c-3 2 -7 24 -7 39c0 38 17 72 27 107c2 7 8 27 10 40c9 52 79 241 79 265c0 3 0 4 -2 7c-12 21 -38 34 -46 58c-3 8 -6 17 -6 24c0 10 8 20 14 20c15 0 38 -14 57 -14c4 0 18 2 23 14c59 141 99 237 160 336c8 13 33 20 51 20
c27 0 42 -22 42 -35c0 -27 -7 -49 -45 -95c-38 -45 -82 -114 -93 -145c-4 -11 -9 -22 -15 -35c-5 -11 -23 -46 -23 -59c0 -4 2 -5 5 -5c16 0 46 4 102 27c66 27 85 46 197 240c15 26 30 97 68 97c14 0 22 2 33 2c10 0 20 -3 26 -11c6 -9 8 -18 8 -28c0 -13 -4 -25 -10 -35
c-91 -147 -196 -281 -255 -437c-16 -41 -38 -79 -38 -123c0 -12 1 -24 5 -37c3 -9 11 -12 19 -12c7 0 13 1 19 5c48 32 92 111 138 111c8 0 34 -7 34 -23c0 -13 -10 -17 -20 -28c-51 -55 -92 -131 -168 -131z" />
    <glyph glyph-name="f_r" unicode="fr" horiz-adv-x="556" 
d="M308 358c-10 -2 -26 -7 -48 -10c-13 -2 -19 -10 -25 -26c-34 -92 -73 -204 -102 -310c-20 -72 -31 -116 -45 -142c-15 -27 -20 -32 -26 -32c-12 0 -33 0 -38 13c-2 5 -6 9 -10 13c-8 8 -10 24 -10 38c0 29 22 41 51 136c8 26 18 53 26 78c27 83 68 190 68 207
c0 24 -62 17 -75 44c-6 13 -12 7 -12 31c0 18 7 22 31 22c7 0 31 -1 54 -1c38 0 41 3 46 16c55 144 81 196 144 294c9 14 35 24 52 24c12 0 25 -2 35 -13c6 -7 7 -14 7 -19c0 -33 -20 -47 -27 -65c-22 -56 -77 -105 -96 -145c-24 -51 -36 -78 -36 -82s3 -5 6 -5
c11 0 73 11 92 11c22 0 38 -3 59 -15c42 -24 45 -52 45 -74c0 -3 0 -6 3 -6c2 0 5 2 17 15c44 47 108 82 144 94c9 3 16 4 22 4c22 0 46 -6 67 -23c6 -5 6 -10 6 -16c0 -32 -24 -48 -32 -48c-17 0 -26 9 -46 9c-6 0 -8 0 -22 -7c-93 -46 -193 -145 -245 -316
c-10 -33 -12 -38 -23 -52c-13 -16 -28 -21 -39 -21c-17 0 -23 10 -34 14c-9 3 -13 13 -13 24s13 40 27 66c23 43 25 49 36 80c26 74 46 130 46 166c0 26 -5 37 -32 37c-11 0 -14 -1 -48 -8z" />
    <glyph glyph-name="f_r_period" unicode="fr&#x2e;" horiz-adv-x="730" 
d="M308 358c-10 -2 -26 -7 -48 -10c-13 -2 -19 -10 -25 -26c-34 -92 -73 -204 -102 -310c-20 -72 -31 -116 -45 -142c-15 -27 -20 -32 -26 -32c-12 0 -33 0 -38 13c-2 5 -6 9 -10 13c-8 8 -10 24 -10 38c0 29 22 41 51 136c8 26 18 53 26 78c27 83 68 190 68 207
c0 24 -62 17 -75 44c-6 13 -12 7 -12 31c0 18 7 22 31 22c7 0 31 -1 54 -1c38 0 41 3 46 16c55 144 81 196 144 294c9 14 35 24 52 24c12 0 25 -2 35 -13c6 -7 7 -14 7 -19c0 -33 -20 -47 -27 -65c-22 -56 -77 -105 -96 -145c-24 -51 -36 -78 -36 -82s3 -5 6 -5
c11 0 73 11 92 11c22 0 38 -3 59 -15c42 -24 45 -52 45 -74c0 -3 0 -6 3 -6c2 0 5 2 17 15c44 47 108 82 144 94c9 3 16 4 22 4c22 0 46 -6 67 -23c6 -5 6 -10 6 -16c0 -32 -24 -48 -32 -48c-17 0 -26 9 -46 9c-6 0 -8 0 -22 -7c-93 -46 -193 -145 -245 -316
c-10 -33 -12 -38 -23 -52c-13 -16 -28 -21 -39 -21c-17 0 -23 10 -34 14c-9 3 -13 13 -13 24s13 40 27 66c23 43 25 49 36 80c26 74 46 130 46 166c0 26 -5 37 -32 37c-11 0 -14 -1 -48 -8zM664 73c0 -7 -7 -24 -8 -39c-1 -12 -17 -41 -58 -41c-10 0 -26 9 -42 16
c-9 4 -16 19 -16 33c0 20 15 40 21 56c10 28 24 33 43 33c22 0 44 -16 52 -31c7 -13 8 -20 8 -27z" />
    <glyph glyph-name="f_r_period_b_period" unicode="fr&#x2e;b&#x2e;" horiz-adv-x="1374" 
d="M308 358c-10 -2 -26 -7 -48 -10c-13 -2 -19 -10 -25 -26c-34 -92 -73 -204 -102 -310c-20 -72 -31 -116 -45 -142c-15 -27 -20 -32 -26 -32c-12 0 -33 0 -38 13c-2 5 -6 9 -10 13c-8 8 -10 24 -10 38c0 29 22 41 51 136c8 26 18 53 26 78c27 83 68 190 68 207
c0 24 -62 17 -75 44c-6 13 -12 7 -12 31c0 18 7 22 31 22c7 0 31 -1 54 -1c38 0 41 3 46 16c55 144 81 196 144 294c9 14 35 24 52 24c12 0 25 -2 35 -13c6 -7 7 -14 7 -19c0 -33 -20 -47 -27 -65c-22 -56 -77 -105 -96 -145c-24 -51 -36 -78 -36 -82s3 -5 6 -5
c11 0 73 11 92 11c22 0 38 -3 59 -15c42 -24 45 -52 45 -74c0 -3 0 -6 3 -6c2 0 5 2 17 15c44 47 108 82 144 94c9 3 16 4 22 4c22 0 46 -6 67 -23c6 -5 6 -10 6 -16c0 -32 -24 -48 -32 -48c-17 0 -26 9 -46 9c-6 0 -8 0 -22 -7c-93 -46 -193 -145 -245 -316
c-10 -33 -12 -38 -23 -52c-13 -16 -28 -21 -39 -21c-17 0 -23 10 -34 14c-9 3 -13 13 -13 24s13 40 27 66c23 43 25 49 36 80c26 74 46 130 46 166c0 26 -5 37 -32 37c-11 0 -14 -1 -48 -8zM883 334l166 386c12 27 26 53 51 53c18 0 30 -8 41 -11c16 -4 20 -8 20 -26
c0 -20 -22 -33 -27 -51c-2 -8 -33 -49 -38 -59c-40 -79 -43 -90 -69 -149c-8 -18 -11 -25 -11 -29s1 -5 4 -5s31 14 57 14c25 0 49 -3 67 -36c10 -18 26 -34 26 -57c0 -91 -82 -288 -190 -368c-22 -16 -36 -18 -59 -18c-12 0 -37 7 -62 41c-3 4 -7 6 -11 6
c-5 0 -20 -3 -25 -3c-27 0 -23 11 -35 26c-3 4 -4 11 -4 19c0 7 2 14 7 28c26 71 55 153 92 239zM953 74c84 99 133 213 133 278c0 24 -1 40 -16 40c-6 0 -25 -6 -44 -22c-29 -25 -59 -57 -77 -99l-25 -58c-17 -39 -19 -54 -19 -67c0 -6 5 -7 5 -13c0 -3 -6 -27 -6 -37
c0 -23 2 -44 16 -44c5 0 19 6 33 22zM664 73c0 -7 -7 -24 -8 -39c-1 -12 -17 -41 -58 -41c-10 0 -26 9 -42 16c-9 4 -16 19 -16 33c0 20 15 40 21 56c10 28 24 33 43 33c22 0 44 -16 52 -31c7 -13 8 -20 8 -27zM1308 73c0 -7 -7 -24 -8 -39c-1 -12 -17 -41 -58 -41
c-10 0 -26 9 -42 16c-9 4 -16 19 -16 33c0 20 15 40 21 56c10 28 24 33 43 33c22 0 44 -16 52 -31c7 -13 8 -20 8 -27z" />
    <glyph glyph-name=".notdef" horiz-adv-x="420" 
d="M30 0v700h360v-700h-360zM94 64h232v572h-232v-572z" />
    <glyph glyph-name=".null" horiz-adv-x="0" 
 />
    <glyph glyph-name="CR" unicode="&#xd;" horiz-adv-x="246" 
 />
    <glyph glyph-name="space" unicode=" " horiz-adv-x="246" 
 />
    <glyph glyph-name="exclam" unicode="!" horiz-adv-x="320" 
d="M344 626c14 -4 26 -16 26 -25c0 -37 -22 -65 -31 -94c-35 -110 -56 -212 -101 -314c-4 -9 -6 -12 -13 -12c-14 0 -20 7 -21 12c-5 26 -28 29 -28 43c0 7 0 10 3 18c7 18 7 26 11 43c23 97 52 173 67 272c5 32 13 80 43 80c8 0 13 -7 22 -9c13 -3 14 -12 22 -14zM201 82
c11 -1 14 -8 14 -15c0 -9 0 -19 -7 -38c-7 -18 -16 -39 -32 -39c-7 0 -15 -1 -39 -1c-16 0 -31 44 -31 62c0 11 2 16 9 28c4 7 3 24 21 24c28 0 38 -19 65 -21z" />
    <glyph glyph-name="quotedbl" unicode="&#x22;" horiz-adv-x="350" 
d="M351 557c11 43 19 90 19 96c0 12 6 18 24 18c12 0 27 0 36 -11c13 -16 23 -18 23 -33c0 -25 -23 -91 -26 -101l-36 -141c-2 -9 -17 -17 -21 -17c-17 0 -23 2 -34 6c-9 3 -15 8 -21 20c-1 2 -2 4 -2 8c0 2 11 46 14 59zM203 576c8 34 12 59 14 83c1 13 6 20 25 20
c11 0 15 -11 32 -14c25 -4 28 -17 28 -29c0 -14 -14 -54 -25 -101l-32 -137c-2 -10 -21 -20 -29 -20c-11 0 -22 7 -33 7c-6 0 -23 16 -23 24c0 12 5 14 8 26z" />
    <glyph glyph-name="numbersign" unicode="#" horiz-adv-x="650" 
d="M496 252h82c12 0 41 -3 42 -7c4 -14 11 -11 11 -17c0 -14 -7 -19 -8 -31c-1 -10 -10 -18 -18 -18c-36 0 -71 3 -84 3c-15 0 -41 -1 -49 -1c-10 0 -15 -2 -21 -18c-17 -46 -34 -82 -58 -137c-19 -43 -29 -66 -39 -66c-11 0 -27 1 -32 5c-11 9 -20 12 -20 21
c0 10 4 22 8 33c7 18 15 27 18 36l38 97c3 7 5 12 5 16s-3 6 -9 6s-67 -4 -73 -4c-9 0 -14 0 -20 -15c-18 -44 -35 -87 -55 -129c-21 -45 -29 -66 -39 -66c-20 0 -17 5 -32 5c-16 0 -20 12 -20 21c0 10 2 18 8 33c5 13 16 32 34 77l21 53c3 7 5 12 5 16s-3 6 -9 6
c-58 0 -80 -6 -101 -6c-10 0 -15 6 -15 15c0 3 0 9 2 13c1 2 2 4 2 6c0 4 -3 6 -3 10s0 8 7 17c9 12 13 13 24 14c9 1 69 1 103 1c19 0 23 8 29 21l26 62c3 8 5 12 5 16s-3 6 -9 6c-52 0 -59 -3 -85 -3c-36 0 -41 3 -41 16c0 7 10 24 11 35c2 19 17 25 28 25
c49 0 41 -3 107 -3c19 0 22 5 29 22l54 137c11 29 22 54 28 60c11 11 25 11 30 11c6 0 15 -6 25 -6c16 0 24 -17 24 -25c0 -15 -1 -17 -5 -22c-13 -18 -21 -28 -26 -38c-16 -33 -33 -72 -51 -115c-3 -7 -5 -12 -5 -16s5 -6 9 -6c6 0 64 3 72 3c14 0 17 2 24 21l53 133
c11 28 25 44 28 62c1 7 8 9 23 9c13 0 31 -6 38 -11c8 -5 19 -12 19 -20c0 -15 -1 -17 -5 -22c-13 -18 -28 -42 -33 -52c-14 -28 -39 -83 -43 -95c-3 -8 -5 -14 -5 -17c0 -4 3 -5 9 -5c8 0 58 4 84 4c27 0 37 0 38 -4c2 -6 7 -20 7 -26c0 -14 -12 -12 -16 -23
c-6 -17 -15 -20 -18 -20h-33c-24 0 -72 -2 -90 -2c-8 0 -12 -1 -18 -15c-9 -20 -18 -42 -26 -64c-3 -7 -5 -12 -5 -16s3 -6 9 -6zM316 243c9 0 68 5 73 5c12 0 15 3 21 19l24 60c2 5 5 13 5 16c0 4 -3 6 -9 6c-3 0 -63 -3 -73 -3c-13 0 -15 -1 -21 -17l-24 -63
c-3 -7 -5 -12 -5 -16s3 -7 9 -7z" />
    <glyph glyph-name="dollar" unicode="$" horiz-adv-x="462" 
d="M439 513c-19 19 -5 9 -21 32c-5 7 -8 9 -11 9c-2 0 -4 -2 -6 -8l-18 -55c-17 -52 -42 -116 -42 -132c0 -4 2 -9 6 -17l26 -57c39 -85 59 -129 59 -200c0 -41 -25 -72 -61 -93c-5 -3 -32 -10 -69 -10c-41 0 -64 9 -69 9c-2 0 -5 0 -6 -7c-1 -6 -3 -37 -3 -42
c0 -25 -26 -34 -37 -34c-17 0 -20 5 -37 5c-11 0 -15 11 -15 24c0 17 8 37 19 69c1 3 2 6 2 8c0 5 -4 8 -8 10c-30 16 -54 38 -70 58c-22 27 -58 39 -58 112c0 8 12 30 23 31c8 1 17 2 22 2c14 0 18 -4 29 -7c15 -4 39 -16 39 -31c0 -16 -4 -11 -4 -32c0 -4 4 -19 13 -32
c5 -7 16 -19 28 -28c4 -3 8 -5 12 -5c2 0 3 2 5 10c14 56 42 130 63 202c2 7 4 14 4 19c0 4 -3 15 -8 26c-37 82 -61 134 -61 178c0 63 28 88 60 114c17 14 38 21 68 21c25 0 41 -6 46 -6c6 0 10 4 12 11c10 29 15 45 16 52c3 15 35 17 51 17c8 0 33 -5 33 -18
s-10 -25 -10 -37c0 -15 -27 -44 -27 -52c0 -4 2 -6 7 -9c55 -32 84 -76 90 -85c2 -3 3 -8 3 -11c0 -7 -4 -15 -10 -21c-9 -9 -20 -13 -27 -19c-2 -2 -4 -2 -6 -2c-6 0 -12 5 -18 5c-19 0 -25 17 -34 26zM296 214c-19 -54 -37 -117 -44 -137c-2 -7 -4 -16 -4 -19
c0 -5 14 -14 47 -14c28 0 49 11 49 39c0 51 -13 94 -33 140c-3 7 -5 8 -7 8c-1 0 -2 0 -8 -17zM265 535c0 -14 8 -39 20 -71c4 -11 7 -14 10 -14c1 0 2 0 6 14c11 38 24 73 37 109c3 8 3 11 3 14c0 5 -16 12 -34 12c-31 0 -42 -24 -42 -64z" />
    <glyph glyph-name="percent" unicode="%" horiz-adv-x="780" 
d="M445 561c-2 0 -3 -1 -3 -2v-8c0 -62 -22 -128 -65 -180c-23 -28 -50 -52 -91 -52c-56 0 -85 29 -107 59c-17 23 -27 45 -27 73c0 29 12 66 39 119c23 45 70 92 130 92c27 0 39 -8 42 -11s16 -11 27 -14c51 -14 77 -18 93 -18c61 0 110 5 130 30c4 5 11 12 17 12
c16 0 26 -1 37 -9c12 -8 16 -12 16 -26c0 -31 -4 -34 -17 -45s-26 -24 -51 -63l-280 -443l-58 -88c-9 -13 -25 -14 -32 -14c-8 0 -25 5 -33 12c-6 5 -9 9 -9 29c0 25 3 28 9 30c3 1 12 6 19 17c28 42 14 3 52 65c97 158 153 252 262 422c3 4 4 7 4 9c0 3 -1 4 -3 4
c-3 0 -10 -1 -21 -3c-9 -2 -19 -2 -36 -2c-15 0 -41 5 -44 5zM741 213c0 -67 -21 -119 -57 -175c-18 -28 -49 -51 -104 -51c-28 0 -67 4 -92 32c-22 25 -37 52 -37 76c0 48 13 89 40 135c40 67 66 91 119 91c33 0 56 -11 87 -28c30 -16 44 -49 44 -80zM356 578
c-25 8 -3 28 -30 28c-12 0 -19 -3 -28 -15c-41 -55 -67 -113 -67 -153c0 -30 5 -66 43 -66c14 0 22 6 37 31c47 79 55 110 55 149c0 11 -4 24 -10 26zM652 247c-12 5 -11 22 -27 22c-12 0 -17 -2 -28 -18c-43 -63 -66 -118 -66 -166c0 -10 1 -52 34 -52c18 0 33 11 41 27
c41 82 59 120 59 159c0 11 -6 25 -13 28z" />
    <glyph glyph-name="ampersand" unicode="&#x26;" horiz-adv-x="528" 
d="M247 357c-13 61 -13 94 -13 99c0 13 3 33 5 46c18 86 73 126 123 126c19 0 37 0 52 -8c13 -6 17 -16 25 -22c18 -15 31 -32 31 -54c0 -21 -7 -43 -17 -74c-9 -26 -47 -66 -107 -126c-6 -6 -9 -10 -9 -16c0 -2 1 -6 4 -16c15 -52 30 -95 46 -144c3 -9 5 -9 7 -9s5 2 11 7
c15 12 21 19 30 26c13 11 21 16 33 23c15 10 20 11 28 11c9 0 11 0 14 -9s4 -13 4 -32c0 -30 -7 -42 -28 -53c-16 -9 -13 -12 -53 -37c-11 -7 -13 -9 -13 -14c0 -3 0 -7 2 -12c7 -18 12 -34 20 -54c5 -12 7 -18 7 -23s-4 -8 -7 -8c-9 0 -19 6 -28 6c-5 0 -3 -4 -14 -4
c-16 0 -33 13 -34 20c-3 11 -8 17 -11 27c-3 8 -5 12 -9 12c-3 0 -7 -1 -14 -5c-21 -11 -46 -22 -61 -26c-21 -5 -69 -14 -87 -14c-25 0 -38 2 -53 7c-29 9 -39 39 -52 53c-8 9 -17 24 -17 45c0 11 2 29 9 43c27 56 60 90 102 131c20 21 66 60 70 65s4 8 4 13zM235 234
c-22 -23 -43 -52 -57 -70c-10 -12 -32 -42 -32 -69c0 -17 14 -24 36 -24c16 0 65 9 127 37c12 5 13 6 13 11c0 2 -2 7 -5 18l-39 120c-3 9 -4 9 -6 9c-3 0 -6 -2 -37 -32zM324 418c23 23 44 47 57 72c8 15 10 29 13 35c4 9 8 19 8 27c0 11 -7 20 -17 20c-6 0 -35 -4 -50 -28
c-13 -22 -29 -39 -29 -79c0 -15 1 -25 3 -41c1 -10 2 -13 5 -13s4 1 10 7z" />
    <glyph glyph-name="quotesingle" unicode="'" horiz-adv-x="232" 
d="M212 561c9 38 14 67 16 96c1 14 4 23 26 23c16 0 24 -15 34 -17c27 -5 28 -20 28 -33c0 -21 -19 -63 -30 -117l-24 -114c-2 -11 -22 -23 -31 -23c-7 0 -21 8 -34 8c-6 0 -23 19 -23 28c0 14 6 16 9 30z" />
    <glyph glyph-name="parenleft" unicode="(" horiz-adv-x="330" 
d="M353 694c14 17 17 9 37 29c9 9 17 10 27 10c25 0 34 -31 34 -43c0 -8 -8 -47 -14 -66c-4 -12 -13 -16 -26 -16c-18 0 -23 -1 -39 -21c-59 -74 -115 -187 -136 -238c-36 -87 -56 -187 -56 -269c0 -11 1 -50 4 -63c6 -29 30 -42 30 -68c0 -12 0 -45 -35 -45
c-7 0 -19 11 -27 12c-30 4 -43 95 -43 141c0 80 7 139 24 208c23 92 91 273 220 429z" />
    <glyph glyph-name="parenright" unicode=")" horiz-adv-x="330" 
d="M263 632c-7 29 -25 30 -25 59c0 16 2 21 10 23c14 3 14 19 39 19c18 0 34 -13 43 -23c7 -8 13 -21 18 -70c4 -36 5 -81 5 -100c0 -137 -30 -309 -118 -444c-43 -66 -93 -126 -161 -178c-13 -10 -19 -11 -30 -11c-15 0 -31 12 -31 21c0 16 -14 25 -14 36c0 13 22 18 31 27
c19 19 35 30 41 30c7 0 11 3 26 17c41 39 58 62 103 146c56 105 71 204 71 311c0 65 -5 125 -8 137z" />
    <glyph glyph-name="asterisk" unicode="*" horiz-adv-x="414" 
d="M274 540c-6 17 -12 35 -20 51c-10 19 -14 32 -14 40c0 5 1 8 4 12c7 9 21 14 25 18c10 10 11 10 21 10c9 0 13 -11 17 -22c6 -15 10 -32 13 -45c2 -9 6 -18 8 -26c4 -15 5 -17 7 -17s5 2 12 13c8 13 35 44 41 53c14 22 23 31 35 31h20c5 0 14 -1 19 -3c7 -3 18 -5 18 -13
c0 -7 -5 -16 -11 -24c-15 -19 -20 -21 -27 -29c-9 -10 -24 -27 -39 -46c-9 -11 -10 -13 -10 -14s1 -2 2 -2c2 0 5 0 13 2c22 5 73 12 78 12c26 0 31 -6 31 -13c0 -13 3 -8 3 -18c0 -9 -5 -14 -8 -22c-2 -4 -8 -13 -17 -13c-16 0 -23 -1 -27 -1c-30 0 -68 -9 -78 -10
s-13 -2 -13 -4c0 -1 1 -4 6 -11c8 -11 31 -57 39 -63s10 -12 10 -23s-16 -20 -21 -26s-11 -10 -18 -10c-6 0 -10 3 -14 8c-5 7 -19 21 -48 76c-9 17 -10 17 -11 17s-2 0 -14 -20s-18 -25 -29 -51c-4 -9 -9 -15 -23 -23c-5 -3 -10 -4 -29 -4c-9 0 -30 11 -30 23c0 6 4 9 7 14
l58 86c2 3 5 7 5 9s-4 3 -27 4c-29 1 -41 0 -70 4c-7 1 -11 2 -14 4c-8 5 -8 11 -8 18c0 17 4 19 4 28c0 5 4 7 7 11c4 6 11 8 16 8c9 0 6 -2 12 -3c17 -3 54 -4 67 -5c11 -1 21 -2 22 -2c2 0 2 2 2 3s-1 5 -2 8z" />
    <glyph glyph-name="plus" unicode="+" horiz-adv-x="590" 
d="M381 304c8 0 15 1 22 1c19 0 98 11 113 11s27 -4 37 -14c4 -4 4 -5 4 -12c0 -14 -8 -27 -13 -40c-2 -5 -6 -10 -10 -10c-5 0 -10 2 -15 2c-8 0 -21 -1 -29 -2c-49 -6 -112 -10 -131 -13c-6 -1 -9 -2 -11 -8c-10 -29 -25 -89 -34 -147c-3 -20 -5 -31 -34 -31
c-5 0 -14 -6 -18 -6c-22 0 -28 10 -28 14c0 53 16 78 28 133l6 27c1 2 1 4 1 5c0 4 -2 5 -5 5h-38c-30 0 -83 6 -94 10c-10 4 -18 25 -18 57c0 5 4 9 9 13c6 5 11 7 18 7c4 0 7 0 14 -2c17 -5 74 -6 90 -6h27c13 0 22 1 24 7c7 21 27 86 30 99c9 39 16 53 23 55
c24 7 33 13 42 13c8 0 24 -3 27 -6s5 -6 5 -10c0 -3 -3 -9 -4 -13c-28 -92 -37 -119 -40 -129c-2 -5 -2 -6 -2 -7c0 -3 2 -3 4 -3z" />
    <glyph glyph-name="comma" unicode="," horiz-adv-x="260" 
d="M61 9c8 14 37 69 50 95c9 17 15 21 33 21c11 0 24 -7 33 -20c12 -18 21 -20 21 -36c0 -3 -1 -6 -3 -9l-130 -198c-7 -11 -22 -20 -24 -20c-5 0 -13 1 -19 3c-3 1 -15 4 -19 4c-8 0 -17 16 -17 23c0 3 0 8 7 20z" />
    <glyph glyph-name="hyphen" unicode="-" horiz-adv-x="456" 
d="M423 243c-6 -6 -31 -5 -55 -12c-10 -3 -47 -3 -70 -3c-61 0 -131 8 -151 8c-9 0 -16 11 -23 28c-3 8 -6 17 -6 26c0 5 1 9 3 13c5 9 27 12 36 12c60 0 109 -4 168 -4c21 0 57 4 75 4c23 0 37 -7 37 -18c0 -30 -1 -41 -14 -54z" />
    <glyph glyph-name="period" unicode="." horiz-adv-x="284" 
d="M218 74c0 -8 -5 -30 -8 -39c-6 -17 -12 -25 -21 -32c-11 -9 -22 -9 -37 -9c-11 0 -33 9 -50 35c-6 9 -8 18 -8 23c0 7 4 16 8 20c7 7 12 17 13 27s5 19 10 25c6 7 16 8 33 8c22 0 44 -16 52 -31c7 -13 8 -20 8 -27z" />
    <glyph glyph-name="slash" unicode="/" horiz-adv-x="400" 
d="M523 653c0 -15 -3 -20 -13 -31c-22 -24 -32 -26 -41 -39c-102 -148 -235 -398 -334 -570c-33 -57 -61 -91 -68 -91c-16 0 -21 0 -32 7c-14 9 -22 16 -22 28c0 7 7 27 18 46c7 12 25 35 34 50l316 547c20 34 57 78 62 82c10 8 24 13 31 13c15 0 49 -26 49 -42z" />
    <glyph glyph-name="zero" unicode="0" horiz-adv-x="440" 
d="M386 577c8 0 62 -20 73 -42c17 -33 24 -71 24 -112c0 -67 -22 -132 -46 -193c-7 -18 -14 -52 -85 -163c-40 -62 -101 -99 -146 -99c-25 0 -104 36 -131 91c-2 4 -15 42 -15 82c0 46 21 139 55 212c39 84 97 157 162 232c7 8 21 8 41 8c9 0 15 -3 31 -13c8 -5 14 -8 20 -8
c8 0 4 5 17 5zM403 452c0 35 -27 75 -55 75c-6 0 -14 -3 -21 -11c-68 -77 -126 -167 -165 -269c-12 -31 -11 -42 -13 -51c-6 -26 -14 -52 -14 -80c0 -7 5 -47 10 -54s14 -27 31 -27c24 0 67 21 125 119c7 12 20 29 27 46c35 84 75 156 75 252z" />
    <glyph glyph-name="one" unicode="1" horiz-adv-x="440" 
d="M340 416c-199 -243 -230 -252 -238 -266c-4 -7 -17 -8 -27 -8c-14 0 -15 5 -18 7c-6 4 -16 9 -20 14c-13 15 -15 23 -15 25c0 4 6 10 21 24c65 60 66 46 103 87c61 68 132 148 197 228c21 26 70 95 75 106s6 12 20 12c24 0 52 -8 63 -30c1 -2 2 -5 2 -9s-1 -8 -3 -13
c-64 -161 -99 -336 -142 -507c-4 -16 -11 -36 -11 -62c0 -10 -4 -44 -25 -44c-13 0 -17 -3 -26 -3c-19 0 -35 5 -45 14c-3 3 -4 8 -4 16c0 12 3 28 5 38c5 27 15 36 20 56c25 98 53 199 76 297c2 7 4 17 4 20c0 4 -2 5 -3 5c-2 0 -3 0 -9 -7z" />
    <glyph glyph-name="two" unicode="2" horiz-adv-x="440" 
d="M164 223c182 173 236 279 236 341c0 13 -10 15 -25 15c-49 0 -120 -67 -120 -83c0 -4 -21 -20 -28 -35s-15 -20 -30 -20c-11 0 -18 -4 -23 -4c-3 0 -32 13 -32 44c0 23 0 24 25 57s52 49 90 72c46 28 70 31 124 31c33 0 99 -54 99 -84c0 -198 -245 -357 -333 -474
c-9 -12 -10 -15 -10 -17c0 -3 4 -7 13 -11c11 -5 40 -6 70 -6c62 0 88 3 111 26c21 21 21 43 37 64c8 11 25 14 43 14c10 0 17 -6 30 -18c3 -3 5 -9 5 -16c0 -16 -20 -89 -36 -109c-19 -23 -58 -30 -178 -30c-67 0 -148 0 -172 19c-27 22 -38 43 -38 64c0 11 14 38 142 160z
" />
    <glyph glyph-name="three" unicode="3" horiz-adv-x="440" 
d="M461 588c5 -11 6 -16 6 -18c0 -11 -4 -22 -11 -38c-4 -10 -5 -17 -9 -24c-40 -70 -85 -124 -114 -152c31 0 71 -14 91 -49c8 -14 14 -28 14 -65c0 -38 -17 -86 -37 -127c-37 -76 -86 -150 -180 -150c-67 0 -137 69 -175 114c-11 13 -6 11 -10 19s-4 11 -4 14
c0 8 3 20 24 20c9 0 16 -1 28 -1c3 0 7 2 11 2c8 0 11 -2 16 -7c13 -14 33 -26 33 -39s39 -52 75 -52c7 0 16 2 21 5c40 25 68 60 92 115c12 28 27 73 27 83c0 18 -6 31 -12 40c-9 13 -22 16 -31 16c-13 0 -26 -5 -31 -7c-7 -3 -12 0 -30 -10c-28 -15 -54 -34 -86 -34
c-7 0 -20 2 -23 5c-10 10 -17 30 -17 38c0 5 28 23 46 34s22 18 26 21c109 71 158 177 170 212c3 9 3 11 3 13s-2 3 -3 3c-5 0 -14 -1 -26 -7c-33 -16 -101 -57 -101 -77c0 -18 -16 -19 -27 -30c-5 -5 -24 -6 -38 -6c-11 0 -28 36 -28 41c0 40 39 58 64 81c3 3 8 4 13 5
c20 4 29 14 45 22c34 17 65 33 98 33c18 0 35 -5 42 -10c10 -7 16 -9 20 -10c15 -4 24 -15 28 -23z" />
    <glyph glyph-name="four" unicode="4" horiz-adv-x="440" 
d="M420 184c-19 -3 -52 -8 -74 -13c-17 -35 -26 -118 -26 -142c0 -6 -3 -12 -4 -18c-1 -7 -4 -18 -12 -18c-27 0 -42 15 -61 26c-7 4 -9 11 -9 21c0 9 4 28 9 59c4 25 10 47 10 50c0 5 -2 8 -8 8c-57 3 -104 -3 -161 20c-5 2 -9 6 -12 9c-20 20 -40 52 -40 65c0 2 2 7 2 15
c0 5 0 6 9 16c79 88 178 212 297 313c6 5 19 17 22 22c10 16 17 21 29 21c6 0 14 -1 23 -4c7 -2 29 -13 29 -24c0 -41 -16 -59 -16 -75c0 -46 -58 -193 -70 -274c-1 -7 -1 -11 -1 -14c0 -2 2 -3 5 -3c24 0 33 10 97 10c20 0 29 -12 39 -38c1 -3 2 -6 2 -9
c0 -11 -8 -18 -23 -18s-41 -3 -56 -5zM339 496c-3 0 -4 -1 -11 -8c-53 -52 -142 -159 -201 -232c-3 -4 -4 -6 -4 -9c0 -7 1 -9 5 -11c19 -11 50 -14 80 -14c7 0 36 2 54 5c6 1 7 2 8 3s2 3 3 9c16 94 47 190 63 237c3 9 5 15 5 17s-1 3 -2 3z" />
    <glyph glyph-name="five" unicode="5" horiz-adv-x="440" 
d="M456 540c-3 0 -11 0 -25 -1c-71 -5 -127 -15 -172 -26c-4 -1 -7 -3 -9 -10c-8 -27 -21 -67 -29 -95c-3 -11 -3 -14 -3 -16s3 -3 6 -3c2 0 40 22 83 22c41 0 84 -9 113 -51c20 -29 21 -67 21 -85c0 -56 -27 -112 -55 -164c-55 -102 -124 -143 -167 -143
c-73 0 -130 45 -177 95c-24 26 -25 28 -25 38c0 4 3 7 7 9c9 5 23 27 42 27c10 0 28 -8 31 -10c27 -16 25 -36 47 -59c28 -29 44 -37 67 -37c5 0 18 8 27 16c43 38 68 86 88 138c6 16 6 23 16 54c6 19 12 38 12 54c0 29 -8 49 -19 55c-5 3 -6 3 -19 3
c-25 0 -75 -21 -130 -77c-10 -10 -15 -11 -19 -11c-20 0 -31 6 -50 16c-6 3 -13 7 -13 13c0 2 1 5 2 8c31 99 58 197 82 264c6 18 45 31 58 31c11 0 16 -7 21 -7c6 0 60 8 110 15c37 5 84 10 103 10c16 0 48 -15 63 -35c3 -4 6 -11 6 -17c0 -14 -14 -27 -33 -27
c-5 0 -36 6 -60 6z" />
    <glyph glyph-name="six" unicode="6" horiz-adv-x="440" 
d="M464 583c3 -11 4 -18 4 -23c0 -6 -6 -15 -21 -15c-20 0 -14 3 -30 3c-5 0 -14 -7 -19 -11c-96 -76 -172 -185 -198 -249c-7 -17 -9 -24 -9 -27c0 -2 1 -4 3 -4s6 1 12 5c20 13 53 34 60 36c42 12 66 27 99 27c17 0 38 -4 49 -17c15 -18 26 -29 36 -49c1 -2 2 -4 2 -7
c0 -2 -1 -5 -2 -10c-34 -115 -111 -196 -193 -251c-12 -8 -39 -17 -70 -17c-52 0 -74 24 -83 30c-27 18 -60 39 -60 80c0 28 4 44 9 58c91 274 204 366 219 379c29 25 82 91 134 91c27 0 56 -22 58 -29zM354 221c4 7 6 19 6 23s-4 5 -8 5c-10 0 -67 -24 -109 -49
c-27 -16 -71 -50 -81 -66c-14 -22 -33 -37 -33 -63c0 -13 22 -36 36 -36c16 0 62 22 98 59c33 34 58 70 91 127z" />
    <glyph glyph-name="seven" unicode="7" horiz-adv-x="440" 
d="M202 246c6 9 7 11 7 12c0 4 -3 5 -9 5c-14 0 -64 4 -71 11c-5 5 -10 20 -11 23s-2 6 -2 16c0 3 -2 8 -2 11c0 12 9 17 16 17c5 0 15 -1 22 -4c5 -2 43 -8 50 -8c36 0 57 2 61 8c70 101 102 127 132 201c2 5 3 10 3 13c0 7 -17 10 -38 10c-116 0 -163 -21 -163 -73
c0 -11 -17 -15 -24 -15c-16 0 -26 1 -37 15c-10 12 -7 38 -15 56c-4 8 -4 16 -4 27c0 28 91 38 152 45c26 3 62 5 96 5c36 0 69 -2 84 -9c6 -3 52 -33 52 -56c0 -24 -2 -27 -42 -87c-24 -36 -80 -106 -85 -113c-2 -3 -2 -4 -2 -6c0 -3 4 -4 11 -4c8 0 18 2 24 2
c25 0 43 -4 59 -21c5 -5 9 -9 9 -15c0 -18 -4 -29 -9 -29c-9 0 -9 3 -30 3c-70 0 -68 -11 -128 -20c-100 -143 -139 -231 -139 -268c0 -5 -1 -12 -8 -12c-11 0 -12 -17 -28 -17c-7 0 -23 3 -36 19c-9 11 -21 21 -21 27c0 24 16 66 126 231z" />
    <glyph glyph-name="eight" unicode="8" horiz-adv-x="440" 
d="M202 354c0 13 -1 20 -1 29c0 133 34 229 111 257c11 4 16 4 27 4c17 0 33 -4 53 -11c18 -6 14 -18 30 -25c44 -19 81 -77 100 -125c2 -5 5 -19 5 -30c0 -22 -10 -45 -37 -59c-71 -37 -135 -69 -205 -100c-2 -5 -2 -12 -2 -23c0 -8 0 -18 1 -31c4 -54 6 -113 6 -137
c0 -31 -3 -125 -40 -130c-7 -1 -15 -6 -29 -6c-24 0 -36 0 -58 13c-57 34 -133 105 -133 181c0 91 100 124 160 160c12 7 12 8 12 33zM393 543c-8 0 -14 17 -16 26c-1 5 -2 8 -4 8c-3 0 -4 0 -9 -2c-25 -10 -40 -23 -57 -51c-10 -16 -23 -68 -23 -124c0 -14 2 -18 6 -18
c3 0 11 1 46 20c28 15 65 24 100 51c9 7 14 16 14 25c0 20 -4 38 -18 51c-16 15 -26 18 -30 18c-5 0 -4 -4 -9 -4zM196 52c8 25 11 52 11 80c0 52 -5 96 -5 103c0 5 -1 8 -5 8c-2 0 -5 -1 -10 -3c-44 -18 -77 -53 -77 -91c0 -21 8 -43 16 -54c28 -38 48 -55 60 -55
c6 0 8 5 10 12z" />
    <glyph glyph-name="nine" unicode="9" horiz-adv-x="440" 
d="M530 555c0 -23 -7 -35 -22 -56c-6 -8 -10 -16 -13 -24c-33 -89 -82 -148 -115 -252c-24 -75 -57 -147 -67 -222c-1 -8 -4 -10 -14 -16s-14 -7 -20 -7c-4 0 -13 1 -19 5c-22 14 -37 25 -37 37c0 2 0 4 8 25c32 85 57 155 87 242c7 20 7 22 7 24s-1 3 -3 3
c-1 0 -5 -1 -25 -12s-34 -18 -41 -20c-23 -7 -27 -4 -40 -8c-15 -5 -29 -8 -43 -8c-17 0 -26 2 -38 11c-15 11 -26 10 -44 39c-8 13 -20 20 -20 40c0 11 2 21 6 29c61 112 179 154 277 211c12 7 55 23 78 23c9 0 23 -1 29 -6c10 -9 21 -12 39 -27c19 -15 30 -25 30 -31z
M437 552c-2 0 -5 -1 -10 -3c-99 -47 -210 -89 -281 -191c-7 -10 -8 -12 -8 -14c0 -6 6 -13 17 -13c7 0 19 2 31 6c128 43 231 147 252 202c1 3 2 8 2 10s-2 3 -3 3z" />
    <glyph glyph-name="colon" unicode=":" horiz-adv-x="290" 
d="M258 105c9 -5 16 -32 16 -52c0 -5 -2 -34 -10 -38c-17 -8 -27 -14 -43 -14c-24 0 -28 10 -36 21c-12 16 -25 20 -25 34c0 5 3 12 7 34c4 20 18 45 38 45c23 0 36 -20 53 -30zM315 335c-10 -37 -32 -48 -36 -48c-8 0 -24 5 -32 7c-23 6 -40 17 -40 39c0 40 14 50 20 63
c11 24 12 24 33 24c9 0 17 -1 38 -18c9 -7 22 -21 22 -30c0 -5 -3 -29 -5 -37z" />
    <glyph glyph-name="semicolon" unicode=";" horiz-adv-x="280" 
d="M179 107c13 -4 17 -18 17 -28v-13c0 -22 -14 -26 -19 -34c-50 -79 -84 -146 -138 -227c-8 -12 -16 -12 -26 -12c-13 0 -21 4 -33 5c-16 1 -20 21 -20 33c0 6 5 9 12 20c71 110 95 173 143 255c8 14 10 15 13 16c5 2 5 5 9 5c17 0 35 -18 42 -20zM290 354
c0 -19 -1 -25 -3 -31c-5 -15 -14 -35 -26 -35c-11 0 -36 -1 -51 -1c-30 0 -42 19 -42 29c0 15 7 49 20 68c8 12 18 26 32 26c18 0 27 -6 38 -19c21 -25 32 -23 32 -37z" />
    <glyph glyph-name="less" unicode="&#x3c;" horiz-adv-x="590" 
d="M451 115c13 0 28 -13 28 -25c0 -13 -7 -13 -25 -35c-9 -11 -26 -16 -34 -16c-17 0 -37 9 -82 34c-51 28 -83 51 -190 118c-16 10 -18 15 -18 28c0 7 3 15 7 25c5 12 7 3 14 22c4 11 12 17 61 45c42 24 110 61 164 94c81 49 90 53 104 57c11 3 16 9 28 9
c14 0 28 -15 28 -27c0 -7 9 -19 9 -25c0 -4 -5 -23 -10 -23c-6 0 -15 -3 -51 -25c-13 -8 -14 -2 -52 -22c-41 -22 -127 -72 -153 -87c-31 -18 -43 -25 -43 -29c0 -3 1 -5 13 -12c14 -8 78 -51 114 -70c60 -32 71 -36 88 -36z" />
    <glyph glyph-name="equal" unicode="=" horiz-adv-x="590" 
d="M398 370c15 1 123 13 138 13c19 0 25 -1 34 -10c4 -4 4 -11 4 -17c0 -8 -4 -29 -9 -40c-3 -6 -13 -8 -16 -8c-14 0 -30 0 -64 -3l-157 -14c-10 -1 -21 -1 -32 -1c-49 0 -128 8 -140 11c-11 3 -17 22 -17 56c0 6 4 9 9 15s8 6 15 6c4 0 8 0 16 -2c34 -8 66 -11 105 -11
c12 0 22 0 36 1zM358 239c32 0 55 2 101 9c27 4 52 5 60 5c14 0 21 -1 29 -8c5 -4 11 -12 11 -16c-1 -15 -7 -30 -11 -45c-1 -3 -3 -7 -9 -7c-8 0 -16 2 -24 2c-7 0 -14 0 -20 -1c-59 -10 -136 -14 -189 -14h-28c-53 0 -121 2 -127 6c-10 7 -29 28 -29 57c0 5 5 6 7 13
c2 6 9 8 18 8c14 0 59 -11 143 -11c15 0 43 2 68 2z" />
    <glyph glyph-name="greater" unicode="&#x3e;" horiz-adv-x="590" 
d="M296 373c-46 23 -40 27 -65 37c-10 4 -18 14 -18 32c0 6 1 12 5 19c14 27 13 36 28 36c11 0 8 -8 31 -19c37 -18 15 -14 47 -32c30 -17 101 -59 208 -126c16 -10 18 -15 18 -28c0 -7 -3 -19 -7 -25c-11 -16 -15 -17 -17 -21c-6 -12 -10 -18 -56 -44
c-44 -25 -169 -97 -188 -109c-64 -40 -67 -42 -104 -42c-25 0 -33 4 -36 16c-3 13 -10 20 -10 26c0 4 0 11 11 19c15 11 20 6 88 43c42 23 131 73 171 96c42 24 43 25 43 31c0 3 -5 6 -18 14c-61 37 -109 66 -131 77z" />
    <glyph glyph-name="question" unicode="?" horiz-adv-x="360" 
d="M440 572c0 -51 0 -62 -109 -168c-58 -56 -98 -111 -98 -119c0 -10 21 -17 39 -17c12 0 23 2 35 2c39 0 49 -16 54 -16c3 0 11 -5 14 -13c2 -5 6 -17 6 -21c0 -8 -9 -14 -17 -15c-6 -1 -20 -6 -30 -6c-57 0 -104 5 -140 20c-19 8 -22 11 -33 30c-6 11 -9 18 -9 23
c0 3 -2 7 -2 10c0 6 2 13 6 17c3 3 4 8 6 11c27 49 70 95 128 156c53 56 74 83 74 96c0 21 -29 35 -44 35c-17 0 -31 -11 -42 -22c-7 -7 -8 -15 -8 -24c0 -5 2 -17 2 -23c0 -11 -4 -21 -24 -21c-16 0 -29 7 -40 22c-6 8 -7 26 -7 37c0 27 9 50 22 62c23 21 51 31 84 31
c36 0 58 -6 84 -21c21 -12 49 -37 49 -66zM256 45c0 -18 -1 -28 -9 -36c-13 -13 -32 -26 -50 -26c-14 0 -32 8 -37 15c-6 9 -20 20 -20 29c0 10 3 22 5 28c11 40 26 43 40 43c13 0 71 -36 71 -53z" />
    <glyph glyph-name="at" unicode="@" horiz-adv-x="700" 
d="M482 603c-45 0 -145 -20 -231 -161c-52 -85 -68 -175 -68 -228c0 -100 62 -169 160 -169c41 0 96 10 153 51c11 8 18 10 26 10c14 0 39 -8 48 -30c5 -11 12 -6 12 -31c0 -10 -29 -13 -38 -19c-69 -47 -131 -58 -188 -58c-45 0 -111 22 -144 48c-77 61 -104 123 -104 212
c0 95 22 178 87 280c81 127 195 164 263 164c86 0 140 -19 199 -78c44 -44 76 -86 76 -187c0 -88 -38 -162 -77 -213c-33 -44 -67 -53 -95 -53c-19 0 -38 6 -64 22c-15 9 -21 17 -27 41c-1 4 -1 10 -5 10c-3 0 -5 -2 -11 -11c-17 -25 -54 -57 -87 -57c-23 0 -48 22 -56 27
c-23 14 -38 46 -38 78c0 58 35 143 74 188c42 48 83 76 119 76c30 0 72 -36 81 -50c6 -9 8 -18 8 -22c0 -7 7 -11 16 -16c5 -3 9 -9 9 -13c0 -8 0 -12 -4 -21c-46 -103 -51 -120 -51 -158c0 -9 8 -24 18 -24c43 0 115 101 115 219c0 145 -99 173 -176 173zM512 439
c0 6 -15 18 -19 18c-48 0 -114 -102 -125 -135c-7 -21 -19 -36 -23 -56c-2 -9 -3 -19 -3 -35c0 -10 6 -14 11 -14c8 0 14 1 26 12c56 52 101 114 101 126c0 4 -6 7 -6 13c0 8 1 13 9 21c19 20 29 40 29 50z" />
    <glyph glyph-name="A" unicode="A" horiz-adv-x="510" 
d="M460 -73c0 -12 -12 -19 -20 -25c-5 -4 -7 -4 -11 -4c-16 0 -38 5 -51 18s-19 78 -19 127c0 45 4 88 4 134c0 3 -2 4 -6 4c-57 -21 -164 -55 -203 -61c-7 -1 -10 -3 -15 -14c-12 -27 -16 -51 -16 -70c0 -44 3 -48 3 -56c0 -2 -2 -4 -5 -6c-13 -9 -24 -22 -38 -22
c-3 0 -13 5 -19 9c-22 14 -28 26 -28 68c0 39 13 84 13 87s-2 5 -6 7c-24 13 -32 18 -32 31c0 22 12 53 15 55c4 3 8 4 11 4c16 0 30 -17 43 -17c3 0 5 1 12 14c78 145 162 286 272 451c16 24 18 25 22 25c11 0 41 12 64 12c13 0 32 -4 34 -9c3 -10 8 -8 8 -16
c0 -9 -15 -89 -15 -95c0 -10 -1 -20 -3 -33c-12 -76 -22 -241 -22 -245c0 -3 0 -6 6 -6c7 0 23 4 52 4c27 0 51 -7 61 -19c5 -6 6 -8 6 -11s-1 -8 -4 -13c-12 -20 -34 -26 -72 -26c-16 0 -33 -3 -44 -10c-9 -6 -10 -7 -11 -20l-5 -100c-1 -13 -1 -48 -1 -63
c0 -81 20 -104 20 -109zM365 267c18 141 24 223 24 268c0 15 -1 16 -3 16s-4 0 -9 -8c-76 -122 -130 -214 -180 -309c-10 -19 -12 -24 -12 -26c0 -3 2 -4 6 -4c11 0 68 16 100 28c37 14 63 22 67 24c5 2 6 3 7 11z" />
    <glyph glyph-name="B" unicode="B" horiz-adv-x="574" 
d="M389 665c9 5 38 15 69 15c36 0 73 -12 97 -33c13 -11 21 -23 21 -36c0 -12 -5 -53 -87 -148c-27 -31 -55 -70 -55 -72s2 -3 4 -4c19 -9 45 -4 64 -11c34 -13 61 -38 76 -67c6 -11 7 -20 7 -34c0 -88 -47 -147 -100 -232c-33 -53 -95 -76 -161 -76c-32 0 -83 6 -105 18
c-11 6 -32 11 -50 29c-4 -2 -10 -2 -15 -2c-22 0 -42 21 -59 36c-6 5 -6 8 -6 12c0 15 -41 48 -42 58c-2 20 -17 24 -17 45c0 13 12 17 56 17c6 0 15 -4 19 -4s8 0 11 13c29 126 51 207 93 316c0 2 -1 4 -3 7c-8 12 -9 20 -9 33c0 10 1 11 6 13c29 12 40 35 55 78
c14 40 25 47 37 47c23 0 45 -26 70 -26c7 0 15 3 24 8zM440 330c-46 0 -106 -40 -129 -55c-25 -17 -57 -33 -82 -33c-8 0 -9 -2 -11 -10c-7 -30 -31 -113 -31 -140c0 -4 1 -9 7 -15c31 -31 75 -63 132 -63c55 0 91 67 139 166c25 52 25 85 25 106c0 16 -2 22 -10 32
s-22 12 -40 12zM478 612c0 4 -1 6 -5 6c-57 0 -101 -22 -143 -52c-7 -5 -9 -7 -12 -14c-6 -15 -14 -29 -19 -44c-14 -42 -61 -157 -61 -184c0 -4 1 -4 4 -4c6 0 36 18 53 40c7 9 17 23 23 30c30 35 76 80 108 124c38 53 52 92 52 98z" />
    <glyph glyph-name="C" unicode="C" horiz-adv-x="472" 
d="M520 656c10 -15 41 -34 47 -62c1 -5 1 -8 1 -11s0 -8 -8 -28c-14 -35 -26 -55 -35 -88c-3 -11 -16 -19 -31 -19c-9 0 -21 3 -29 4s-33 18 -33 30c0 38 31 52 35 81c1 7 12 18 12 30c0 11 -2 15 -9 15c-25 0 -67 -23 -85 -40c-39 -36 -48 -48 -112 -135
c-56 -76 -98 -176 -127 -271c-4 -13 -5 -50 -5 -58c0 -9 7 -30 13 -35c17 -14 27 -29 43 -29c57 0 133 61 198 126c16 16 20 20 38 20h16c13 0 25 -4 34 -19c5 -8 6 -12 6 -16c0 -5 -5 -7 -13 -15c-74 -71 -143 -159 -250 -159c-23 0 -61 6 -78 14c-30 14 -77 49 -81 77
c-3 23 -5 43 -5 61c0 39 11 94 13 100c56 158 152 339 305 428c12 7 56 17 83 17c15 0 28 -2 43 -9c6 -3 12 -6 14 -9z" />
    <glyph glyph-name="D" unicode="D" horiz-adv-x="554" 
d="M602 547c13 -17 20 -33 20 -82c0 -29 -10 -63 -27 -95c-8 -15 -8 -22 -18 -42c-72 -150 -155 -298 -299 -351c-11 -4 -22 -4 -32 -4c-25 0 -52 7 -75 13c-1 -9 -12 -9 -27 -9c-17 0 -45 19 -55 37c-32 13 -85 37 -85 71c0 13 9 17 20 17c9 0 21 -3 37 -3
c12 0 19 -11 27 -11c3 0 5 0 6 3c30 122 73 246 122 365c0 6 -1 6 -4 6c-8 0 -31 -23 -48 -23c-9 0 -20 9 -20 22c0 47 1 52 71 100c56 38 138 74 211 74c29 0 69 -4 96 -23s55 -32 80 -65zM523 540c-18 26 -42 35 -67 35c-38 0 -77 -21 -106 -28c3 -3 4 -6 4 -7
c0 -18 -11 -14 -19 -32c-67 -150 -141 -299 -163 -457c0 -6 0 -7 6 -9c7 -2 21 -3 31 -3c37 0 69 16 96 42c95 94 158 206 207 326c9 22 23 57 23 81c0 5 -4 40 -12 52z" />
    <glyph glyph-name="E" unicode="E" horiz-adv-x="508" 
d="M679 608c0 -15 -4 -19 -15 -19c-9 0 -16 -6 -25 -6c-8 0 -17 10 -36 10c-94 0 -181 -23 -252 -47c-6 -2 -9 -4 -12 -12c-18 -49 -36 -92 -55 -141c0 -3 1 -4 4 -4c45 16 97 39 147 39c24 0 49 -6 75 -20c11 -6 13 -22 13 -32c0 -12 -40 -20 -48 -20c-12 0 -24 3 -33 3
c-62 0 -120 -32 -171 -45c-8 -2 -26 -7 -30 -16c-43 -96 -76 -169 -76 -222c0 -16 14 -34 25 -34c18 0 53 7 81 19c30 13 52 21 68 28c53 23 102 72 162 72c4 0 8 0 10 -3c4 -6 31 -19 31 -31c0 -7 -2 -12 -6 -13c-7 -2 -14 -6 -22 -13c-11 -10 -21 -17 -27 -20
c-91 -49 -188 -101 -324 -101c-7 0 -58 13 -77 41c-7 10 -8 38 -8 51c0 82 37 153 63 226c-3 3 -13 14 -13 31c0 4 0 9 2 12c3 5 7 6 29 12c8 2 10 3 15 14c28 62 42 95 50 126c0 4 -1 5 -4 5c-6 0 -23 -8 -37 -8c-6 0 -13 1 -19 4c-14 7 -26 38 -26 50c0 5 2 6 6 7
c64 16 122 40 181 62c40 15 171 51 271 51c10 0 28 -3 34 -6c24 -12 49 -32 49 -50z" />
    <glyph glyph-name="F" unicode="F" horiz-adv-x="446" 
d="M639 615c3 -4 4 -13 4 -21c0 -12 0 -13 -6 -16c-13 -7 -25 -11 -42 -11c-9 0 -11 22 -47 22c-22 0 -43 -9 -66 -12c-42 -5 -80 -20 -118 -28c-9 -2 -11 -10 -11 -16c0 -5 0 -11 -2 -15c-30 -58 -62 -112 -78 -174c0 -4 2 -5 7 -5c54 13 107 22 169 34c10 2 14 3 19 3
c4 0 11 -3 18 -6c36 -15 40 -22 40 -37c0 -11 -6 -13 -11 -14c-86 -17 -175 -33 -260 -54c-8 -2 -9 -3 -12 -10c-21 -42 -25 -91 -43 -132c-4 -9 -6 -14 -7 -20c-2 -11 -9 -40 -9 -69c0 -20 2 -18 2 -27c0 -11 -10 -14 -14 -14c-26 0 -47 7 -66 18c-7 4 -7 7 -7 12
c0 63 24 134 41 193c2 7 2 9 2 12c0 5 -6 10 -15 10c-18 0 -33 14 -33 30c0 3 -6 11 -6 17c0 3 1 4 6 6c26 10 45 11 66 17c5 1 8 4 10 9c25 59 50 126 74 183c0 5 -1 5 -4 5c-10 0 -80 -38 -95 -38c-18 0 -39 26 -39 34c0 13 10 22 14 33c2 5 3 6 7 7c51 12 77 22 155 53
c13 5 21 8 29 10c76 19 163 48 238 48c27 0 63 -1 90 -37z" />
    <glyph glyph-name="G" unicode="G" horiz-adv-x="596" 
d="M616 627c16 -12 30 -34 30 -54c0 -55 -21 -98 -25 -110c-4 -13 -28 -39 -43 -39c-9 0 -17 8 -22 9c-15 3 -25 9 -28 15s-10 13 -10 17c0 17 19 23 25 42c9 29 22 17 22 69c0 17 -11 25 -31 25c-8 0 -16 -1 -30 -4c-62 -13 -106 -66 -143 -102l-27 -26
c-90 -87 -155 -213 -181 -326c-5 -22 -6 -33 -6 -44c0 -57 7 -40 15 -61c3 -8 21 -14 35 -14c19 0 66 15 108 52c107 94 129 104 152 129c30 33 42 49 42 57c0 4 -2 5 -7 5c-17 0 -72 -23 -87 -23c-22 0 -33 2 -41 8c-19 14 -24 18 -24 31c0 20 2 24 19 27c20 4 31 2 45 6
c28 8 41 11 62 18c27 9 37 11 64 11c11 0 56 -37 56 -58c0 -6 -1 -14 -16 -45c-56 -116 -68 -227 -68 -267c0 -8 -27 -23 -37 -23c-21 0 -13 7 -32 7c-14 0 -16 5 -16 16c0 36 21 109 21 113c0 2 -1 3 -3 3c-3 0 -9 -5 -34 -28c-75 -69 -103 -80 -162 -96
c-15 -4 -28 -6 -40 -6c-36 0 -68 14 -91 38c-33 34 -46 57 -46 83c0 67 21 240 192 429c52 57 151 137 218 150c10 2 25 3 35 3c32 0 88 -21 109 -37z" />
    <glyph glyph-name="H" unicode="H" horiz-adv-x="562" 
d="M611 380c14 0 23 -2 34 -7c4 -2 7 -3 10 -3c12 0 24 -13 30 -24s9 -8 9 -25c0 -11 -4 -14 -8 -14c-66 0 -121 -17 -177 -27c-11 -2 -13 -5 -16 -10c-18 -31 -25 -70 -37 -106c-22 -68 -30 -137 -38 -204c-1 -8 -13 -13 -23 -13c-13 0 -29 4 -39 8c-12 5 -17 22 -20 36
c-1 5 -2 10 -2 15c0 8 0 15 4 28c17 56 29 130 47 184c2 6 4 17 4 23c0 7 -4 11 -11 11l-140 -28c-10 -2 -12 -4 -15 -9c-22 -37 -30 -114 -38 -130c-2 -4 -4 -11 -4 -25c0 -18 5 -34 5 -44c0 -18 -2 -29 -20 -29c-9 0 -23 2 -28 6c-12 10 -17 7 -28 16c-7 6 -9 11 -14 11
s-6 3 -6 10c0 5 1 26 4 37l3 16c4 25 19 89 19 102c0 4 -1 5 -4 5c-7 0 -31 -6 -51 -6c-23 0 -45 4 -62 24c-6 7 -11 39 -11 44c0 7 6 14 16 14c12 0 30 -9 44 -9c9 0 63 8 88 15c7 2 8 4 10 8c17 36 23 79 40 119c39 92 81 189 129 276c5 9 12 12 30 12c10 0 15 -8 40 -16
c9 -3 15 -11 15 -17c0 -4 0 -10 -3 -15c-67 -96 -85 -187 -144 -305c-6 -12 -6 -18 -6 -23s2 -10 6 -10c52 8 105 19 153 33c7 2 10 4 14 13c35 74 59 154 85 233c2 6 4 8 7 10c7 5 12 13 26 13c10 0 19 -3 34 -3c13 0 29 -9 29 -23c0 -12 -2 -25 -10 -47
c-20 -56 -46 -104 -66 -161c0 -5 1 -8 7 -8c15 0 62 19 79 19z" />
    <glyph glyph-name="I" unicode="I" horiz-adv-x="254" 
d="M352 609c0 -34 -6 -45 -30 -69c-4 -4 -6 -6 -13 -24c-57 -146 -104 -297 -156 -453c-1 -3 -2 -6 -2 -10c0 -5 2 -9 2 -15c0 -16 -5 -33 -19 -61c-2 -4 -9 -4 -13 -4c-5 0 -9 -5 -12 -10s-7 -8 -9 -8c-8 0 -8 10 -17 10c-12 0 -26 15 -31 15c-4 0 -6 3 -6 6
c0 5 10 59 19 75c4 7 6 12 9 24c39 158 92 290 141 443c9 28 20 30 40 98c3 10 18 12 40 12c20 0 57 -13 57 -29z" />
    <glyph glyph-name="J" unicode="J" horiz-adv-x="400" 
d="M324 140c-15 -48 -41 -102 -57 -128c-33 -54 -83 -99 -125 -99c-27 0 -45 20 -68 27c-48 15 -72 81 -72 157c0 19 0 51 9 88c7 27 23 55 35 55c15 0 24 -4 31 -4c17 0 35 -17 35 -36c0 -17 -13 -24 -19 -49c-8 -32 -13 -11 -13 -71c0 -68 28 -91 38 -91c22 0 43 7 74 57
c25 40 36 65 61 137c75 217 95 261 164 412c0 4 -1 4 -6 4c-37 -7 -74 -19 -104 -26c-8 -2 -11 -4 -17 -8c-16 -10 -36 -13 -56 -13c-13 0 -26 1 -36 3c-9 2 -13 7 -15 14c-3 12 -11 6 -11 20c0 15 5 27 7 38c1 7 3 8 11 8c69 0 198 45 284 45c4 0 13 -2 37 -18
c21 -14 22 -21 22 -26c0 -41 -26 -45 -44 -83c-63 -132 -120 -269 -165 -413z" />
    <glyph glyph-name="K" unicode="K" horiz-adv-x="532" 
d="M382 627c6 -6 7 -15 7 -21c0 -3 -2 -7 -7 -15c-43 -64 -81 -133 -111 -203c0 -4 0 -5 7 -5c4 0 10 1 21 5c10 4 8 0 28 10c134 66 238 144 318 240c5 6 6 6 10 6c18 0 39 -8 52 -19c5 -4 11 -3 14 -6s6 -7 6 -11c0 -2 0 -4 -9 -15c-69 -84 -151 -149 -235 -199
c-47 -28 -96 -52 -149 -79c-12 -6 -14 -9 -14 -18c0 -8 3 -17 8 -27c11 -23 9 -30 17 -47c28 -57 99 -159 165 -225c14 -14 19 -19 29 -24c26 -13 42 -26 42 -42c0 -12 -7 -18 -15 -19c-18 -2 -8 -7 -27 -7c-50 0 -92 40 -114 66c-23 27 -48 52 -67 76
c-63 80 -103 173 -121 232c-1 4 -2 5 -4 5c-3 0 -4 -2 -5 -4c-43 -85 -79 -176 -95 -270c-1 -7 -2 -10 -19 -21c-8 -5 -12 -6 -18 -6c-10 0 -9 10 -26 17c-18 7 -29 12 -29 24c0 6 0 13 5 29c66 211 168 430 233 553c9 17 10 16 14 19c10 7 21 25 38 25c3 0 7 0 11 -2
c8 -4 4 -7 16 -12c7 -3 18 -4 24 -10z" />
    <glyph glyph-name="L" unicode="L" horiz-adv-x="450" 
d="M405 628c0 -26 -14 -37 -14 -51c0 -3 -1 -5 -6 -9c-21 -17 -36 -47 -51 -85c-8 -20 -15 -30 -27 -56c-50 -109 -95 -223 -136 -342c-2 -5 -4 -13 -4 -21c0 -9 6 -19 15 -19c5 0 14 1 42 8c70 18 139 44 201 69c5 2 10 2 18 2c11 0 38 -10 54 -26c3 -3 7 -7 7 -12
c0 -4 6 -7 6 -17c0 -4 0 -9 -3 -14c-4 -6 -12 -10 -42 -10c-9 0 -11 0 -19 -2c-102 -25 -185 -76 -294 -76c-39 0 -66 36 -82 58c-3 4 -4 8 -4 14c0 13 6 29 17 56c6 15 0 15 13 53c59 173 146 338 221 503c5 11 25 11 31 11c9 0 8 -8 28 -13c12 -3 29 -13 29 -21z" />
    <glyph glyph-name="M" unicode="M" horiz-adv-x="654" 
d="M396 657c0 -17 -17 -72 -25 -103c-3 -11 -9 -52 -9 -105c0 -8 2 -34 2 -134c0 -8 3 -12 6 -12c2 0 3 1 12 11c92 101 205 183 283 283c7 9 9 10 14 10c26 0 33 -8 44 -8c3 0 24 -18 24 -41c0 -3 -1 -4 -5 -10c-107 -161 -163 -333 -189 -614c-2 -22 -3 -23 -7 -23
c-7 0 -14 8 -23 8c-6 0 -5 -4 -11 -4c-13 0 -32 12 -40 19c-7 6 -8 7 -8 12c0 7 34 212 40 242c6 32 32 116 51 173c0 4 -1 4 -4 4c-2 0 -3 -1 -5 -3c-49 -49 -127 -135 -141 -151c-9 -10 -10 -10 -13 -10s-14 5 -36 9c-17 3 -35 6 -46 23c-8 12 -19 48 -21 91v97
c0 3 -1 5 -3 5c-3 0 -4 -2 -12 -17c-31 -58 -51 -110 -76 -179c-42 -116 -62 -194 -62 -236c0 -7 -13 -17 -19 -17c-15 0 -15 -10 -23 -10s-31 16 -37 16c-7 0 -20 20 -20 37c0 37 28 69 34 92c51 197 167 388 235 558c6 15 8 19 11 19c10 0 10 -3 27 -5c16 -2 35 -5 46 -16
c4 -4 6 -8 6 -11z" />
    <glyph glyph-name="N" unicode="N" horiz-adv-x="598" 
d="M426 -22c-9 0 -15 1 -36 11c-37 18 -44 33 -52 59c-36 118 -50 305 -70 385c-3 12 -4 14 -8 14c-3 0 -5 -3 -8 -14c-20 -74 -91 -270 -104 -406c-2 -21 -3 -34 -3 -36c0 -10 -16 -18 -37 -18c-31 0 -27 6 -39 12c-8 4 -15 9 -15 15c0 44 103 369 110 397l9 34
c17 66 28 107 41 162c4 17 20 7 20 18c0 10 -15 23 -15 57c0 4 1 7 10 11c10 4 35 9 60 9c5 0 11 -5 14 -14c65 -194 50 -384 103 -580c3 -11 5 -15 8 -15c2 0 3 2 9 15c54 117 88 242 127 369c7 23 12 31 18 55c9 35 7 73 17 108c5 18 6 21 21 21c14 0 30 -6 41 -6
c14 0 36 -28 36 -33c0 -13 -2 -22 -11 -38c-6 -11 -7 -20 -14 -40c-48 -136 -89 -295 -171 -500c-8 -20 -9 -21 -14 -26c-20 -20 -31 -26 -47 -26z" />
    <glyph glyph-name="O" unicode="O" horiz-adv-x="490" 
d="M448 601c38 -34 71 -90 71 -175c0 -21 0 -32 -10 -72c-29 -119 -67 -234 -133 -317c-32 -40 -84 -61 -139 -61c-21 0 -37 2 -60 9c-16 5 -42 26 -57 48c-23 34 -32 63 -32 114c0 138 47 243 121 351c36 53 71 94 117 122c13 8 19 11 26 11c6 0 13 -2 22 -6
c11 -5 41 -16 52 -16c7 0 14 -1 22 -8zM381 546c0 6 -4 10 -7 10s-13 -1 -41 -30c-65 -67 -118 -154 -147 -247c-4 -13 -12 -33 -12 -62c0 -7 -5 -47 -5 -69c0 -43 13 -75 34 -96c4 -4 21 -9 33 -9c25 0 55 16 69 37c105 159 125 332 125 361c0 20 0 25 -1 33
c-5 31 -17 56 -42 64c-3 1 -6 3 -6 8z" />
    <glyph glyph-name="P" unicode="P" horiz-adv-x="490" 
d="M573 442c-42 -78 -109 -152 -175 -204c-10 -8 -60 -29 -101 -29c-37 0 -45 15 -63 27c-3 2 -5 4 -8 4s-4 -1 -8 -13c-30 -90 -61 -225 -61 -240c0 -5 -1 -7 -7 -11c-7 -5 -15 -8 -23 -8c-5 0 -10 0 -13 3c-16 16 -22 9 -37 24c-2 2 -3 3 -3 6c0 2 1 7 4 19
c8 32 21 97 34 130c2 5 6 14 6 19c0 24 33 97 37 126c0 4 0 5 -4 8c-8 6 -19 14 -19 25c0 8 2 10 6 11s15 12 32 12c2 0 3 1 4 4c18 55 24 64 33 101c0 4 0 5 -6 5c-3 0 -5 0 -13 5c-18 11 -17 18 -23 24c-4 4 -7 8 -7 11c0 14 8 25 35 42c99 63 199 129 322 129
c29 0 45 0 70 -21c23 -19 34 -31 34 -71c0 -54 -21 -92 -46 -138zM534 588c0 6 0 10 -25 10c-4 0 -8 0 -18 -3c-58 -17 -119 -22 -165 -68c-26 -72 -60 -147 -75 -219c27 -23 44 -37 58 -37c5 0 6 0 15 6c65 43 125 110 162 178c19 35 48 101 48 133z" />
    <glyph glyph-name="Q" unicode="Q" horiz-adv-x="554" 
d="M568 576c22 -19 36 -52 36 -128c0 -72 -55 -187 -143 -305c-3 -4 -3 -5 -3 -10c40 -77 109 -172 158 -207c7 -5 13 -10 13 -13c0 -10 -8 -17 -30 -17c-33 0 -51 5 -69 20c-52 44 -97 103 -122 139c-5 7 -7 7 -8 7c-4 0 -5 -1 -7 -4c-45 -48 -112 -77 -144 -77
c-38 0 -43 2 -57 7c-12 4 -43 28 -56 35c-25 13 -36 37 -44 70c-7 29 -10 57 -10 83c0 42 7 82 19 122c5 16 7 25 11 33c39 78 86 157 156 217c14 12 25 16 41 27c53 36 121 50 141 50c13 0 26 -4 40 -11c20 -10 49 -13 78 -38zM486 561c-20 0 -53 -9 -71 -18
c-78 -38 -135 -102 -179 -168c-43 -64 -68 -131 -68 -205c0 -46 7 -121 51 -121c26 0 69 22 131 84c4 4 5 8 5 13c-50 100 -65 131 -68 143c-2 9 -5 18 -5 25c0 10 5 18 26 18c22 0 31 -12 51 -12c9 0 15 -5 18 -15c11 -35 16 -56 22 -67s9 -16 12 -16s5 2 12 11
c48 61 99 165 99 243c0 60 -9 85 -36 85z" />
    <glyph glyph-name="R" unicode="R" horiz-adv-x="494" 
d="M532 576c7 -13 15 -38 15 -71c0 -49 -23 -113 -78 -172c-39 -42 -89 -57 -162 -78c-7 -2 -9 -3 -9 -9c13 -33 45 -75 68 -113c3 -5 5 -8 10 -14c24 -28 41 -45 56 -59c33 -30 51 -35 74 -40c13 -3 30 -35 30 -55c0 -10 -16 -15 -31 -15c-24 0 -53 13 -85 33
c-104 65 -143 157 -200 256c-4 7 -6 7 -8 7c-5 0 -7 -3 -9 -10c-27 -86 -43 -188 -43 -222c0 -10 -14 -18 -41 -18c-12 0 -9 2 -25 10c-6 3 -22 9 -22 22c18 134 57 264 102 393c6 17 7 19 13 27c9 12 16 43 24 59c0 4 -2 4 -4 4c-9 0 -36 33 -36 44c0 8 4 11 7 13
c41 30 120 71 209 71c30 0 63 -5 81 -11c24 -8 24 -11 28 -14c26 -19 29 -24 36 -38zM456 566c-9 9 -27 14 -44 14c-22 0 -43 -5 -63 -12c-6 -2 -10 -4 -13 -9c-41 -69 -68 -129 -99 -225c0 -3 0 -5 3 -7c7 -5 18 -7 26 -7c13 0 20 2 34 7c17 6 20 0 47 17
c60 38 116 106 116 194c0 16 -3 24 -7 28z" />
    <glyph glyph-name="S" unicode="S" horiz-adv-x="432" 
d="M451 596c22 -24 32 -57 36 -82c2 -12 6 -26 6 -32c0 -7 -10 -13 -21 -13c-4 0 -10 1 -17 3c-19 5 -37 26 -44 35c-11 15 -8 58 -38 75c-7 4 -13 6 -22 6c-7 0 -24 -30 -24 -79c0 -11 1 -45 14 -99c15 -64 58 -202 71 -281c6 -37 7 -48 7 -66c0 -41 -25 -75 -62 -89
c-8 -3 -16 -3 -39 -3c-89 0 -177 52 -240 131c-15 19 -46 41 -56 98c-2 11 -2 20 -2 30c0 9 12 29 22 29c17 0 38 -6 51 -14c19 -12 35 -30 35 -35c0 -15 -7 -18 -7 -40c0 -4 3 -10 6 -16c26 -47 85 -95 141 -114c9 -3 18 -4 26 -4c16 0 34 16 34 37c0 26 -2 57 -5 77
c-17 112 -56 201 -77 314c-2 11 -9 58 -9 77c0 10 0 17 1 22c7 33 11 91 63 91c53 0 106 -10 150 -58z" />
    <glyph glyph-name="T" unicode="T" horiz-adv-x="388" 
d="M618 581c0 -20 -6 -28 -13 -30c-6 -2 -14 -11 -30 -11c-8 0 -6 7 -21 13c-18 7 -21 11 -32 11c-56 0 -107 -7 -149 -15c5 -5 7 -9 7 -12c0 -2 -1 -4 -2 -6c-85 -144 -143 -286 -175 -456c-3 -16 -5 -22 -5 -35c0 -8 1 -16 1 -24c0 -18 -4 -32 -27 -32
c-15 0 -35 10 -51 19c-5 3 -13 17 -13 24c0 6 3 32 5 42c39 161 87 311 159 458c0 3 -1 4 -6 4c-14 -1 -48 -5 -73 -5c-21 0 -46 6 -56 16c-2 2 -2 4 -2 29c0 24 15 35 22 35c9 0 11 -7 77 -7c96 0 189 32 292 32c36 0 92 -38 92 -50z" />
    <glyph glyph-name="U" unicode="U" horiz-adv-x="600" 
d="M336 624c3 -6 5 -19 5 -26c0 -4 -6 -18 -9 -25c-60 -152 -139 -284 -160 -429c-2 -14 -4 -32 -4 -55c0 -12 2 -15 5 -15c8 0 23 4 39 20c184 184 292 337 343 420c11 18 6 17 24 46c6 10 24 29 29 29c4 0 14 -4 33 -4c4 0 8 -4 11 -9l14 -22c3 -5 6 -10 6 -14
s-2 -10 -7 -22c-16 -42 -46 -81 -62 -123c-49 -132 -72 -259 -72 -397c0 -22 1 -27 1 -30c0 -7 -6 -10 -14 -10c-15 0 -12 4 -23 7c-10 3 -21 10 -35 19c-8 5 -18 6 -18 19c0 6 1 14 5 21c3 5 4 8 5 16c8 69 9 137 24 196c2 8 3 12 3 16c0 3 -2 5 -5 5c-2 0 -5 -2 -8 -5
c-70 -81 -155 -180 -233 -248c-9 -8 -29 -16 -46 -16c-12 0 -32 6 -41 15c-19 19 -42 7 -55 32c-3 6 -5 35 -5 63c0 62 15 120 27 158c37 117 89 230 131 346c4 11 8 16 11 22c7 13 15 27 30 27c5 0 8 -4 28 -12c8 -3 19 -7 23 -15z" />
    <glyph glyph-name="V" unicode="V" horiz-adv-x="470" 
d="M273 625c3 -6 6 -13 7 -28c0 -6 0 -13 -1 -21c-20 -144 -50 -292 -65 -439c-1 -9 -1 -17 -1 -23c0 -10 1 -17 5 -17c8 0 41 16 94 113c46 85 91 164 139 251c20 37 39 77 39 123c0 14 -2 18 -2 23c0 10 9 15 22 15c12 0 20 -1 28 -1c11 0 8 -7 19 -16
c12 -9 22 -18 22 -31c0 -25 -21 -101 -45 -139c-91 -144 -165 -333 -267 -435c-12 -12 -21 -19 -26 -19c-9 0 -13 6 -28 6c-13 0 -12 -6 -20 -6c-12 0 -35 12 -54 31c-4 4 -6 6 -6 15c0 10 -13 23 -13 38c0 5 3 10 3 17c0 5 1 17 2 23c16 156 54 326 60 457c1 25 7 12 7 54
c0 14 4 26 22 26c6 0 17 -2 33 -2c8 0 20 -3 26 -15z" />
    <glyph glyph-name="W" unicode="W" horiz-adv-x="684" 
d="M713 639c9 -18 12 -36 13 -54c1 -14 2 -29 2 -40c0 -51 -6 -87 -20 -150c-31 -139 -84 -275 -169 -395c-12 -17 -26 -33 -51 -33c-5 0 -11 6 -29 7c-15 1 -22 5 -31 14c-7 7 -33 9 -40 24c-19 40 -21 82 -27 136c-2 17 -5 18 -7 18c-3 0 -5 -2 -9 -8
c-10 -16 -19 -27 -35 -42c-50 -46 -90 -125 -135 -125c-6 0 -19 8 -36 23c-11 10 -32 6 -35 19c-2 8 -2 12 -2 34c0 33 6 60 10 86c4 24 1 23 8 54c31 139 78 282 115 418c3 11 5 17 31 17c11 0 21 -4 31 -6c5 -1 25 -23 25 -26s-2 -7 -3 -10c-61 -146 -101 -306 -134 -465
c-4 -19 -5 -29 -5 -32c0 -4 1 -5 3 -5s8 1 26 20c65 67 128 155 160 226c10 22 11 25 16 47c4 18 10 36 16 50c3 7 4 8 8 8c8 0 19 -4 26 -5c8 -1 14 -4 21 -12c12 -14 17 -26 17 -37c0 -12 -1 -17 -3 -23c-18 -58 -29 -116 -29 -180c0 -39 4 -81 13 -126c1 -5 4 -9 7 -9
c4 0 9 6 15 14c82 109 130 254 162 392c5 21 6 33 6 44c0 25 2 28 2 57c0 31 -20 37 -20 67c0 23 2 35 13 35c8 0 16 -2 30 -2c19 0 33 -2 44 -25z" />
    <glyph glyph-name="X" unicode="X" horiz-adv-x="482" 
d="M660 646c11 -3 24 -20 24 -27c0 -3 0 -9 -3 -13c-34 -44 -75 -57 -134 -112c-19 -18 -31 -29 -43 -39c-56 -48 -110 -92 -164 -141c-11 -10 -12 -12 -12 -20c14 -89 42 -172 61 -257c4 -18 28 -38 28 -57c0 -7 -1 -10 -8 -17c-4 -4 -15 -6 -23 -6c-15 0 -34 6 -54 14
c-8 3 -9 4 -14 14c-36 71 -39 158 -54 233c-1 7 -3 13 -7 13c-3 0 -7 -3 -21 -18c-67 -72 -133 -142 -152 -223c-1 -5 -2 -10 -15 -14c-15 -5 -14 -13 -20 -13c-22 0 -43 11 -59 27c-6 6 -6 7 -6 19c0 26 24 52 37 79c5 10 9 16 14 24c52 82 126 137 188 204
c14 15 14 16 14 23c-23 129 -28 177 -28 252c0 20 7 15 7 28c0 5 -3 14 -3 20s0 10 9 16c7 5 15 5 27 5c22 0 30 -1 35 -10c8 -15 23 -27 23 -37c0 -9 -9 -28 -9 -75c0 -38 5 -74 11 -114c2 -14 5 -18 10 -18c4 0 13 3 22 12c80 80 176 145 252 233c8 9 9 10 16 10
c17 0 33 -10 51 -15z" />
    <glyph glyph-name="Y" unicode="Y" horiz-adv-x="502" 
d="M257 668c6 -1 13 -18 13 -29c0 -28 -15 -34 -23 -72c-22 -106 -45 -235 -45 -320c0 -4 6 -10 19 -10c8 0 20 2 30 8c48 30 84 59 113 88c21 21 60 70 109 165c31 61 57 101 64 110c5 7 8 10 11 10c13 0 43 -5 60 -22c4 -4 11 -24 11 -29c0 -3 -1 -7 -6 -14
c-141 -198 -230 -480 -282 -864c-3 -20 -6 -24 -6 -30c0 -7 -1 -8 -6 -8c-6 0 -13 3 -26 5c-26 4 -44 13 -47 26c-1 5 -2 19 -2 30c0 44 14 81 22 118c4 17 7 38 11 60c21 113 57 235 92 352l-8 -9c-19 -21 -68 -65 -133 -65c-7 0 -42 17 -68 40c-25 22 -40 46 -40 58
c0 3 2 65 5 107c1 13 5 17 5 36c0 21 6 26 9 45c12 74 27 144 47 214c2 7 3 9 8 9c25 0 45 -6 63 -9z" />
    <glyph glyph-name="Z" unicode="Z" horiz-adv-x="560" 
d="M659 555c0 -36 -6 -45 -48 -90c-21 -23 -82 -78 -100 -92c-5 -4 -5 -6 -5 -8c0 -3 3 -5 9 -5c42 0 79 -10 98 -34c4 -5 5 -10 5 -17c0 -13 -9 -22 -16 -22c-6 0 -9 2 -52 2c-82 0 -149 -25 -224 -36c-69 -59 -167 -103 -207 -183c-3 -6 -6 -13 -6 -18c0 -8 32 -25 55 -25
c17 0 32 -8 56 -8c69 0 160 33 241 62c14 5 23 8 28 8s32 -3 36 -10c10 -18 32 -36 32 -53c0 -7 -2 -8 -7 -8c-11 0 -7 4 -17 4c-8 0 -5 -5 -14 -9c-83 -37 -184 -62 -269 -62c-69 0 -137 15 -200 55c-8 5 -42 51 -42 70c0 13 0 18 3 25c12 28 45 63 134 134c5 4 6 5 6 7
c0 3 -1 4 -7 5c-18 3 -39 10 -45 17c-4 5 -8 15 -8 20c0 9 3 5 3 26c0 15 16 23 25 23c6 0 16 -3 22 -5c32 -10 52 -14 60 -14c12 0 67 8 77 14c82 50 215 137 271 220c3 4 7 10 7 14c0 21 -81 28 -123 28c-54 0 -114 -14 -136 -57c-2 -4 -14 -7 -23 -7c-10 0 -21 4 -27 7
c-20 10 -25 25 -33 60c0 9 0 10 4 13c52 35 126 52 200 52c64 0 130 -14 184 -45c7 -4 53 -42 53 -58z" />
    <glyph glyph-name="bracketleft" unicode="[" horiz-adv-x="326" 
d="M478 810c55 0 81 -3 83 -15c1 -7 7 -6 7 -20c0 -7 -2 -11 -5 -17c-11 -22 -14 -27 -37 -27c-7 0 -16 2 -46 2h-11c-55 0 -62 -2 -76 -35c-76 -179 -169 -508 -251 -742c-14 -40 -14 -52 -14 -60c0 -10 2 -17 48 -17c48 0 65 4 85 4c14 0 22 -21 22 -27
c0 -38 -20 -45 -26 -51c-5 -5 -26 -5 -54 -5h-19c-14 0 -52 0 -94 3c-25 2 -60 45 -60 72c0 22 3 34 21 88l222 670c51 154 76 163 90 168c22 8 49 9 78 9h37z" />
    <glyph glyph-name="backslash" unicode="\" horiz-adv-x="374" 
d="M266 645c0 -10 -9 -26 -9 -53c0 -25 2 -45 5 -69c17 -135 43 -258 72 -476c5 -38 7 -64 7 -84c0 -19 0 -31 -5 -31c-9 0 -13 -10 -31 -10c-17 0 -25 2 -32 15s-14 27 -14 49c0 11 -1 43 -4 61l-77 517c-3 19 -3 40 -3 60c0 19 0 36 2 42c3 12 10 23 16 27c3 2 10 3 17 3
c6 0 10 -2 15 -2c25 0 41 -10 41 -49z" />
    <glyph glyph-name="bracketright" unicode="]" horiz-adv-x="326" 
d="M-30 -200c-55 0 -81 3 -83 15c-1 7 -7 6 -7 20c0 7 2 11 5 17c11 22 14 27 37 27c7 0 16 -2 46 -2h11c54 0 62 3 76 35c78 178 170 508 251 742c8 23 13 53 13 60c0 10 0 17 -57 17c-48 0 -55 -4 -75 -4c-14 0 -22 21 -22 27c0 38 20 47 29 51c11 5 20 5 60 5
c37 0 62 -1 104 -3c21 -1 60 -47 60 -72c0 -22 -3 -35 -21 -88l-222 -670c-51 -154 -72 -161 -90 -168c-22 -8 -49 -9 -78 -9h-37z" />
    <glyph glyph-name="asciicircum" unicode="^" horiz-adv-x="550" 
d="M500 655l88 -189c7 -16 8 -19 8 -26c0 -15 -4 -6 -10 -14c-12 -16 -14 -17 -26 -17c-4 0 -18 8 -25 21l-87 163c-5 9 -6 10 -13 10c-4 0 -5 0 -12 -4c-138 -81 -157 -95 -167 -105c-3 -3 -7 -4 -10 -4c-17 0 -28 18 -32 22c-3 3 -4 16 -4 32c0 8 7 18 8 22s13 11 51 30
l173 85c6 3 12 5 17 5c18 0 25 -10 26 -12c4 -8 8 -4 15 -19z" />
    <glyph glyph-name="underscore" unicode="_" horiz-adv-x="626" 
d="M-119 -96h700v-64h-700v64z" />
    <glyph glyph-name="grave" unicode="`" horiz-adv-x="510" 
d="M363 743c-13 9 -44 24 -66 33c-10 4 -12 15 -12 33c0 12 3 18 11 26c7 7 17 12 24 12c6 0 10 -3 14 -3c5 0 9 -6 55 -38l102 -70c16 -11 26 -20 26 -25c0 -7 -3 -11 -5 -17c-2 -7 -2 -12 -3 -16c-2 -6 -8 -10 -13 -10c-13 0 -19 1 -31 9z" />
    <glyph glyph-name="a" unicode="a" horiz-adv-x="468" 
d="M492 435c4 -10 13 -19 24 -19c5 0 20 -1 28 -13c2 -3 2 -4 2 -6c0 -4 -2 -8 -4 -11c-44 -60 -97 -135 -116 -212c-7 -28 -14 -58 -14 -89c0 -26 6 -52 21 -75c1 -2 2 -4 2 -6s-4 -12 -21 -14c-6 -1 -13 -4 -19 -4c-15 0 -37 7 -43 20c-13 29 -17 58 -17 86
c0 30 4 47 4 50c0 4 0 5 -4 5s-13 -7 -24 -18l-54 -50c-52 -49 -84 -63 -119 -75c-6 -2 -12 -4 -16 -4c-11 0 -23 7 -70 45c-5 4 -22 21 -22 59c0 33 11 75 60 148c59 88 114 128 144 150c49 36 101 62 160 79c7 2 15 3 22 3c23 0 43 -11 61 -29c5 -5 13 -14 15 -20z
M428 422c-3 0 -18 -3 -31 -10c-94 -50 -168 -105 -225 -174c-42 -51 -75 -110 -75 -139c0 -12 4 -27 22 -27c8 0 31 11 49 28c93 87 198 154 249 249c7 13 18 27 29 38c3 3 5 9 5 15c0 7 -6 20 -23 20z" />
    <glyph glyph-name="b" unicode="b" horiz-adv-x="386" 
d="M450 738c0 -26 -39 -45 -53 -68c-53 -86 -124 -183 -153 -251c-43 -101 -108 -199 -108 -313c0 -22 1 -36 17 -36c11 0 28 12 35 21c58 74 77 122 99 201c3 11 6 21 6 26c0 6 -4 51 -20 63c-4 3 -5 12 -5 18c0 17 15 45 32 45c13 0 25 -13 35 -25c28 -33 29 -35 52 -35
c12 0 60 3 155 29c11 3 21 6 23 6c4 0 5 -2 12 -2s15 -2 20 -6c4 -3 12 -14 12 -22c0 -4 -4 -16 -9 -17c-76 -11 -130 -52 -203 -52c-7 0 -21 6 -29 6c-3 0 -4 -5 -4 -9c0 -6 2 -14 2 -21c0 -12 -3 -12 -7 -38c-7 -43 -28 -73 -43 -107c-14 -31 -17 -36 -28 -51
c-33 -45 -74 -100 -131 -100c-9 0 -15 0 -27 4s-56 24 -63 52c-4 17 -7 34 -7 50c0 39 9 76 21 111c3 9 24 71 31 87c67 154 144 280 230 430c15 26 32 42 60 42c8 0 18 -2 29 -6c15 -6 19 -17 19 -32z" />
    <glyph glyph-name="c" unicode="c" horiz-adv-x="346" 
d="M272 123c44 33 94 68 122 68c14 0 33 -23 33 -26c0 -4 -4 -6 -4 -10c0 -6 -1 -9 -8 -12c-31 -13 -67 -41 -110 -76c-56 -45 -106 -74 -148 -74c-55 0 -96 39 -101 49c-8 16 -12 31 -12 47c0 24 9 50 16 75c2 7 5 25 12 39c52 104 124 226 208 268c6 3 8 3 16 3
c34 0 78 -16 104 -42c4 -4 4 -6 4 -14c0 -11 2 -12 2 -15c0 -2 0 -3 -1 -7c-3 -12 -34 -59 -34 -94c0 -8 -6 -15 -19 -15c-7 0 -14 2 -20 7l-26 19c-8 6 -11 14 -11 22c0 20 22 44 22 60c0 4 -3 10 -8 10c-6 0 -8 -2 -16 -10c-42 -42 -88 -101 -122 -161
c-35 -62 -58 -128 -58 -153c0 -13 8 -21 17 -21c46 0 93 26 142 63z" />
    <glyph glyph-name="d" unicode="d" horiz-adv-x="496" 
d="M724 747c0 -23 -8 -36 -21 -55c-9 -13 -12 -26 -23 -43c-58 -93 -134 -194 -167 -285l-16 -44c-60 -168 -76 -241 -76 -277s8 -48 8 -56c0 -3 -1 -4 -4 -7c-14 -14 -11 -21 -36 -21c-9 0 -35 13 -36 19c-4 23 -6 44 -6 65c0 52 11 95 26 148c8 28 31 70 31 72
c0 1 0 2 -2 2s-4 -2 -10 -9c-80 -93 -158 -191 -256 -250c-10 -6 -22 -7 -30 -7c-20 0 -67 24 -71 31c-11 19 -17 37 -17 57c0 28 11 61 35 107c48 91 127 169 211 225c15 10 46 19 72 19c11 0 21 -2 28 -5c13 -6 35 -11 47 -19c5 0 7 0 8 1c104 113 147 240 233 353
c6 8 10 12 23 12s49 -16 49 -33zM378 369c0 6 -7 10 -23 10c-10 0 -17 -1 -25 -5c-97 -49 -192 -155 -233 -265c-1 -3 -3 -10 -3 -13c0 -10 2 -23 7 -23c4 0 6 1 10 4c6 5 12 5 21 12c86 67 160 157 225 244c12 16 21 19 21 36z" />
    <glyph glyph-name="e" unicode="e" horiz-adv-x="366" 
d="M253 -3c-18 -10 -23 -10 -36 -10c-12 0 -22 1 -38 7c-22 8 -57 24 -64 28c-20 11 -39 36 -50 69c-7 20 -12 58 -12 77c0 9 1 19 5 33c28 102 96 190 172 271c17 18 58 45 107 45c27 0 41 -4 61 -11c11 -4 32 -22 32 -62c0 -26 -11 -48 -23 -72c-10 -20 -18 -31 -32 -47
c-69 -78 -147 -165 -232 -212c-5 -3 -6 -5 -6 -8c0 -16 15 -37 24 -42c11 -6 21 -8 31 -8c17 0 32 4 77 28c69 37 111 91 171 129c11 7 16 7 20 7c6 0 20 -10 20 -20c0 -9 -1 -10 -1 -13c0 -4 0 -10 -5 -14c-48 -41 -69 -91 -221 -175zM328 398c10 15 18 28 18 46
c0 8 0 12 -6 12s-12 -3 -21 -9c-11 -7 -10 -4 -20 -13c-65 -58 -135 -140 -157 -229c0 -4 1 -5 2 -5c2 0 4 1 7 3c59 45 108 100 153 154c15 18 11 21 24 41z" />
    <glyph glyph-name="f" unicode="f" horiz-adv-x="268" 
d="M415 724c5 -7 8 -14 8 -20c0 -20 -27 -39 -30 -58c-1 -7 -2 -11 -4 -16c-26 -54 -90 -105 -108 -171c-3 -11 -5 -17 -11 -30c-5 -11 -23 -46 -23 -59c0 -4 2 -5 5 -5c60 0 124 48 194 48c22 0 33 -13 33 -19c0 -15 -15 -19 -26 -24l-11 -6c-42 -16 -85 -42 -130 -50
c-11 -2 -6 -3 -24 -10c-23 -9 -47 -12 -65 -27c-5 -4 -7 -8 -9 -13c-45 -132 -96 -263 -109 -413c-1 -12 -13 -24 -28 -29c-11 -4 -27 -11 -31 -11c-12 0 -16 6 -25 12c-3 2 -7 24 -7 39c0 38 17 72 27 107c2 7 8 27 10 40c9 52 79 241 79 265c0 3 0 4 -2 7
c-12 21 -38 34 -46 58c-3 8 -6 17 -6 24c0 10 8 20 14 20c15 0 38 -14 57 -14c4 0 18 2 23 14c59 141 99 237 160 336c8 13 37 22 51 22c13 0 25 -5 34 -17z" />
    <glyph glyph-name="g" unicode="g" horiz-adv-x="422" 
d="M438 361c-104 -186 -125 -243 -125 -254c0 -3 1 -4 4 -4c50 43 109 84 167 118c17 10 19 10 24 10c9 0 20 -4 26 -10c4 -4 6 -10 6 -15c0 -2 0 -11 -8 -17c-185 -139 -283 -229 -334 -350c-34 -82 -71 -168 -83 -190c-21 -39 -34 -42 -72 -42c-19 0 -47 10 -52 29
c-2 7 -3 15 -3 22c0 25 18 58 68 135c76 117 89 90 198 342v2c0 1 -1 2 -2 2s-2 0 -3 -1c-45 -43 -88 -91 -138 -91c-10 0 -21 2 -30 6c-21 9 -42 28 -60 46c-5 5 -7 8 -7 29c0 43 19 71 29 93c12 26 63 91 98 130c105 118 187 127 191 127c43 0 82 -15 103 -43
c9 -12 11 -23 11 -35c0 -15 -1 -26 -8 -39zM374 391c2 3 3 5 3 7s-2 4 -2 6c0 3 0 6 -10 10c-5 2 -11 3 -17 3c-18 0 -32 -10 -46 -21c-20 -16 -28 -17 -42 -30c-54 -50 -132 -144 -153 -193c-6 -14 -12 -32 -12 -38c0 -4 8 -8 12 -8c5 0 12 0 20 5c90 57 186 167 247 259z
" />
    <glyph glyph-name="h" unicode="h" horiz-adv-x="418" 
d="M395 -26c-12 -3 -22 -8 -35 -8c-6 0 -13 1 -29 7c-38 14 -54 46 -54 95c0 31 6 68 19 112s25 74 37 103c3 7 4 10 4 12c0 1 -1 2 -2 2c-2 0 -6 -3 -13 -11c-68 -78 -137 -194 -196 -263c-5 -6 -6 -7 -11 -10c-10 -6 -24 -13 -38 -13c-5 0 -36 12 -52 28c-3 3 -4 8 -4 11
c0 11 5 10 9 27c31 133 104 277 189 446c42 84 98 176 147 274c6 12 16 14 26 14s16 -2 21 -2c9 0 20 -7 28 -15c7 -7 9 -12 9 -25c0 -26 -21 -42 -47 -74c-9 -11 -11 -16 -19 -27c-90 -124 -169 -328 -244 -487c-8 -17 -9 -19 -9 -20s0 -2 2 -2c1 0 2 1 7 8
c81 113 154 199 227 278c14 15 19 20 28 23s18 5 23 5c10 0 29 -4 37 -7c7 -3 15 -12 15 -19c0 -29 -12 -49 -30 -80c-14 -24 -18 -42 -26 -61c-27 -64 -52 -146 -52 -214c0 -48 10 -58 25 -66c6 -3 17 -4 25 -6c4 -1 7 -5 7 -8c0 -4 -3 -8 -5 -13c-3 -7 -12 -12 -19 -14z
" />
    <glyph glyph-name="i" unicode="i" horiz-adv-x="220" 
d="M278 72l-41 -38c-21 -19 -58 -48 -103 -48c-30 0 -64 42 -75 79c-4 14 -5 28 -5 42c0 25 4 47 16 81c7 19 11 36 17 50c31 73 60 145 97 222c10 21 31 27 50 27c10 0 23 -2 30 -8c5 -4 8 -7 8 -16c0 -53 -41 -78 -64 -127c-17 -37 -45 -105 -59 -142
c-17 -45 -24 -83 -24 -98c0 -9 1 -32 18 -32c22 0 33 6 73 34c24 17 31 22 47 22c8 0 19 -2 25 -7s6 -10 6 -14c0 -11 -6 -17 -16 -27zM364 691c10 -11 12 -23 12 -33c0 -6 -1 -13 -5 -18c-18 -22 -42 -49 -64 -49c-20 0 -35 11 -40 20c-5 10 -7 23 -7 34c0 14 4 31 13 42
c10 12 28 17 49 17c16 0 35 -5 42 -13z" />
    <glyph glyph-name="j" unicode="j" horiz-adv-x="238" 
d="M249 448c4 -7 8 -14 8 -20c0 -4 -6 -15 -8 -19c-34 -68 -54 -123 -86 -205c-3 -7 -4 -12 -4 -15c0 -2 1 -3 2 -3c3 0 8 3 16 10c31 27 76 62 100 76c17 10 22 12 30 12c10 0 18 -1 18 -13c0 -31 -16 -34 -46 -61c-71 -64 -129 -138 -183 -215c-14 -20 -28 -44 -34 -59
c-41 -102 -70 -191 -108 -294c-4 -11 -19 -37 -45 -37c-4 0 -8 4 -24 9c-25 8 -27 38 -27 44c0 9 3 19 5 25c47 127 128 240 166 369c5 17 9 28 23 66c37 101 81 203 113 308c4 13 10 18 17 23c5 4 10 7 16 7c10 0 15 1 23 1c10 0 24 -3 28 -9zM369 646
c0 -29 -28 -35 -32 -55c-3 -14 -16 -17 -27 -17c-9 0 -37 3 -56 32c-4 6 -5 14 -5 24c0 8 -2 16 -2 21c0 3 1 5 6 11c13 16 31 27 52 27c17 0 28 -3 47 -19c17 -15 17 -16 17 -24z" />
    <glyph glyph-name="k" unicode="k" horiz-adv-x="376" 
d="M381 698c0 -29 -14 -48 -30 -70c-19 -26 -20 -31 -25 -39c-47 -77 -73 -161 -108 -242c-2 -4 -3 -7 -3 -9s1 -3 3 -3c3 0 7 2 12 5c64 39 129 85 170 150c7 11 13 16 20 21c10 7 21 10 30 10s14 -1 27 -9s18 -14 18 -18c0 -15 -25 -50 -45 -67c-16 -14 -16 -20 -28 -30
c-51 -43 -107 -80 -160 -115c-6 -4 -7 -9 -7 -13c0 -7 5 -17 21 -69c6 -19 46 -102 55 -114c29 -40 38 -51 82 -69c12 -5 21 4 21 -15c0 -13 -17 -19 -21 -25c-5 -8 -11 -11 -24 -11c-38 0 -61 13 -77 29c-9 9 -14 14 -18 17c-6 5 -13 10 -19 20c-57 104 -76 178 -89 208
c-3 7 -6 8 -8 8c-1 0 -3 -1 -4 -4c-22 -53 -45 -113 -56 -175c-4 -21 -13 -69 -34 -69c-8 0 -14 -3 -25 -3c-5 0 -35 2 -35 32c0 7 3 20 7 30c2 5 3 11 4 14c67 207 163 408 249 612l11 26c5 13 11 19 16 19c8 0 9 -1 33 -4s37 -14 37 -28z" />
    <glyph glyph-name="l" unicode="l" horiz-adv-x="232" 
d="M141 -18c-7 0 -90 22 -100 77c-2 11 -3 22 -3 34c0 46 21 92 43 149c43 112 132 272 208 402c17 29 23 85 62 85c14 0 22 2 33 2c10 0 21 -4 26 -11c6 -9 8 -18 8 -28c0 -13 -4 -25 -10 -35c-91 -147 -196 -281 -255 -437c-16 -41 -38 -79 -38 -123c0 -12 1 -24 5 -37
c3 -9 11 -12 20 -12c6 0 12 1 17 4c44 27 93 112 139 112c8 0 34 -7 34 -23c0 -13 -10 -17 -20 -28c-51 -55 -92 -131 -169 -131z" />
    <glyph glyph-name="m" unicode="m" horiz-adv-x="684" 
d="M276 462c5 -3 5 -8 5 -19c0 -5 -2 -21 -12 -35c-73 -102 -138 -214 -169 -332c0 -5 5 -11 9 -11c3 0 7 2 11 4c108 54 199 167 243 277c4 10 10 18 21 26c13 10 24 14 39 14c17 0 33 -7 46 -20c4 -4 4 -5 4 -7c0 -4 -1 -9 -3 -15c-18 -49 -61 -88 -86 -137
c-33 -64 -43 -102 -43 -125c0 -5 4 -16 9 -16c15 0 40 12 58 33c69 80 166 136 203 238c4 11 17 37 48 37c20 0 15 -6 30 -8c23 -3 25 -5 33 -20c3 -5 4 -10 4 -14c0 -19 -23 -21 -36 -43c-49 -82 -70 -133 -70 -183c0 -32 9 -66 32 -100c4 -6 7 -8 9 -9c6 -3 14 -12 14 -20
s-9 -16 -24 -16s-24 5 -38 8c-11 2 -26 15 -47 57c-11 22 -25 60 -25 89c0 3 -1 6 -4 6c-2 0 -4 -1 -8 -4c-51 -38 -94 -115 -173 -115c-18 0 -36 4 -51 11c-42 20 -47 34 -47 49c0 13 0 15 -3 15c-2 0 -4 -2 -7 -5c-29 -29 -70 -53 -104 -70c-6 -3 -12 -6 -16 -6
c-29 0 -60 11 -84 29c-4 3 -6 5 -8 13c-4 17 -6 33 -6 48c0 93 66 167 102 247c27 59 37 64 52 104c4 11 25 33 61 33c11 0 21 -2 31 -8z" />
    <glyph glyph-name="n" unicode="n" horiz-adv-x="420" 
d="M91 266c30 69 53 117 97 184c8 12 7 14 16 22c8 7 20 10 35 10c23 0 36 -6 40 -15c2 -5 5 -13 5 -18c0 -11 -5 -29 -22 -47c-11 -12 -39 -44 -64 -90c-14 -26 -38 -74 -71 -156c-7 -18 -20 -67 -20 -70c0 -4 0 -10 3 -10c6 0 10 3 17 13c135 192 209 232 231 279
c18 38 22 41 35 41c15 0 20 -9 36 -10c11 -1 20 -15 20 -27c0 -4 -5 -18 -10 -26c-36 -59 -55 -97 -70 -148c-6 -20 -12 -70 -12 -90c0 -18 6 -33 8 -43c3 -18 28 -31 35 -36c8 -6 15 -13 15 -23c0 -7 -7 -24 -26 -24c-8 0 -40 3 -52 14c-14 13 -26 17 -39 35
c-12 16 -17 37 -17 62c0 59 9 76 9 79c0 2 -1 4 -3 4s-3 0 -6 -4c-41 -54 -68 -88 -92 -122c-21 -30 -29 -29 -43 -44c-8 -9 -28 -11 -37 -11c-12 0 -59 30 -72 46c-4 5 -7 18 -7 29c0 31 9 38 12 60c4 29 32 97 49 136z" />
    <glyph glyph-name="o" unicode="o" horiz-adv-x="368" 
d="M344 460c9 -25 22 -55 51 -55c40 0 63 3 86 3c32 0 62 -10 62 -26c0 -13 -25 -16 -28 -21c-2 -4 -4 -5 -11 -6c-20 -3 -49 -13 -75 -17c-20 -3 -32 -3 -39 -3c-8 0 -10 -1 -12 -8c-26 -107 -62 -200 -126 -268c-28 -30 -55 -59 -90 -59c-9 0 -18 2 -24 5
c-38 18 -66 40 -75 63c-11 28 -15 58 -15 83c0 82 41 154 87 223c14 21 14 16 24 30c32 45 74 92 118 92c16 0 36 -4 53 -19c8 -7 11 -9 14 -17zM293 394c-5 5 -7 11 -8 15c-3 10 -6 17 -10 17s-10 -4 -15 -10c-4 -5 -14 -10 -19 -17c-31 -39 -125 -163 -125 -280
c0 -3 0 -7 3 -14c3 -8 15 -27 24 -33c3 -2 6 -2 9 -2c10 0 15 6 19 8c7 3 9 6 17 18c58 87 112 165 112 266c0 4 0 16 -1 21c-1 7 -3 8 -6 11z" />
    <glyph glyph-name="p" unicode="p" horiz-adv-x="440" 
d="M240 472c0 -42 -19 -85 -32 -136c-1 -3 -2 -7 -1 -7c2 0 6 5 8 7c44 51 88 95 133 119c10 5 13 6 16 6c29 0 59 -18 84 -34c9 -6 20 -15 20 -40c0 -33 -3 -52 -7 -70c-2 -8 1 -15 -5 -32c-48 -134 -77 -205 -143 -265c-7 -6 -19 -7 -28 -7c-23 0 -58 19 -68 29
c-25 23 -40 48 -52 73c-1 3 -3 5 -6 5c-2 0 -4 -1 -6 -5c-62 -117 -96 -204 -131 -351c-5 -21 2 -37 -12 -42c-13 -5 -24 -6 -35 -6c-12 0 -21 3 -31 14c-6 7 -13 8 -14 23c0 4 1 9 5 22c59 193 187 473 222 686c3 17 6 18 12 20c12 4 23 11 38 11c16 0 33 -9 33 -20z
M375 387c-70 -45 -120 -107 -160 -170c-7 -11 -7 -16 -7 -29c0 -22 32 -107 57 -107c3 0 5 1 8 4c33 31 71 130 74 142c37 113 39 156 39 159s-3 3 -4 3s-3 0 -7 -2z" />
    <glyph glyph-name="q" unicode="q" horiz-adv-x="386" 
d="M449 410c0 -27 -32 -56 -32 -69c0 -12 11 -15 11 -23c0 -2 -1 -4 -7 -12c-132 -176 -220 -386 -279 -598c-5 -18 -2 -47 -10 -69c-4 -11 -14 -32 -27 -32c-23 0 -43 12 -54 21c-5 4 -5 5 -5 8c0 2 0 5 1 10c15 76 40 149 65 222c8 23 10 28 14 43c16 61 31 67 48 127
c0 5 -1 6 -7 6c-14 -3 -33 -7 -48 -7s-33 4 -47 12l-14 9c-22 14 -34 45 -34 75c0 13 5 28 9 38c52 131 168 250 290 288c16 5 29 8 45 8c37 0 81 -18 81 -57zM366 392c0 6 -9 7 -14 7c-8 0 -16 -4 -21 -7c-11 -6 -12 -2 -28 -12c-73 -45 -153 -124 -187 -192
c-19 -38 -23 -59 -23 -80c0 -7 10 -12 16 -12c4 0 12 3 16 4c8 2 12 4 20 10c60 45 110 91 152 155c6 9 8 13 8 15c0 7 -6 7 -6 14c0 4 7 13 22 30c22 24 45 45 45 68z" />
    <glyph glyph-name="r" unicode="r" horiz-adv-x="300" 
d="M200 438c9 -14 15 -32 15 -56c0 -11 -2 -22 -6 -34c-3 -12 -4 -14 -4 -16c0 -3 0 -4 3 -4c1 0 5 1 13 8c55 42 103 70 139 82c3 1 9 2 12 2c28 0 56 -8 73 -28c4 -4 7 -11 7 -17c0 -31 -27 -44 -35 -44c-15 0 -31 10 -45 10c-3 0 -7 0 -16 -4
c-109 -51 -217 -140 -252 -287c-7 -30 -18 -43 -25 -48c-5 -6 -14 -9 -18 -9c-16 1 -23 13 -30 21c-10 10 -18 26 -19 38c0 34 42 67 54 105c25 76 53 151 69 231c1 9 2 14 2 16c0 6 -8 14 -9 23c0 8 16 22 39 22c14 0 30 -6 33 -11z" />
    <glyph glyph-name="s" unicode="s" horiz-adv-x="296" 
d="M347 464c14 -15 19 -45 19 -65c0 -38 -15 -65 -29 -83c-8 -10 -9 -11 -14 -11c-11 0 -28 7 -35 13c-9 7 -15 17 -15 32c0 2 1 5 3 8c9 15 17 29 17 46c0 8 -3 20 -7 27s-14 14 -22 14c-7 0 -53 -57 -61 -103c-1 -7 -2 -14 -2 -26c0 -6 5 -51 7 -64c9 -75 32 -187 32 -228
c0 -8 -4 -14 -8 -18c-18 -18 -36 -36 -63 -36c-9 0 -20 2 -25 4c-66 27 -113 79 -146 134c-3 5 -6 12 -6 15c0 15 15 37 36 37c20 0 29 -2 38 -14c23 -31 35 -69 65 -96c10 -9 15 -11 20 -11c6 0 10 4 10 8s0 6 -5 31c-14 66 -32 216 -32 236c0 27 12 84 36 122
c29 46 70 64 89 64c55 0 77 -14 98 -36z" />
    <glyph glyph-name="t" unicode="t" horiz-adv-x="262" 
d="M360 637c-13 -78 -61 -146 -93 -214c-10 -21 -23 -59 -23 -62c0 -2 2 -3 4 -3c3 0 15 2 25 4c44 9 101 30 134 50c5 3 9 5 11 5c17 0 49 -14 49 -26c0 -13 -11 -29 -33 -38c-27 -11 -27 -14 -45 -21c-49 -19 -134 -38 -155 -45c-9 -3 -15 -8 -19 -15
c-8 -14 -13 -33 -17 -48c-3 -11 -9 -21 -11 -32c-6 -33 -40 -118 -46 -168c-1 -9 -11 -35 -25 -42c-4 -2 -11 -3 -15 -3c-12 0 -28 5 -36 11s-11 15 -11 24c0 8 1 21 4 30c25 74 43 161 75 238c1 3 2 5 2 7s-1 4 -5 6c-36 18 -42 44 -65 63c-5 4 -5 9 -5 12c0 7 4 9 12 13
c6 3 11 5 20 5c22 0 47 -16 65 -16c9 0 15 5 17 14c3 11 8 26 16 47c24 61 51 139 85 212c6 13 7 13 11 13c16 0 18 5 28 5c9 0 26 -3 38 -8c5 -2 9 -4 9 -7c0 -2 0 -5 -1 -11z" />
    <glyph glyph-name="u" unicode="u" horiz-adv-x="420" 
d="M237 451c3 -7 11 -14 11 -25c0 -8 -5 -19 -20 -29c-8 -5 -21 -16 -29 -47c-23 -89 -65 -187 -75 -260c-2 -13 -2 -18 -2 -23s7 -14 14 -14c3 0 15 4 22 10c36 32 36 40 53 58c62 67 117 141 149 224c5 13 6 15 18 22c9 5 15 6 23 6s17 -8 24 -10c16 -5 20 -12 20 -18
c0 -16 -2 -20 -6 -29c-34 -73 -61 -147 -73 -226c-3 -21 -6 -46 -6 -74c0 -25 18 -45 18 -67c0 -7 -2 -15 -6 -18c-3 -2 -8 -3 -14 -3c-14 0 -27 8 -38 15c-19 12 -19 4 -25 19c-8 20 -10 40 -10 60c0 25 3 58 3 68c0 3 -1 6 -4 6c-4 0 -10 -7 -14 -12
c-34 -40 -70 -76 -112 -97c-8 -4 -9 -4 -13 -4s-35 4 -60 19c-18 11 -28 21 -30 31c-3 15 -5 33 -5 43c0 36 13 80 23 114c8 27 8 37 17 63c21 60 32 123 70 188c11 19 27 26 43 26c10 0 29 -5 34 -16z" />
    <glyph glyph-name="v" unicode="v" horiz-adv-x="378" 
d="M198 329c-17 -80 -36 -161 -53 -241c-3 -14 -3 -15 -3 -19c0 -3 4 -6 8 -6c6 0 16 1 26 13c35 41 77 113 105 182c8 20 8 29 14 43c4 10 8 32 8 53c0 10 -4 21 -11 28c-7 6 -14 18 -14 28c0 13 11 24 31 24c26 0 40 -5 53 -27c16 -26 32 -32 48 -32c44 0 83 33 127 33
c12 0 31 -4 47 -14c12 -7 13 -12 13 -22c0 -3 0 -4 -7 -8c-54 -30 -107 -35 -132 -46c-8 -3 -17 -6 -23 -6c-14 0 -30 6 -43 6c-6 0 -9 0 -14 -4c-4 -3 -6 -8 -12 -32c-24 -91 -73 -170 -132 -244c-19 -24 -27 -28 -39 -41c-8 -9 -23 -16 -36 -16c-20 0 -27 12 -46 25
c-31 21 -35 24 -40 42c-2 7 -3 17 -3 24c0 21 2 34 9 61c4 15 3 21 17 76c20 79 42 160 52 241c2 16 20 22 24 22c7 0 15 -2 23 -2c11 0 20 0 29 -8c4 -3 5 -7 5 -15c0 -62 -20 -67 -31 -118z" />
    <glyph glyph-name="w" unicode="w" horiz-adv-x="540" 
d="M257 462c0 -6 -4 -14 -8 -20c-6 -9 -10 -23 -13 -30c-40 -95 -68 -193 -101 -292c-3 -9 -4 -13 -4 -16c0 -2 1 -3 3 -3c3 0 9 2 38 36c61 72 116 151 150 233c5 12 15 14 26 14c10 0 16 -2 23 -2c15 0 31 -16 31 -30c0 -15 -7 -29 -33 -73c-14 -24 -16 -39 -21 -50
c-22 -49 -37 -106 -37 -162c0 -13 11 -19 15 -19c6 0 24 5 43 29c59 75 69 191 69 201c0 14 5 25 5 37c0 28 -20 59 -20 82c0 6 2 17 11 24c5 4 33 6 42 6c16 0 9 -6 38 -25c18 -12 34 -15 76 -15c43 0 82 12 134 12c9 0 23 0 23 -28c0 -13 -17 -24 -48 -31
c-63 -15 -82 -26 -112 -26c-42 0 -56 8 -64 8c-7 0 -9 -5 -9 -13c0 -9 0 -30 -1 -41c-5 -100 -47 -199 -117 -269c-10 -10 -21 -17 -44 -17c-26 0 -59 13 -85 28c-12 7 -28 23 -28 46c0 18 3 27 3 39c0 5 -1 8 -3 8c-3 0 -7 -4 -16 -13c-30 -30 -50 -73 -93 -73
c-16 0 -18 7 -42 16c-16 6 -29 16 -31 20s-7 18 -7 29s2 20 4 27c30 121 91 238 108 355c1 7 12 17 19 19c9 3 17 3 24 3c10 0 18 -1 28 -1c7 0 24 -10 24 -23z" />
    <glyph glyph-name="x" unicode="x" horiz-adv-x="334" 
d="M190 432c20 -20 26 -37 37 -114c2 -17 4 -19 7 -19c4 0 10 6 15 10c52 42 104 80 155 118c8 6 10 7 23 7c10 0 22 -3 28 -11c9 -12 19 -19 19 -36c0 -5 -10 -8 -15 -11c-74 -43 -141 -96 -203 -152c-20 -18 -20 -19 -20 -38c0 -77 12 -142 12 -209c0 -25 -1 -36 -6 -72
c-1 -7 -12 -11 -22 -11c-8 0 -13 2 -20 2c-6 0 -8 5 -19 11c-9 5 -18 10 -20 21c-1 5 -2 12 -2 18c0 14 4 30 9 40c3 6 4 8 4 10c0 5 -1 10 -2 19c-4 33 -5 63 -9 95c-2 15 -3 16 -5 16s-4 -2 -10 -11c-10 -16 -55 -55 -62 -83c-2 -8 -9 -14 -18 -21s-19 -11 -32 -11
c-3 0 -14 8 -24 18s-15 17 -15 27c0 4 0 5 10 17c45 53 96 107 140 157c8 9 8 11 8 24c0 20 0 103 -22 147c-9 18 -10 11 -15 18c-4 5 -4 14 -4 18c0 16 24 22 39 22c19 0 28 -5 39 -16z" />
    <glyph glyph-name="y" unicode="y" horiz-adv-x="436" 
d="M252 460c0 -17 -2 -28 -10 -42c-17 -30 -19 -23 -26 -38c-35 -75 -44 -125 -70 -204c-4 -12 -6 -21 -8 -32s-5 -22 -5 -32c0 -9 2 -16 5 -16c8 0 14 2 22 6c18 9 42 24 79 66c8 9 21 20 37 40c31 38 80 69 128 197c3 8 17 30 26 30c11 0 15 -7 31 -7c33 0 35 -22 35 -36
c0 -18 -12 -35 -23 -51l-19 -30c-25 -38 -45 -82 -61 -129c-8 -24 -48 -127 -55 -150c-9 -28 -12 -36 -12 -40c0 -2 2 -2 4 -2s6 1 9 1c6 0 18 -4 18 -11c0 -15 -3 -21 -6 -25c-68 -90 -101 -187 -121 -282c-8 -39 -9 -100 -62 -107c-8 -1 -15 -4 -27 -4c-15 0 -38 2 -38 38
c0 19 7 46 21 79c22 52 52 114 86 171c2 18 33 119 60 201c17 53 18 60 18 63c0 2 -1 4 -3 4s-6 -3 -14 -11c-35 -35 -100 -77 -110 -77c-42 0 -73 13 -95 40c-5 6 -6 8 -6 24c0 138 64 234 103 364c6 20 28 29 35 29c5 0 18 -5 28 -5s26 -9 26 -22z" />
    <glyph glyph-name="z" unicode="z" horiz-adv-x="384" 
d="M428 410c3 -8 4 -15 4 -21c0 -31 -25 -43 -71 -80c-5 -4 -6 -5 -6 -8s4 -3 11 -3c26 0 60 -6 79 -27c7 -8 8 -10 8 -15c-4 -10 -9 -15 -23 -15c-35 0 -109 -10 -169 -28c-27 -8 -30 -10 -43 -22c-31 -29 -72 -80 -96 -101c-8 -7 -12 -23 -12 -27c0 -6 3 -10 14 -15
c13 -6 20 -8 29 -8c20 0 44 12 66 12c43 0 76 39 117 39c14 0 29 -4 45 -18c6 -5 7 -11 7 -19c0 -3 0 -6 -10 -10c-65 -26 -137 -61 -213 -61c-35 0 -78 10 -105 26c-24 14 -30 40 -30 62c0 7 1 20 3 25c13 28 36 50 57 73c10 11 17 19 17 23s0 5 -13 9c-12 4 -24 8 -31 21
c-9 16 -12 22 -12 33c0 9 13 19 26 19c22 0 41 -14 74 -14c68 0 93 65 139 90c26 14 47 38 47 50c0 5 -10 7 -16 7c-16 0 -20 -7 -50 -10c-39 -4 -70 -23 -93 -50c-1 -1 -2 -2 -9 -2s-24 14 -29 29c-3 9 -5 17 -5 24c0 17 8 27 20 30c49 12 107 33 160 33
c39 0 79 -14 87 -24c6 -7 21 -14 26 -27z" />
    <glyph glyph-name="braceleft" unicode="{" horiz-adv-x="346" 
d="M519 733c-77 0 -98 -28 -116 -78c-25 -68 -46 -135 -76 -233c-21 -67 -45 -109 -95 -117c-2 0 -3 -1 -3 -2s1 -2 3 -2c17 -10 28 -28 28 -52c0 -25 -3 -45 -10 -66l-68 -218c-6 -18 -8 -30 -8 -44c0 -20 9 -42 52 -42h40c14 0 22 -17 22 -23c0 -40 -16 -32 -21 -47
c-3 -9 -23 -9 -33 -9c-97 0 -154 38 -154 101c0 23 3 40 10 62l65 206c8 24 18 55 18 69c0 19 -13 27 -40 27c-37 0 -38 3 -38 16c0 3 -9 1 -9 11c0 8 2 15 6 26c8 23 16 26 39 26h12c59 0 76 23 106 112l59 177c46 139 97 176 184 176h20c30 0 54 -2 54 -14
c0 -7 7 -6 7 -20c0 -6 -1 -10 -5 -17c-11 -22 -14 -25 -37 -25h-12z" />
    <glyph glyph-name="bar" unicode="|" horiz-adv-x="270" 
d="M417 768c0 -21 -1 -25 -5 -31c-16 -24 -26 -26 -32 -39c-78 -178 -190 -572 -272 -805c-20 -57 -33 -91 -46 -91c-16 0 -24 2 -35 10c-15 11 -27 9 -27 21c0 19 3 33 7 46c4 12 17 32 23 50l261 782c23 70 38 95 69 95c8 0 25 -1 34 -12s23 -15 23 -26z" />
    <glyph glyph-name="braceright" unicode="}" horiz-adv-x="346" 
d="M-57 -122c82 0 88 15 105 66l80 242c22 66 46 110 97 120c2 0 3 1 3 2s-1 2 -3 2c-18 8 -29 26 -29 50c0 12 2 38 11 65l70 221c9 27 12 42 12 59c0 21 -21 27 -57 27h-41c-15 0 -23 10 -23 21c0 24 9 28 17 47c3 8 27 9 62 9h24c36 0 108 -25 108 -98
c0 -23 -4 -47 -10 -65l-69 -206c-9 -28 -17 -50 -17 -69c0 -17 12 -27 40 -27h19c22 0 30 -3 30 -14c0 -33 -12 -43 -17 -53s-15 -12 -42 -12c-36 0 -73 -12 -106 -112l-59 -177c-46 -139 -75 -176 -189 -176h-15c-49 0 -64 3 -64 18c0 27 12 31 17 46c3 10 19 14 31 14h15z
" />
    <glyph glyph-name="asciitilde" unicode="~" horiz-adv-x="550" 
d="M115 270c-5 29 -15 13 -15 30c0 11 1 17 10 23c72 46 107 62 151 62c74 0 98 -96 157 -96c55 0 94 57 107 57c16 0 32 -12 33 -24c1 -10 9 0 9 -17c0 -7 -2 -10 -11 -18c-38 -34 -96 -77 -135 -77c-47 0 -69 12 -110 53c-36 36 -40 40 -71 40c-12 0 -23 -7 -63 -37
c-8 -6 -14 -11 -38 -11c-16 0 -23 4 -24 15z" />
    <glyph glyph-name="uni00A0" unicode="&#xa0;" horiz-adv-x="246" 
 />
    <glyph glyph-name="exclamdown" unicode="&#xa1;" horiz-adv-x="320" 
d="M91 -80c10 29 15 10 21 35c27 113 47 154 93 315c4 15 10 19 17 19c14 0 23 -3 28 -8c19 -19 28 -29 28 -43c0 -7 -4 -22 -7 -30c-7 -18 -2 -21 -8 -39c-79 -233 -61 -230 -77 -275c-11 -30 -26 -72 -29 -87c-2 -9 -10 -9 -24 -9c-18 0 -12 9 -39 22c-15 7 -15 20 -15 33
c0 26 6 50 12 67zM322 468c10 -1 21 -11 21 -24c0 -8 -4 -17 -11 -37c-6 -16 -16 -32 -31 -32c-7 0 -14 -2 -29 -2c-24 0 -33 27 -33 58c0 10 2 14 8 26c4 8 5 22 20 22c26 0 30 -8 55 -11z" />
    <glyph glyph-name="cent" unicode="&#xa2;" horiz-adv-x="434" 
d="M351 389c-7 -20 -105 -316 -105 -332c0 -3 1 -3 5 -3c11 0 35 8 57 22c9 6 18 20 27 26c30 20 53 28 68 28c9 0 16 -3 24 -9c7 -5 13 -12 13 -18c0 -3 0 -11 -19 -24c-113 -77 -155 -83 -172 -85c-16 -2 -21 -3 -23 -9c-3 -8 -15 -42 -20 -54c-7 -17 -14 -31 -29 -31
c-11 0 -14 8 -35 20c-9 5 -13 13 -13 19c0 17 13 20 25 61c0 3 -3 5 -10 8c-52 22 -88 80 -88 126c0 17 1 62 18 102c49 115 95 161 132 188c43 31 60 39 96 39c5 0 6 2 8 8c18 54 27 70 47 70c6 0 14 -2 24 -2c8 0 28 -8 28 -15c0 -5 -9 -11 -21 -36
c-9 -19 -14 -31 -14 -35s3 -5 6 -6c13 -6 25 -12 35 -21c22 -20 40 -37 40 -67c0 -10 -4 -26 -17 -77c-7 -27 0 -43 -30 -43c-25 0 -54 26 -54 34c0 21 9 40 16 65c5 18 6 31 6 34c0 24 -15 24 -19 24c-3 0 -4 -1 -6 -7zM168 242c-17 -48 -27 -57 -27 -107c0 -8 0 -27 6 -42
c11 -26 20 -29 23 -29c6 0 7 2 9 8l11 35c39 123 80 237 96 291c0 4 -3 5 -5 5c-14 0 -90 -95 -113 -161z" />
    <glyph glyph-name="sterling" unicode="&#xa3;" horiz-adv-x="490" 
d="M229 233c-37 -90 -67 -169 -69 -179c0 -5 1 -5 11 -5c11 0 216 39 229 52c6 6 50 6 57 6c17 0 22 -1 36 -17c7 -8 7 -11 13 -17c13 -13 14 -14 14 -27c0 -8 -3 -21 -27 -21c-13 0 -12 1 -33 1s-178 -38 -274 -52c-41 -6 -85 -8 -112 -8c-6 0 -18 0 -25 1
c-35 5 -21 29 -35 51c-3 4 -4 9 -4 13c0 3 5 13 7 15c4 4 15 5 26 5c10 0 14 -3 29 -3c6 0 8 0 8 4c-2 4 -4 9 -4 18c0 12 22 66 59 157c2 5 2 6 2 7c0 3 -3 4 -14 5c-22 2 -33 5 -33 35c0 11 -8 15 -8 35c0 7 6 7 32 7c5 0 28 2 51 5c13 2 15 6 17 11l12 27
c117 264 203 295 281 295c16 0 42 -3 57 -21c24 -29 45 -43 45 -72c0 -19 -31 -91 -31 -106c0 -11 -12 -27 -29 -27c-9 0 -17 5 -31 8c-18 4 -27 6 -27 36c0 16 22 41 23 62c1 15 10 22 10 42c0 4 -2 18 -11 18c-45 0 -119 -66 -175 -187l-25 -54c-2 -4 -4 -9 -4 -11
c0 -4 2 -5 6 -5l38 8c29 6 43 8 50 8c17 0 21 -2 36 -17c13 -13 16 -18 16 -31c0 -8 -1 -23 -9 -23c-13 0 -19 -6 -43 -7c-22 -1 -57 -10 -109 -20c-25 -4 -26 -5 -33 -22z" />
    <glyph glyph-name="currency" unicode="&#xa4;" horiz-adv-x="508" 
d="M380 49c0 9 -6 33 -28 85c-2 4 -3 6 -6 6s-6 -1 -11 -2c-18 -4 -35 -7 -52 -7c-21 0 -42 5 -61 16c-3 2 -5 2 -6 2c-2 0 -4 -1 -6 -3c-10 -10 -20 -22 -35 -36c-53 -51 -93 -84 -101 -84c-14 0 -20 2 -29 11c-7 7 -11 12 -11 20c0 5 11 43 23 45c7 1 26 14 68 56l36 36
c3 3 4 5 4 8c0 2 -1 4 -2 6c-8 13 -14 38 -14 55c0 33 12 105 71 164c4 4 5 6 5 9c0 2 -1 6 -3 11c-16 38 -32 94 -32 110c0 18 4 30 7 35c9 16 28 23 35 23c4 0 12 -3 19 -7c16 -9 19 -12 19 -22s0 -13 1 -18c3 -13 3 -21 3 -29c0 -18 1 -21 18 -63c2 -5 4 -6 8 -6
c15 4 27 6 42 6c18 0 37 -3 65 -14c5 -2 8 -3 10 -3c3 0 6 2 11 7c38 42 84 80 105 94c9 6 23 10 34 10c7 0 27 -9 27 -26c0 -4 -1 -8 -3 -17c-9 -39 -22 -31 -34 -41s-17 -8 -76 -59c-7 -6 -10 -10 -10 -13s2 -7 4 -10c7 -14 13 -29 13 -45c0 -74 -20 -130 -66 -176
c-4 -4 -5 -6 -5 -8c0 -1 0 -3 1 -5c26 -66 30 -96 43 -107c6 -5 8 -13 8 -19c0 -10 -3 -13 -32 -30c-5 -3 -9 -4 -13 -4c-5 0 -13 3 -21 8c-12 7 -23 24 -23 31zM268 360c-29 -44 -40 -88 -40 -111c0 -9 0 -15 7 -16c6 -1 12 -11 16 -20c8 -17 -2 -17 12 -27
c4 -3 11 -6 22 -6c5 0 17 2 25 6c41 21 47 39 79 83c21 29 23 59 23 80c0 22 -10 19 -29 42c-5 6 1 18 -11 24c-6 3 -15 5 -35 5c-21 0 -42 -19 -69 -60z" />
    <glyph glyph-name="yen" unicode="&#xa5;" horiz-adv-x="474" 
d="M179 144c2 7 9 26 9 30s-2 5 -7 5c-10 0 -25 -1 -35 -1c-28 0 -52 1 -58 3c-9 4 -16 25 -16 52c0 6 4 5 8 11s7 8 18 8s48 -8 78 -8c31 0 31 4 31 15c0 36 -1 105 -1 124c0 59 3 97 3 124c0 25 -4 40 -4 52v27c0 5 -1 12 -1 20c0 14 9 26 20 26c8 0 21 4 32 4
c15 0 21 -1 26 -7c3 -3 8 -8 8 -18c0 -6 5 -15 5 -22c-3 -84 -8 -161 -8 -220c0 -11 2 -18 5 -18c4 0 11 5 18 12c46 46 81 81 145 149c32 34 50 56 60 95c3 12 4 21 4 25c0 8 11 10 24 10c6 0 21 -4 28 -4c9 0 9 -8 21 -8c9 0 12 -11 12 -25c0 -24 -31 -84 -73 -126
c-101 -101 -196 -199 -207 -206c-8 -5 -11 -11 -11 -14c0 -4 2 -4 7 -4s74 10 83 10c16 0 21 0 30 -7c4 -3 5 -10 5 -14c-1 -16 -2 -23 -9 -34c-4 -6 -5 -17 -11 -17c-8 0 -16 2 -30 2c-5 0 -94 -7 -101 -7s-11 -2 -12 -6c-4 -11 -12 -32 -12 -35c0 -4 2 -5 6 -5
c8 0 93 9 102 9c15 0 20 0 27 -5c2 -3 8 -10 8 -13c0 -13 -4 -27 -8 -40c-1 -3 -8 -11 -10 -11c-12 0 -21 4 -39 4c-37 -5 -95 -9 -101 -9s-8 -1 -13 -14c-8 -24 -22 -79 -22 -84c0 -6 2 -9 2 -11c0 -10 -15 -26 -18 -54c-1 -11 -17 -19 -38 -19c-7 0 -9 7 -16 7
c-15 0 -33 14 -33 17c0 5 14 52 20 66c5 11 12 44 19 62c5 13 6 17 6 20c0 2 -3 4 -5 4c-5 0 -39 -2 -54 -2c-18 0 -28 1 -32 3c-10 5 -27 25 -27 49c0 5 5 5 7 13c1 5 8 7 16 7c5 0 40 -6 76 -6s41 1 43 9z" />
    <glyph glyph-name="brokenbar" unicode="&#xa6;" horiz-adv-x="292" 
d="M171 55l-93 -242c-4 -10 -6 -13 -13 -13c-25 0 -15 10 -28 17c-16 9 -23 16 -23 28c0 11 4 19 10 36c10 28 8 35 13 50l71 213c8 23 20 56 40 56c23 0 22 -6 40 -9s27 -14 27 -26c0 -16 -5 -47 -16 -60c-8 -9 -21 -31 -28 -50zM220 485l51 149c10 28 18 54 38 89
c4 7 10 8 23 8c9 0 13 -6 33 -11c12 -3 27 -13 27 -21c0 -26 -6 -28 -6 -42c0 -3 -2 -8 -10 -18c-16 -20 -32 -50 -45 -85c-16 -43 -56 -153 -60 -167c-15 -47 -16 -47 -25 -47c-16 0 -24 5 -27 11c-15 30 -31 27 -31 36c0 10 15 50 32 98z" />
    <glyph glyph-name="section" unicode="&#xa7;" horiz-adv-x="406" 
d="M234 29c-10 -2 -11 -5 -11 -10c0 -3 3 -15 3 -42c0 -21 -4 -58 -15 -76c-17 -28 -34 -48 -68 -74c-25 -19 -53 -19 -71 -19c-63 0 -116 43 -116 122c0 23 5 32 13 36c15 7 29 23 40 23c13 0 23 -6 23 -17c0 -12 7 -17 7 -36c0 -17 11 -64 53 -64c10 0 27 11 35 20
c19 22 21 51 21 56c0 46 -10 78 -33 143c-13 37 -28 78 -28 144c0 27 6 75 19 97c34 58 83 91 114 100c17 5 19 6 19 10c0 3 -1 8 -2 14c-2 10 -4 32 -4 46c0 51 17 90 65 134c20 18 48 36 113 36c14 0 33 -5 44 -15c13 -11 32 -47 32 -81c0 -15 -6 -26 -11 -27
c-16 -3 -22 -17 -47 -17c-5 0 -7 2 -9 7c-8 21 -6 33 -8 40c-7 24 -14 33 -32 33c-24 0 -66 -22 -66 -82c0 -52 26 -110 43 -147s34 -89 34 -148c0 -24 -5 -66 -17 -90c-22 -44 -42 -56 -84 -94c-10 -9 -38 -18 -56 -22zM204 108c1 -4 2 -6 11 -6c7 0 45 11 66 36
c17 21 27 43 27 75c0 17 0 39 -40 146c-3 8 -5 8 -9 8c-21 0 -62 -27 -78 -61c-9 -20 -12 -33 -12 -50c0 -8 0 -12 4 -38c6 -37 17 -66 31 -110z" />
    <glyph glyph-name="dieresis" unicode="&#xa8;" horiz-adv-x="510" 
d="M358 822c6 -11 11 -25 11 -32c0 -25 -22 -42 -23 -49c-1 -11 -28 -17 -39 -17c-3 0 -12 0 -15 2c-12 8 -13 16 -20 23c-2 2 -2 12 -2 29c0 7 8 31 13 41c7 13 19 16 35 16c11 0 33 -1 40 -13zM543 764c2 -9 11 -21 11 -32c0 -8 0 -12 -2 -16c-11 -22 -17 -32 -25 -36
c-6 -3 -22 -4 -29 -4c-11 0 -19 4 -24 15c-6 14 -21 23 -21 43c0 8 11 49 31 49c3 0 13 -1 20 -1c17 0 36 -6 39 -18z" />
    <glyph glyph-name="copyright" unicode="&#xa9;" horiz-adv-x="796" 
d="M422 -20c-49 0 -135 19 -174 48c-48 36 -130 95 -130 246c0 188 140 396 354 396c92 0 156 -9 214 -67c26 -26 59 -47 89 -99c17 -30 36 -75 36 -134c0 -90 -37 -252 -183 -342c-67 -41 -128 -48 -206 -48zM498 603c-196 0 -307 -186 -307 -357c0 -154 119 -205 223 -205
c212 0 317 181 317 340c0 155 -98 222 -233 222zM564 258h23c16 0 26 -7 26 -17c0 -3 5 -5 5 -10s-2 -10 -6 -12c-7 -4 -14 -11 -23 -22c-49 -60 -91 -103 -148 -103c-11 0 -29 1 -45 4c-46 9 -82 29 -105 64c-14 22 -21 57 -21 77c0 83 33 147 79 209c29 39 88 96 165 96
c13 0 27 -1 41 -4c27 -6 53 -27 71 -45c3 -3 9 -18 9 -25c0 -26 -15 -47 -15 -71c0 -5 -12 -12 -30 -12c-13 0 -28 3 -35 5c-13 4 -20 11 -20 15c0 28 17 43 17 64c0 14 -16 15 -30 15c-54 0 -110 -87 -129 -125c-17 -33 -43 -94 -43 -156c0 -27 14 -57 59 -57
c24 0 49 9 88 58c33 41 48 52 67 52z" />
    <glyph glyph-name="ordfeminine" unicode="&#xaa;" horiz-adv-x="442" 
d="M481 602c8 -8 27 -7 34 -13s11 -12 11 -17c0 -10 -6 -20 -12 -24s-10 -12 -15 -19c-29 -41 -66 -114 -66 -173c0 -18 5 -46 22 -66c0 -13 -6 -18 -12 -18c-11 -4 -25 -8 -37 -8c-9 0 -21 4 -27 15c-18 33 -16 62 -18 93c0 5 -2 6 -7 6c-27 -21 -116 -104 -149 -104
c-16 0 -76 19 -91 59c-3 8 -5 17 -5 25c0 55 37 106 76 159c48 66 161 128 212 128c41 0 61 -20 84 -43zM104 157c-17 0 -31 0 -43 2c-11 2 -18 6 -22 25c-4 20 -9 5 -9 36c0 13 2 17 41 17c13 0 15 -5 27 -5c45 0 25 -5 52 -5c59 0 120 4 181 4c21 0 40 2 59 2
c18 0 35 0 46 -3s3 -10 14 -19c5 -4 7 -9 7 -16c0 -10 -1 -19 -8 -30c-4 -6 -9 -7 -40 -7c-20 0 -59 1 -110 1c-49 0 -96 -2 -195 -2zM430 572c0 8 -6 11 -15 11c-16 0 -41 -9 -49 -11c-60 -15 -186 -148 -186 -223c0 -4 1 -6 8 -6c28 0 195 130 209 173c6 19 33 39 33 56z
" />
    <glyph glyph-name="guillemotleft" unicode="&#xab;" horiz-adv-x="410" 
d="M267 276c-5 8 -9 17 -9 28c0 10 3 12 4 16c2 8 6 18 11 24l79 89c36 42 37 42 53 42c8 0 19 -1 31 -27c7 -15 14 -15 14 -24c0 -5 -2 -10 -7 -15c-16 -17 -23 -18 -38 -32l-54 -51c-5 -5 -7 -10 -7 -13c0 -4 1 -8 3 -12l45 -83c4 -7 4 -14 4 -27c0 -5 -1 -10 -7 -14
c-3 -2 -3 -5 -14 -13c-3 -2 -11 -7 -14 -7c-5 0 -10 1 -12 4c-4 6 -6 11 -13 20zM106 276c-3 4 -4 14 -4 23c0 8 -2 15 -2 18c0 9 6 21 11 27l77 84c41 45 44 47 52 47c20 0 23 -4 25 -11c2 -9 7 -9 12 -18c4 -7 9 -16 9 -25c0 -8 -2 -14 -42 -45c-26 -20 -38 -36 -55 -49
c-4 -3 -6 -8 -6 -13c0 -3 1 -7 3 -12c16 -35 32 -68 37 -74c7 -8 8 -15 8 -29c0 -8 -1 -19 -3 -22c-9 -13 -16 -20 -37 -20c-5 0 -14 10 -19 22c-3 7 -44 65 -66 97z" />
    <glyph glyph-name="logicalnot" unicode="&#xac;" horiz-adv-x="590" 
d="M519 357c10 0 33 -22 33 -29c0 -2 -1 -6 -2 -11s-3 -10 -4 -13c-19 -75 -28 -112 -33 -126c-3 -8 -2 -16 -7 -34c-6 -23 -11 -26 -21 -26h-20c-5 0 -12 -2 -19 -2c-10 0 -20 3 -20 12c0 19 14 43 33 112c3 11 4 19 4 25c0 12 -6 13 -32 13c-55 0 -107 4 -192 4
c-20 0 -24 -3 -31 -4c-17 -2 -41 -2 -61 -2c-4 0 -14 0 -14 6c0 8 -3 11 -3 17c0 10 15 45 18 49c5 7 10 9 111 9h89c45 0 90 -3 134 -3c16 0 27 3 37 3z" />
    <glyph glyph-name="uni00AD" unicode="&#xad;" horiz-adv-x="456" 
d="M423 243c-6 -6 -31 -5 -55 -12c-10 -3 -47 -3 -70 -3c-61 0 -131 8 -151 8c-9 0 -16 11 -23 28c-3 8 -6 17 -6 26c0 5 1 9 3 13c5 9 27 12 36 12c60 0 109 -4 168 -4c21 0 57 4 75 4c23 0 37 -7 37 -18c0 -30 -1 -41 -14 -54z" />
    <glyph glyph-name="registered" unicode="&#xae;" horiz-adv-x="658" 
d="M387 138c-40 0 -96 16 -130 38c-62 41 -89 64 -106 133c-5 20 -9 42 -9 55c0 135 101 334 281 334c87 0 133 -9 172 -52c18 -20 54 -40 80 -82c23 -38 33 -68 33 -114c0 -96 -72 -311 -321 -312zM635 493c-10 100 -92 145 -186 145c-153 0 -233 -155 -233 -278
c0 -96 70 -164 167 -164c72 0 122 21 160 55c66 59 93 142 93 216c0 9 0 17 -1 26zM427 273c-28 33 -43 65 -55 100c-9 -13 -9 -26 -13 -38c-8 -25 -12 -71 -12 -73c0 -3 -2 -6 -4 -7c-6 -3 -12 -4 -18 -4s-13 0 -19 4c-9 6 -21 6 -21 14c0 1 0 2 3 24c8 55 25 108 46 171
c7 21 14 39 17 46s4 9 4 10s-1 2 -3 4c-8 8 -15 18 -15 27c0 1 0 2 6 6c35 24 79 41 119 41c20 0 41 -4 60 -12c10 -4 26 -20 28 -25c3 -10 5 -25 5 -38c0 -37 -21 -71 -46 -96c-13 -13 -33 -28 -82 -38c35 -71 49 -81 76 -89c3 -1 5 -2 6 -4c4 -7 6 -15 6 -24
c0 -18 -8 -21 -15 -23c-4 -1 -10 -2 -22 -2c-18 0 -39 12 -51 26zM487 548c-2 4 -9 6 -14 6c-10 0 -13 -3 -25 -5c-7 -1 -8 -2 -12 -9c-24 -43 -29 -58 -45 -107c13 0 29 2 46 13c29 19 52 50 52 86c0 5 -1 14 -2 16z" />
    <glyph glyph-name="macron" unicode="&#xaf;" horiz-adv-x="510" 
d="M424 783c43 0 104 3 130 3c10 0 8 -8 14 -14c3 -3 4 -4 4 -7s-2 -7 -2 -11c0 -16 0 -20 -6 -31c-4 -7 -8 -8 -16 -8c-9 0 -26 1 -37 1c-19 0 -106 -2 -157 -2c-40 0 -72 2 -78 4c-14 5 -22 24 -22 55c0 9 10 14 34 14c32 0 46 -4 136 -4z" />
    <glyph glyph-name="degree" unicode="&#xb0;" horiz-adv-x="384" 
d="M382 376c-13 -11 -39 -23 -70 -23c-15 0 -31 3 -47 10c-29 13 -58 37 -68 55c-15 27 -23 51 -23 73c0 43 26 81 62 130c20 27 68 56 97 56c30 0 52 0 93 -29c27 -19 51 -62 51 -96c0 -31 -26 -117 -95 -176zM400 600c-7 17 -17 29 -27 29c-13 0 -19 -1 -32 -13
c-63 -59 -95 -115 -95 -160c0 -46 30 -56 42 -56c8 0 19 2 29 15c64 83 90 121 90 155c0 10 -3 20 -7 30z" />
    <glyph glyph-name="plusminus" unicode="&#xb1;" horiz-adv-x="590" 
d="M407 398c8 1 15 1 22 1c19 0 95 11 110 11s27 -4 37 -14c4 -4 4 -5 4 -12c0 -14 -8 -27 -13 -40c-2 -5 -6 -10 -10 -10c-5 0 -10 2 -15 2c-8 0 -18 -1 -26 -2c-49 -6 -76 -6 -133 -13c-3 0 -6 0 -7 -3c-18 -64 -21 -82 -30 -140c-3 -20 -5 -34 -34 -34
c-5 0 -12 -3 -16 -3c-22 0 -30 10 -30 14c0 32 11 61 22 116l7 36c0 4 -1 6 -5 6h-38c-30 0 -80 6 -91 10c-10 4 -18 25 -18 57c0 5 4 9 9 13c6 5 11 7 18 7c4 0 7 0 14 -2c17 -5 71 -6 87 -6h27c13 0 22 1 24 7c7 21 26 81 29 94c9 39 16 53 23 55c24 7 33 13 42 13
c8 0 24 -3 27 -6s5 -6 5 -10c0 -3 -3 -9 -4 -13l-11 -35c-12 -39 -18 -60 -30 -94c0 -4 0 -5 4 -5zM511 86c0 -16 -3 -29 -8 -42c-2 -5 -5 -8 -8 -8c-8 0 -19 2 -27 2c-38 0 -159 -8 -240 -8c-52 0 -114 7 -129 7c-13 0 -21 46 -21 62c0 9 11 16 34 16c16 0 68 -8 158 -8
c37 0 152 8 210 8c11 0 15 -1 28 -14c3 -6 3 -9 3 -15z" />
    <glyph glyph-name="twosuperior" unicode="&#xb2;" 
d="M354 596c-35 0 -62 -37 -77 -57c-6 -8 -15 -14 -19 -23c-5 -12 -11 -14 -20 -15s-14 -3 -17 -3c-15 0 -23 4 -29 10c-9 9 -13 21 -13 32c0 15 13 28 19 36c15 21 38 36 64 52c33 20 52 22 91 22c35 0 82 -44 82 -65c0 -70 -46 -139 -95 -191c-44 -46 -145 -142 -145 -153
c0 -1 1 -2 5 -3c9 -2 33 -2 41 -2c62 0 74 9 86 38c5 12 9 21 12 24c5 5 18 11 32 11c8 0 21 -1 35 -17c3 -3 5 -9 5 -15c0 -27 -20 -71 -25 -77c-15 -18 -47 -23 -131 -23c-53 0 -110 1 -130 17c-21 17 -29 33 -29 48c0 5 8 20 24 37c15 16 37 38 76 77
c25 25 166 164 166 228c0 5 0 12 -8 12z" />
    <glyph glyph-name="threesuperior" unicode="&#xb3;" 
d="M332 581c-25 -13 -59 -36 -59 -46c0 -14 -11 -13 -19 -23c-3 -4 -19 -6 -26 -6c-9 0 -18 2 -22 6c-7 7 -17 25 -17 30c0 28 25 39 46 59c5 5 20 6 27 10c18 11 54 33 90 33c13 0 26 -2 37 -10c3 -2 6 -3 9 -4c16 -5 24 -16 27 -22s4 -12 4 -16c0 -9 -3 -16 -7 -25
c-3 -7 -4 -12 -7 -17c-25 -44 -53 -79 -73 -100c63 -13 67 -63 67 -85c0 -27 -12 -61 -26 -90c-25 -52 -60 -107 -132 -107c-59 0 -113 59 -134 84c-6 7 -11 17 -11 25c0 11 5 17 23 17c17 0 21 2 29 2c9 0 16 -3 21 -9c9 -11 24 -20 24 -31c0 -7 23 -29 41 -29
c4 0 6 0 12 4c27 18 43 39 60 77c9 20 19 51 19 58c0 12 -4 20 -8 26c-3 5 -7 6 -12 6s-10 -2 -15 -4c-7 -3 -14 -3 -21 -7c-13 -7 -38 -25 -65 -25c-6 0 -13 1 -19 3c-12 4 -20 20 -20 31c0 4 1 7 3 9c9 8 19 14 30 20c12 7 15 13 18 15c66 44 96 100 112 132c2 4 3 7 3 9
c0 1 -1 2 -2 2s-3 0 -7 -2z" />
    <glyph glyph-name="acute" unicode="&#xb4;" horiz-adv-x="510" 
d="M402 794c15 6 62 25 77 35c3 2 10 3 14 3c8 0 13 -2 19 -8c9 -9 11 -15 11 -28c0 -16 -1 -21 -5 -26c-9 -11 -24 -17 -72 -32l-118 -37c-7 -2 -13 -3 -20 -3c-5 0 -9 1 -11 2c-6 4 -11 8 -15 14s-6 8 -9 11c-2 2 -3 6 -3 8c0 4 1 9 5 14c3 4 10 5 13 5c4 0 12 3 25 8z
" />
    <glyph glyph-name="mu" unicode="&#xb5;" horiz-adv-x="510" 
d="M139 122c-2 0 -8 -11 -52 -105c-42 -90 -74 -156 -125 -259c-6 -12 -21 -42 -32 -42c-10 0 -25 2 -31 2c-9 0 -15 15 -26 16c-8 1 -9 13 -9 26c0 22 5 29 49 78c8 9 18 27 39 66c77 142 159 303 256 516c7 15 15 30 21 30c16 0 17 9 26 9c10 0 33 0 39 -11
c4 -7 5 -20 5 -31c0 -10 -16 -24 -21 -39c-8 -23 -32 -56 -40 -92c-18 -81 -29 -91 -29 -192c0 -24 3 -41 12 -41c3 0 13 4 20 10c17 14 62 74 80 97c55 70 65 85 104 192c7 19 11 28 39 28c9 0 19 -10 27 -10c13 0 18 -7 18 -13c0 -16 -3 -25 -7 -34
c-34 -73 -61 -147 -73 -226c-3 -21 -6 -46 -6 -74c0 -25 16 -16 16 -71c0 -11 -12 -15 -31 -15c-14 0 -20 10 -35 10c-11 0 -14 18 -16 33c-3 21 -3 32 -3 52c0 25 2 35 2 45c0 3 -2 9 -5 9c-4 0 -25 -33 -31 -41c-35 -47 -77 -70 -89 -70c-18 0 -37 3 -56 14s-25 17 -29 28
c-2 7 -5 21 -5 55c0 12 0 25 1 41c0 5 0 9 -3 9z" />
    <glyph glyph-name="paragraph" unicode="&#xb6;" horiz-adv-x="680" 
d="M616 578c-20 0 -17 1 -61 1c-3 0 -5 -2 -7 -6c-3 -10 -37 -90 -64 -162c-14 -36 -39 -78 -41 -86c-11 -39 -68 -161 -75 -178c-71 -178 -82 -213 -85 -239c-1 -11 -8 -28 -8 -37c0 -8 1 -9 1 -19c0 -5 0 -9 -3 -18c-6 -15 -45 -32 -67 -32c-13 0 -15 5 -21 9
c-7 4 -12 0 -14 6c-2 5 -3 12 -3 17c0 3 0 11 1 23c3 36 15 75 24 98l48 121c20 48 38 96 62 138c-70 5 -141 65 -141 151c0 114 83 276 204 293c10 3 18 5 31 5c19 0 57 -3 70 -3c24 0 61 -3 83 -3c9 0 23 1 38 1c19 0 44 2 50 3c16 3 46 2 71 4c22 2 26 1 51 11
c6 2 6 3 23 3c19 0 37 -2 48 -14c20 -25 20 -26 20 -33s-3 -12 -3 -19c0 -3 -27 -13 -31 -13c-16 -6 -19 -7 -34 -8c-20 -1 -56 -11 -65 -23s-13 -26 -13 -32c0 -11 -3 -25 -19 -64l-39 -94c-6 -14 -24 -43 -31 -66c-5 -18 -14 -32 -44 -115c-29 -81 -73 -188 -90 -240
c-3 -7 -11 -46 -14 -64c-1 -7 -11 -44 -11 -49c0 -6 4 -11 4 -17c0 -4 -3 -11 -18 -19c-18 -10 -49 -15 -66 -15c-8 0 -17 1 -17 6c0 3 -1 5 -4 8c-5 4 -6 5 -6 11c0 9 7 64 42 170c17 51 46 116 53 138c14 46 34 84 80 205c47 125 63 158 90 229c4 9 5 13 5 14
c0 2 -1 3 -4 3z" />
    <glyph glyph-name="periodcentered" unicode="&#xb7;" horiz-adv-x="344" 
d="M272 340c11 -14 17 -28 17 -44c0 -7 -1 -16 -3 -24c-12 -40 -29 -71 -65 -71c-22 0 -65 10 -71 28c-4 12 -6 29 -6 44c0 25 5 51 12 58c13 13 49 23 78 23c17 0 30 -4 38 -14z" />
    <glyph glyph-name="cedilla" unicode="&#xb8;" horiz-adv-x="338" 
d="M126 28h54l33 -52c5 -7 10 -18 10 -38c0 -10 -7 -33 -17 -47c-32 -46 -62 -60 -91 -60c-20 0 -40 6 -59 13c-33 12 -42 25 -49 35c-5 7 -7 11 -7 16c0 7 5 13 15 23c3 3 6 4 8 4c4 0 7 -3 11 -3c6 0 18 -7 19 -14c1 -9 18 -20 36 -20c31 0 45 25 64 63c5 10 5 15 5 19
c0 8 -2 14 -5 19z" />
    <glyph glyph-name="onesuperior" unicode="&#xb9;" 
d="M277 269c18 68 34 124 50 194c0 2 -1 2 -2 2s-3 -2 -7 -7c-120 -148 -141 -153 -147 -163c-2 -4 -12 -7 -22 -7c-8 0 -17 2 -22 7s-12 7 -16 12c-8 9 -11 14 -11 18c0 5 5 10 13 18c21 21 33 28 43 35c7 5 18 14 31 28c43 47 92 104 138 159c21 25 38 52 54 79
c3 5 10 6 18 6c22 0 56 -13 56 -35c0 -3 -1 -6 -2 -9c-45 -113 -69 -235 -99 -355c-3 -11 -7 -26 -7 -43c0 -8 -2 -34 -23 -34c-7 0 -12 -2 -19 -2c-16 0 -30 5 -40 14c-3 3 -4 9 -4 15c0 10 3 22 4 26c3 19 10 27 14 42z" />
    <glyph glyph-name="ordmasculine" unicode="&#xba;" horiz-adv-x="408" 
d="M465 526c0 -66 -42 -147 -92 -207c-39 -47 -71 -50 -114 -50c-36 0 -69 9 -94 43c-22 30 -33 57 -33 86c0 46 23 95 57 154c32 56 87 104 155 104c40 0 35 -20 55 -20c27 0 66 -51 66 -110zM372 572c-3 4 -7 11 -7 16c0 10 -2 12 -18 12c-12 0 -32 -9 -47 -30
c-60 -82 -92 -142 -92 -189c0 -37 19 -63 50 -63c14 0 34 16 49 40c64 102 79 147 79 170c0 22 -4 32 -14 44zM133 154c-17 0 -57 2 -67 4c-23 5 -27 9 -29 20c-4 20 -7 7 -7 38c0 13 2 17 41 17c13 0 45 -7 57 -7h45c80 0 158 5 167 5c18 0 40 -1 56 -4c5 -1 7 -3 7 -4
c0 -4 -4 -4 -4 -7c0 -6 19 -14 19 -23c0 -10 -4 -17 -12 -28c-5 -7 -13 -7 -44 -7c-20 0 -51 2 -102 2c-49 0 -28 -6 -127 -6z" />
    <glyph glyph-name="guillemotright" unicode="&#xbb;" horiz-adv-x="410" 
d="M417 276l-100 -100c-16 -16 -23 -18 -43 -18c-6 0 -18 13 -18 24c0 3 -6 3 -6 10c0 1 0 6 4 10l94 102c6 6 7 9 7 14c0 3 -1 8 -4 12c-7 10 -10 18 -13 26c-4 12 -8 11 -18 33c-6 12 -21 27 -21 34c0 15 14 17 33 41c7 9 19 10 25 10c7 0 11 -1 13 -2c6 -3 8 -5 27 -44
l38 -78c3 -6 4 -16 4 -33c0 -7 -7 -26 -22 -41zM256 276l-121 -108c-11 -11 -16 -12 -20 -12c-2 0 -5 1 -14 8c-3 2 -8 7 -8 13c0 19 0 29 9 39l85 88c6 7 8 12 8 18c0 4 -2 8 -4 12l-26 48c-7 13 -15 26 -17 33c-3 4 -5 8 -5 12c0 5 21 34 30 40c8 5 13 7 19 7
c10 0 10 5 19 5c4 0 10 -4 13 -11l48 -115c5 -13 6 -20 6 -36c0 -14 -13 -33 -22 -41z" />
    <glyph glyph-name="onequarter" unicode="&#xbc;" horiz-adv-x="950" 
d="M722 91c0 2 0 3 -5 3c-39 0 -73 2 -106 15c-22 9 -42 51 -42 57c0 10 1 16 8 24c55 62 125 148 208 219c7 6 13 12 15 15c5 8 12 17 28 17c5 0 12 -1 20 -4c21 -8 28 -18 28 -30c0 -16 -12 -35 -12 -45c0 -9 -2 -22 -6 -36c-3 -11 -21 -68 -33 -112
c-10 -38 -10 -43 -10 -45s1 -3 3 -3s22 6 46 6c15 0 28 -2 37 -11c2 -2 5 -7 7 -11c5 -11 6 -16 6 -20c0 -17 -28 -13 -59 -17c-15 -2 -34 -5 -49 -9c-15 -34 -14 -73 -20 -109c-1 -8 -3 -16 -14 -16c-25 0 -37 11 -52 20c-10 6 -10 14 -10 20s2 20 6 41l4 20c1 5 2 9 2 11z
M797 632c0 -25 -1 -27 -9 -30c-3 -1 -8 -3 -15 -11c-18 -21 -28 -21 -37 -33c-118 -155 -202 -314 -319 -494c-39 -60 -70 -96 -77 -96c-16 0 -22 0 -33 8s-16 12 -16 26c0 33 4 36 11 38c9 3 15 8 51 63l305 470c24 37 61 78 71 86c12 9 25 14 32 14c8 0 19 -5 27 -12
c6 -5 9 -9 9 -29zM277 269c18 68 34 124 50 194c0 2 -1 2 -2 2s-3 -2 -7 -7c-120 -148 -141 -153 -147 -163c-2 -4 -12 -7 -22 -7c-8 0 -17 2 -22 7s-12 7 -16 12c-8 9 -11 14 -11 18c0 5 5 10 13 18c21 21 33 28 43 35c7 5 18 14 31 28c43 47 92 104 138 159
c21 25 38 52 54 79c3 5 10 6 18 6c22 0 56 -13 56 -35c0 -3 -1 -6 -2 -9c-45 -113 -69 -235 -99 -355c-3 -11 -7 -26 -7 -43c0 -8 -2 -34 -23 -34c-7 0 -12 -2 -19 -2c-16 0 -30 5 -40 14c-3 3 -4 9 -4 15c0 10 3 22 4 26c3 19 10 27 14 42zM761 293
c-35 -40 -76 -89 -108 -128c-2 -3 -3 -5 -3 -6c0 -2 4 -5 10 -6c11 -2 28 -2 41 -2c4 0 18 1 28 2c7 1 7 2 8 8c6 36 17 70 30 115c5 17 7 24 7 25s0 3 -1 3c-2 0 -5 -3 -12 -11z" />
    <glyph glyph-name="onehalf" unicode="&#xbd;" horiz-adv-x="950" 
d="M277 269c18 68 34 124 50 194c0 2 -1 2 -2 2s-3 -2 -7 -7c-120 -148 -141 -153 -147 -163c-2 -4 -12 -7 -22 -7c-8 0 -17 2 -22 7s-12 7 -16 12c-8 9 -11 14 -11 18c0 5 5 10 13 18c21 21 33 28 43 35c7 5 18 14 31 28c43 47 92 104 138 159c21 25 38 52 54 79
c3 5 10 6 18 6c22 0 56 -13 56 -35c0 -3 -1 -6 -2 -9c-45 -113 -69 -235 -99 -355c-3 -11 -7 -26 -7 -43c0 -8 -2 -34 -23 -34c-7 0 -12 -2 -19 -2c-16 0 -30 5 -40 14c-3 3 -4 9 -4 15c0 10 3 22 4 26c3 19 10 27 14 42zM786 632c0 -25 -1 -27 -9 -30c-3 -1 -8 -3 -15 -11
c-18 -21 -28 -21 -37 -33c-118 -155 -202 -314 -319 -494c-39 -60 -70 -96 -77 -96c-16 0 -22 0 -33 8s-16 12 -16 26c0 33 4 36 11 38c9 3 15 8 51 63l305 470c24 37 61 78 71 86c12 9 25 14 32 14c8 0 19 -5 27 -12c6 -5 9 -9 9 -29zM822 403c-35 0 -62 -37 -77 -57
c-6 -8 -15 -14 -19 -23c-5 -12 -11 -14 -20 -15s-14 -3 -17 -3c-15 0 -23 4 -29 10c-9 9 -13 21 -13 32c0 15 13 28 19 36c15 21 38 36 64 52c33 20 52 22 91 22c35 0 82 -44 82 -65c0 -70 -46 -139 -95 -191c-44 -46 -145 -142 -145 -153c0 -1 1 -2 5 -3c9 -2 33 -2 41 -2
c62 0 74 9 86 38c5 12 9 21 12 24c5 5 18 11 32 11c8 0 21 -1 35 -17c3 -3 5 -9 5 -15c0 -27 -20 -71 -25 -77c-15 -18 -47 -23 -131 -23c-53 0 -110 1 -130 17c-21 17 -29 33 -29 48c0 5 8 20 24 37c15 16 37 38 76 77c25 25 166 164 166 228c0 5 0 12 -8 12z" />
    <glyph glyph-name="threequarters" unicode="&#xbe;" horiz-adv-x="950" 
d="M722 91c0 2 0 3 -5 3c-39 0 -73 2 -106 15c-22 9 -42 51 -42 57c0 10 1 16 8 24c55 62 125 148 208 219c7 6 13 12 15 15c5 8 12 17 28 17c5 0 12 -1 20 -4c21 -8 28 -18 28 -30c0 -16 -12 -35 -12 -45c0 -9 -2 -22 -6 -36c-3 -11 -21 -68 -33 -112
c-10 -38 -10 -43 -10 -45s1 -3 3 -3s22 6 46 6c15 0 28 -2 37 -11c2 -2 5 -7 7 -11c5 -11 6 -16 6 -20c0 -17 -28 -13 -59 -17c-15 -2 -34 -5 -49 -9c-15 -34 -14 -73 -20 -109c-1 -8 -3 -16 -14 -16c-25 0 -37 11 -52 20c-10 6 -10 14 -10 20s2 20 6 41l4 20c1 5 2 9 2 11z
M332 581c-25 -13 -59 -36 -59 -46c0 -14 -11 -13 -19 -23c-3 -4 -19 -6 -26 -6c-9 0 -18 2 -22 6c-7 7 -17 25 -17 30c0 28 25 39 46 59c5 5 20 6 27 10c18 11 54 33 90 33c13 0 26 -2 37 -10c3 -2 6 -3 9 -4c16 -5 24 -16 27 -22s4 -12 4 -16c0 -9 -3 -16 -7 -25
c-3 -7 -4 -12 -7 -17c-25 -44 -53 -79 -73 -100c63 -13 67 -63 67 -85c0 -27 -12 -61 -26 -90c-25 -52 -60 -107 -132 -107c-59 0 -113 59 -134 84c-6 7 -11 17 -11 25c0 11 5 17 23 17c17 0 21 2 29 2c9 0 16 -3 21 -9c9 -11 24 -20 24 -31c0 -7 23 -29 41 -29
c4 0 6 0 12 4c27 18 43 39 60 77c9 20 19 51 19 58c0 12 -4 20 -8 26c-3 5 -7 6 -12 6s-10 -2 -15 -4c-7 -3 -14 -3 -21 -7c-13 -7 -38 -25 -65 -25c-6 0 -13 1 -19 3c-12 4 -20 20 -20 31c0 4 1 7 3 9c9 8 19 14 30 20c12 7 15 13 18 15c66 44 96 100 112 132c2 4 3 7 3 9
c0 1 -1 2 -2 2s-3 0 -7 -2zM797 632c0 -25 -1 -27 -9 -30c-3 -1 -8 -3 -15 -11c-18 -21 -28 -21 -37 -33c-118 -155 -202 -314 -319 -494c-39 -60 -70 -96 -77 -96c-16 0 -22 0 -33 8s-16 12 -16 26c0 33 4 36 11 38c9 3 15 8 51 63l305 470c24 37 61 78 71 86
c12 9 25 14 32 14c8 0 19 -5 27 -12c6 -5 9 -9 9 -29zM761 293c-35 -40 -76 -89 -108 -128c-2 -3 -3 -5 -3 -6c0 -2 4 -5 10 -6c11 -2 28 -2 41 -2c4 0 18 1 28 2c7 1 7 2 8 8c6 36 17 70 30 115c5 17 7 24 7 25s0 3 -1 3c-2 0 -5 -3 -12 -11z" />
    <glyph glyph-name="questiondown" unicode="&#xbf;" horiz-adv-x="360" 
d="M50 -90c0 50 7 59 109 165c75 78 91 92 91 114c0 15 -23 23 -40 23c-12 0 -30 -2 -39 -8c-12 -8 -21 -11 -29 -11c-5 0 -22 3 -26 13c-3 8 -9 15 -9 20c0 8 9 24 15 29c14 11 46 21 75 21c33 0 56 -3 88 -20c26 -14 44 -34 44 -62c0 -42 -3 -53 -132 -180
c-57 -56 -70 -77 -70 -97c0 -15 26 -32 41 -32c25 0 49 11 49 39c0 4 -2 16 -2 22c0 11 4 21 23 21c16 0 23 -1 36 -15c7 -7 13 -24 13 -35c0 -27 -15 -52 -28 -64c-23 -21 -46 -28 -79 -28c-35 0 -57 6 -82 20c-21 12 -48 36 -48 65zM364 429c0 -17 -2 -27 -9 -34
c-13 -13 -31 -25 -48 -25c-14 0 -30 7 -35 14c-6 9 -20 19 -20 28c0 10 3 21 5 27c11 38 25 41 38 41s69 -34 69 -51z" />
    <glyph glyph-name="Agrave" unicode="&#xc0;" horiz-adv-x="510" 
d="M460 -73c0 -12 -12 -19 -20 -25c-5 -4 -7 -4 -11 -4c-16 0 -38 5 -51 18s-19 78 -19 127c0 45 4 88 4 134c0 3 -2 4 -6 4c-57 -21 -164 -55 -203 -61c-7 -1 -10 -3 -15 -14c-12 -27 -16 -51 -16 -70c0 -44 3 -48 3 -56c0 -2 -2 -4 -5 -6c-13 -9 -24 -22 -38 -22
c-3 0 -13 5 -19 9c-22 14 -28 26 -28 68c0 39 13 84 13 87s-2 5 -6 7c-24 13 -32 18 -32 31c0 22 12 53 15 55c4 3 8 4 11 4c16 0 30 -17 43 -17c3 0 5 1 12 14c78 145 162 286 272 451c16 24 18 25 22 25c11 0 41 12 64 12c13 0 32 -4 34 -9c3 -10 8 -8 8 -16
c0 -9 -15 -89 -15 -95c0 -10 -1 -20 -3 -33c-12 -76 -22 -241 -22 -245c0 -3 0 -6 6 -6c7 0 23 4 52 4c27 0 51 -7 61 -19c5 -6 6 -8 6 -11s-1 -8 -4 -13c-12 -20 -34 -26 -72 -26c-16 0 -33 -3 -44 -10c-9 -6 -10 -7 -11 -20l-5 -100c-1 -13 -1 -48 -1 -63
c0 -81 20 -104 20 -109zM365 267c18 141 24 223 24 268c0 15 -1 16 -3 16s-4 0 -9 -8c-76 -122 -130 -214 -180 -309c-10 -19 -12 -24 -12 -26c0 -3 2 -4 6 -4c11 0 68 16 100 28c37 14 63 22 67 24c5 2 6 3 7 11zM425 773c-13 9 -44 24 -66 33c-10 4 -12 15 -12 33
c0 12 3 18 11 26c7 7 17 12 24 12c6 0 10 -3 14 -3c5 0 9 -6 55 -38l102 -70c16 -11 26 -20 26 -25c0 -7 -3 -11 -5 -17c-2 -7 -2 -12 -3 -16c-2 -6 -8 -10 -13 -10c-13 0 -19 1 -31 9z" />
    <glyph glyph-name="Aacute" unicode="&#xc1;" horiz-adv-x="510" 
d="M460 -73c0 -12 -12 -19 -20 -25c-5 -4 -7 -4 -11 -4c-16 0 -38 5 -51 18s-19 78 -19 127c0 45 4 88 4 134c0 3 -2 4 -6 4c-57 -21 -164 -55 -203 -61c-7 -1 -10 -3 -15 -14c-12 -27 -16 -51 -16 -70c0 -44 3 -48 3 -56c0 -2 -2 -4 -5 -6c-13 -9 -24 -22 -38 -22
c-3 0 -13 5 -19 9c-22 14 -28 26 -28 68c0 39 13 84 13 87s-2 5 -6 7c-24 13 -32 18 -32 31c0 22 12 53 15 55c4 3 8 4 11 4c16 0 30 -17 43 -17c3 0 5 1 12 14c78 145 162 286 272 451c16 24 18 25 22 25c11 0 41 12 64 12c13 0 32 -4 34 -9c3 -10 8 -8 8 -16
c0 -9 -15 -89 -15 -95c0 -10 -1 -20 -3 -33c-12 -76 -22 -241 -22 -245c0 -3 0 -6 6 -6c7 0 23 4 52 4c27 0 51 -7 61 -19c5 -6 6 -8 6 -11s-1 -8 -4 -13c-12 -20 -34 -26 -72 -26c-16 0 -33 -3 -44 -10c-9 -6 -10 -7 -11 -20l-5 -100c-1 -13 -1 -48 -1 -63
c0 -81 20 -104 20 -109zM365 267c18 141 24 223 24 268c0 15 -1 16 -3 16s-4 0 -9 -8c-76 -122 -130 -214 -180 -309c-10 -19 -12 -24 -12 -26c0 -3 2 -4 6 -4c11 0 68 16 100 28c37 14 63 22 67 24c5 2 6 3 7 11zM438 832c15 6 62 25 77 35c3 2 10 3 14 3c8 0 13 -2 19 -8
c9 -9 11 -15 11 -28c0 -16 -1 -21 -5 -26c-9 -11 -24 -17 -72 -32l-118 -37c-7 -2 -13 -3 -20 -3c-5 0 -9 1 -11 2c-6 4 -11 8 -15 14s-6 8 -9 11c-2 2 -3 6 -3 8c0 4 1 9 5 14c3 4 10 5 13 5c4 0 12 3 25 8z" />
    <glyph glyph-name="Acircumflex" unicode="&#xc2;" horiz-adv-x="510" 
d="M460 -73c0 -12 -12 -19 -20 -25c-5 -4 -7 -4 -11 -4c-16 0 -38 5 -51 18s-19 78 -19 127c0 45 4 88 4 134c0 3 -2 4 -6 4c-57 -21 -164 -55 -203 -61c-7 -1 -10 -3 -15 -14c-12 -27 -16 -51 -16 -70c0 -44 3 -48 3 -56c0 -2 -2 -4 -5 -6c-13 -9 -24 -22 -38 -22
c-3 0 -13 5 -19 9c-22 14 -28 26 -28 68c0 39 13 84 13 87s-2 5 -6 7c-24 13 -32 18 -32 31c0 22 12 53 15 55c4 3 8 4 11 4c16 0 30 -17 43 -17c3 0 5 1 12 14c78 145 162 286 272 451c16 24 18 25 22 25c11 0 41 12 64 12c13 0 32 -4 34 -9c3 -10 8 -8 8 -16
c0 -9 -15 -89 -15 -95c0 -10 -1 -20 -3 -33c-12 -76 -22 -241 -22 -245c0 -3 0 -6 6 -6c7 0 23 4 52 4c27 0 51 -7 61 -19c5 -6 6 -8 6 -11s-1 -8 -4 -13c-12 -20 -34 -26 -72 -26c-16 0 -33 -3 -44 -10c-9 -6 -10 -7 -11 -20l-5 -100c-1 -13 -1 -48 -1 -63
c0 -81 20 -104 20 -109zM365 267c18 141 24 223 24 268c0 15 -1 16 -3 16s-4 0 -9 -8c-76 -122 -130 -214 -180 -309c-10 -19 -12 -24 -12 -26c0 -3 2 -4 6 -4c11 0 68 16 100 28c37 14 63 22 67 24c5 2 6 3 7 11zM527 841l60 -103c9 -15 11 -20 11 -25
c0 -10 -9 -12 -14 -19c-6 -9 -8 -11 -18 -11c-3 0 -13 6 -18 14l-63 86c-3 5 -6 6 -8 6s-3 0 -10 -3c-79 -33 -97 -44 -105 -51c-1 -1 -4 -1 -5 -1c-12 0 -18 9 -24 12c-5 3 -5 9 -5 24c0 11 0 17 2 21c4 8 7 8 9 11c2 4 9 9 55 25l89 31c6 2 10 3 13 3c10 0 17 -3 19 -7
c3 -6 6 -2 12 -13z" />
    <glyph glyph-name="Atilde" unicode="&#xc3;" horiz-adv-x="510" 
d="M460 -73c0 -12 -12 -19 -20 -25c-5 -4 -7 -4 -11 -4c-16 0 -38 5 -51 18s-19 78 -19 127c0 45 4 88 4 134c0 3 -2 4 -6 4c-57 -21 -164 -55 -203 -61c-7 -1 -10 -3 -15 -14c-12 -27 -16 -51 -16 -70c0 -44 3 -48 3 -56c0 -2 -2 -4 -5 -6c-13 -9 -24 -22 -38 -22
c-3 0 -13 5 -19 9c-22 14 -28 26 -28 68c0 39 13 84 13 87s-2 5 -6 7c-24 13 -32 18 -32 31c0 22 12 53 15 55c4 3 8 4 11 4c16 0 30 -17 43 -17c3 0 5 1 12 14c78 145 162 286 272 451c16 24 18 25 22 25c11 0 41 12 64 12c13 0 32 -4 34 -9c3 -10 8 -8 8 -16
c0 -9 -15 -89 -15 -95c0 -10 -1 -20 -3 -33c-12 -76 -22 -241 -22 -245c0 -3 0 -6 6 -6c7 0 23 4 52 4c27 0 51 -7 61 -19c5 -6 6 -8 6 -11s-1 -8 -4 -13c-12 -20 -34 -26 -72 -26c-16 0 -33 -3 -44 -10c-9 -6 -10 -7 -11 -20l-5 -100c-1 -13 -1 -48 -1 -63
c0 -81 20 -104 20 -109zM365 267c18 141 24 223 24 268c0 15 -1 16 -3 16s-4 0 -9 -8c-76 -122 -130 -214 -180 -309c-10 -19 -12 -24 -12 -26c0 -3 2 -4 6 -4c11 0 68 16 100 28c37 14 63 22 67 24c5 2 6 3 7 11zM333 785c0 10 -8 26 -8 37c0 3 3 12 9 14l63 23
c24 9 30 9 45 9c19 0 30 -15 48 -42c21 -31 24 -35 41 -35c6 0 72 24 80 24c12 0 19 -10 20 -19c1 -8 4 -10 4 -21c0 -5 -3 -7 -8 -10c-28 -18 -71 -45 -98 -45c-21 0 -35 4 -53 18c-19 15 -32 47 -41 53c-3 2 -6 3 -9 3c-8 0 -21 -4 -49 -21c-5 -3 -8 -3 -10 -3
c-16 0 -34 4 -34 15z" />
    <glyph glyph-name="Adieresis" unicode="&#xc4;" horiz-adv-x="510" 
d="M460 -73c0 -12 -12 -19 -20 -25c-5 -4 -7 -4 -11 -4c-16 0 -38 5 -51 18s-19 78 -19 127c0 45 4 88 4 134c0 3 -2 4 -6 4c-57 -21 -164 -55 -203 -61c-7 -1 -10 -3 -15 -14c-12 -27 -16 -51 -16 -70c0 -44 3 -48 3 -56c0 -2 -2 -4 -5 -6c-13 -9 -24 -22 -38 -22
c-3 0 -13 5 -19 9c-22 14 -28 26 -28 68c0 39 13 84 13 87s-2 5 -6 7c-24 13 -32 18 -32 31c0 22 12 53 15 55c4 3 8 4 11 4c16 0 30 -17 43 -17c3 0 5 1 12 14c78 145 162 286 272 451c16 24 18 25 22 25c11 0 41 12 64 12c13 0 32 -4 34 -9c3 -10 8 -8 8 -16
c0 -9 -15 -89 -15 -95c0 -10 -1 -20 -3 -33c-12 -76 -22 -241 -22 -245c0 -3 0 -6 6 -6c7 0 23 4 52 4c27 0 51 -7 61 -19c5 -6 6 -8 6 -11s-1 -8 -4 -13c-12 -20 -34 -26 -72 -26c-16 0 -33 -3 -44 -10c-9 -6 -10 -7 -11 -20l-5 -100c-1 -13 -1 -48 -1 -63
c0 -81 20 -104 20 -109zM365 267c18 141 24 223 24 268c0 15 -1 16 -3 16s-4 0 -9 -8c-76 -122 -130 -214 -180 -309c-10 -19 -12 -24 -12 -26c0 -3 2 -4 6 -4c11 0 68 16 100 28c37 14 63 22 67 24c5 2 6 3 7 11zM388 826c6 -11 11 -25 11 -32c0 -25 -22 -42 -23 -49
c-1 -11 -28 -17 -39 -17c-3 0 -12 0 -15 2c-12 8 -13 16 -20 23c-2 2 -2 12 -2 29c0 7 8 31 13 41c7 13 19 16 35 16c11 0 33 -1 40 -13zM603 780c2 -9 11 -21 11 -32c0 -8 0 -10 -2 -16c-5 -14 -16 -31 -25 -36c-6 -3 -22 -4 -29 -4c-11 0 -20 6 -24 15
c-6 14 -21 23 -21 43c0 8 11 49 31 49c3 0 13 -1 20 -1c17 0 36 -6 39 -18z" />
    <glyph glyph-name="Aring" unicode="&#xc5;" horiz-adv-x="510" 
d="M460 -73c0 -12 -12 -19 -20 -25c-5 -4 -7 -4 -11 -4c-16 0 -38 5 -51 18s-19 78 -19 127c0 45 4 88 4 134c0 3 -2 4 -6 4c-57 -21 -164 -55 -203 -61c-7 -1 -10 -3 -15 -14c-12 -27 -16 -51 -16 -70c0 -44 3 -48 3 -56c0 -2 -2 -4 -5 -6c-13 -9 -24 -22 -38 -22
c-3 0 -13 5 -19 9c-22 14 -28 26 -28 68c0 39 13 84 13 87s-2 5 -6 7c-24 13 -32 18 -32 31c0 22 12 53 15 55c4 3 8 4 11 4c16 0 30 -17 43 -17c3 0 5 1 12 14c78 145 152 251 254 421c15 25 18 26 22 26c11 0 33 11 72 11c13 0 36 -3 39 -9c3 -7 9 -8 9 -16
c0 -9 -14 -85 -14 -91c0 -10 0 -16 -2 -30c-11 -76 -20 -218 -20 -222c0 -3 0 -6 6 -6c7 0 23 4 52 4c27 0 51 -7 61 -19c5 -6 6 -8 6 -11s-1 -8 -4 -13c-12 -20 -34 -26 -72 -26c-16 0 -33 -3 -44 -10c-9 -6 -10 -7 -11 -20l-5 -100c-1 -13 -1 -48 -1 -63
c0 -81 20 -104 20 -109zM365 267c14 114 19 208 19 239c0 15 -1 16 -3 16s-4 -2 -15 -19c-33 -52 -119 -174 -169 -269c-10 -19 -12 -24 -12 -26c0 -3 2 -4 6 -4c11 0 68 16 100 28c37 14 63 22 67 24c5 2 6 3 7 11zM552 818c1 -8 2 -16 2 -24c0 -28 -8 -56 -26 -83
c-9 -13 -28 -29 -58 -29c-20 0 -53 6 -63 13c-27 19 -36 38 -36 57c0 30 33 95 63 106c11 4 24 7 37 7c8 0 18 -1 26 -3c30 -8 53 -32 55 -44zM488 817c-4 6 -10 9 -12 9c-9 0 -12 -2 -16 -7c-14 -20 -27 -41 -27 -63c0 -9 2 -18 7 -25c4 -6 10 -10 16 -10c5 0 11 1 14 6
c12 21 27 41 27 62c0 10 -4 20 -9 28z" />
    <glyph glyph-name="AE" unicode="&#xc6;" horiz-adv-x="736" 
d="M366 210c-61 -23 -136 -36 -192 -49c-10 -2 -14 -4 -20 -17c-22 -44 -44 -110 -44 -142c0 -9 -10 -7 -14 -19c-4 -11 -6 -14 -16 -14c-13 0 -40 3 -42 5c-13 12 -22 22 -22 36c0 38 21 85 38 124c3 7 5 11 5 14s-2 4 -11 4c-10 0 -29 4 -29 14c0 24 2 39 10 53
c11 20 12 20 27 20c7 0 24 -1 37 -1c16 0 17 2 28 19c101 155 257 319 323 404c10 13 12 15 17 15c8 0 45 12 66 12c12 0 30 -4 33 -8c6 -7 8 -10 8 -15c0 -13 -9 -35 -9 -40c0 -3 1 -6 8 -6c5 0 13 1 21 3l35 8c45 11 99 19 161 19c8 0 24 -4 31 -4c14 0 37 -23 55 -49
c4 -6 4 -12 4 -16c0 -9 -5 -14 -13 -20c-4 -3 -7 -5 -22 -5c-8 0 -18 11 -31 11c-17 0 -16 4 -32 4c-91 0 -161 -24 -230 -43c-11 -3 -13 -4 -16 -20c-10 -54 -28 -125 -33 -161c1 -3 2 -5 5 -5s6 1 16 5c17 7 91 24 143 24c17 0 41 -4 53 -13c11 -9 22 -27 22 -46
c0 -9 -10 -15 -22 -15c-8 0 -18 -3 -24 -3c-10 0 -13 3 -27 3c-12 0 -59 -9 -74 -14c-34 -11 -62 -21 -86 -30c-19 -7 -20 -8 -22 -18c-10 -50 -27 -162 -27 -202c0 -15 10 -26 16 -26c59 0 83 23 131 42c35 14 68 48 111 62c18 6 24 7 28 7c5 0 11 -2 18 -5
c24 -10 40 -17 40 -26c0 -6 0 -9 -1 -13s-31 -25 -50 -36c-77 -45 -168 -99 -311 -99c-26 0 -51 14 -64 33c-7 10 -9 23 -9 51c0 32 7 104 16 169c1 8 2 13 2 17s-1 5 -4 5c-2 0 -6 -1 -11 -3zM405 325c15 79 36 161 49 214c3 12 5 22 5 23c0 2 -1 3 -2 3
c-2 0 -6 -4 -16 -17c-72 -93 -152 -181 -212 -276c-7 -11 -8 -13 -8 -16c0 -1 1 -3 3 -3c1 0 4 0 31 7c41 11 82 24 125 40c22 8 22 9 25 25z" />
    <glyph glyph-name="Ccedilla" unicode="&#xc7;" horiz-adv-x="472" 
d="M214 -29c6 -6 9 -15 9 -33c0 -13 -7 -33 -17 -47c-32 -46 -62 -60 -91 -60c-20 0 -37 5 -59 13c-33 12 -42 25 -49 35c-5 7 -7 11 -7 16c0 7 5 13 15 23c3 3 6 4 8 4c4 0 7 -3 11 -3c6 0 18 -7 19 -14c1 -9 18 -20 36 -20c31 0 45 25 64 63c5 10 5 15 5 19
c0 8 -2 16 -6 19l-43 28c-20 13 -38 36 -42 54c-5 23 -5 43 -5 61c0 30 9 89 13 100c57 161 154 344 312 432c9 5 49 13 76 13c25 0 49 -9 53 -14c20 -25 51 -44 51 -68c0 -4 0 -21 -1 -23c-5 -12 -32 -72 -41 -102c-3 -10 -14 -19 -31 -19c-9 0 -23 3 -29 4
c-11 2 -33 19 -33 31c0 35 31 52 35 80c1 8 12 17 12 31c0 4 -3 13 -9 13c-69 0 -127 -78 -197 -174c-59 -81 -95 -173 -126 -267c-2 -6 -6 -22 -6 -58c0 -7 6 -33 12 -38c15 -12 28 -31 46 -31c10 0 43 11 59 19c58 29 103 78 152 120c5 4 10 8 20 8h19c13 0 24 -3 34 -19
c6 -9 7 -13 7 -16c0 -2 -1 -3 -36 -37c-84 -82 -140 -137 -228 -137c-11 0 -12 0 -12 -6z" />
    <glyph glyph-name="Egrave" unicode="&#xc8;" horiz-adv-x="508" 
d="M679 608c0 -15 -4 -19 -15 -19c-9 0 -16 -6 -25 -6c-8 0 -17 10 -36 10c-94 0 -181 -23 -252 -47c-6 -2 -9 -4 -12 -12c-18 -49 -36 -92 -55 -141c0 -3 1 -4 4 -4c45 16 97 39 147 39c24 0 49 -6 75 -20c11 -6 13 -22 13 -32c0 -12 -40 -20 -48 -20c-12 0 -24 3 -33 3
c-62 0 -120 -32 -171 -45c-8 -2 -26 -7 -30 -16c-43 -96 -76 -169 -76 -222c0 -16 14 -34 25 -34c18 0 53 7 81 19c30 13 52 21 68 28c53 23 102 72 162 72c4 0 8 0 10 -3c4 -6 31 -19 31 -31c0 -7 -2 -12 -6 -13c-7 -2 -14 -6 -22 -13c-11 -10 -21 -17 -27 -20
c-91 -49 -188 -101 -324 -101c-7 0 -58 13 -77 41c-7 10 -8 38 -8 51c0 82 37 153 63 226c-3 3 -13 14 -13 31c0 4 0 9 2 12c3 5 7 6 29 12c8 2 10 3 15 14c28 62 42 95 50 126c0 4 -1 5 -4 5c-6 0 -23 -8 -37 -8c-6 0 -13 1 -19 4c-14 7 -26 38 -26 50c0 5 2 6 6 7
c64 16 122 40 181 62c40 15 171 51 271 51c10 0 28 -3 34 -6c24 -12 49 -32 49 -50zM333 767c-13 9 -44 24 -66 33c-10 4 -12 15 -12 33c0 12 3 18 11 26c7 7 17 12 24 12c6 0 10 -3 14 -3c5 0 9 -6 55 -38l102 -70c16 -11 26 -20 26 -25c0 -7 -3 -11 -5 -17
c-2 -7 -2 -12 -3 -16c-2 -6 -8 -10 -13 -10c-13 0 -19 1 -31 9z" />
    <glyph glyph-name="Eacute" unicode="&#xc9;" horiz-adv-x="508" 
d="M679 608c0 -15 -4 -19 -15 -19c-9 0 -16 -6 -25 -6c-8 0 -17 10 -36 10c-94 0 -181 -23 -252 -47c-6 -2 -9 -4 -12 -12c-18 -49 -36 -92 -55 -141c0 -3 1 -4 4 -4c45 16 97 39 147 39c24 0 49 -6 75 -20c11 -6 13 -22 13 -32c0 -12 -40 -20 -48 -20c-12 0 -24 3 -33 3
c-62 0 -120 -32 -171 -45c-8 -2 -26 -7 -30 -16c-43 -96 -76 -169 -76 -222c0 -16 14 -34 25 -34c18 0 53 7 81 19c30 13 52 21 68 28c53 23 102 72 162 72c4 0 8 0 10 -3c4 -6 31 -19 31 -31c0 -7 -2 -12 -6 -13c-7 -2 -14 -6 -22 -13c-11 -10 -21 -17 -27 -20
c-91 -49 -188 -101 -324 -101c-7 0 -58 13 -77 41c-7 10 -8 38 -8 51c0 82 37 153 63 226c-3 3 -13 14 -13 31c0 4 0 9 2 12c3 5 7 6 29 12c8 2 10 3 15 14c28 62 42 95 50 126c0 4 -1 5 -4 5c-6 0 -23 -8 -37 -8c-6 0 -13 1 -19 4c-14 7 -26 38 -26 50c0 5 2 6 6 7
c64 16 122 40 181 62c40 15 171 51 271 51c10 0 28 -3 34 -6c24 -12 49 -32 49 -50zM423 773c24 17 48 34 66 52c2 2 7 7 21 7c4 0 7 -1 12 -4c11 -7 15 -12 18 -24c2 -10 3 -15 3 -19s-1 -11 -11 -20c-9 -8 -25 -19 -53 -36l-105 -65c-10 -6 -24 -9 -27 -9s-13 3 -21 11
c-6 6 -8 6 -12 8c-3 2 -5 7 -5 8c0 4 0 10 2 14s5 6 11 8c3 1 9 4 23 14z" />
    <glyph glyph-name="Ecircumflex" unicode="&#xca;" horiz-adv-x="508" 
d="M679 608c0 -15 -4 -19 -15 -19c-9 0 -16 -6 -25 -6c-8 0 -17 10 -36 10c-94 0 -181 -23 -252 -47c-6 -2 -9 -4 -12 -12c-18 -49 -36 -92 -55 -141c0 -3 1 -4 4 -4c45 16 97 39 147 39c24 0 49 -6 75 -20c11 -6 13 -22 13 -32c0 -12 -40 -20 -48 -20c-12 0 -24 3 -33 3
c-62 0 -120 -32 -171 -45c-8 -2 -26 -7 -30 -16c-43 -96 -76 -169 -76 -222c0 -16 14 -34 25 -34c18 0 53 7 81 19c30 13 52 21 68 28c53 23 102 72 162 72c4 0 8 0 10 -3c4 -6 31 -19 31 -31c0 -7 -2 -12 -6 -13c-7 -2 -14 -6 -22 -13c-11 -10 -21 -17 -27 -20
c-91 -49 -188 -101 -324 -101c-7 0 -58 13 -77 41c-7 10 -8 38 -8 51c0 82 37 153 63 226c-3 3 -13 14 -13 31c0 4 0 9 2 12c3 5 7 6 29 12c8 2 10 3 15 14c28 62 42 95 50 126c0 4 -1 5 -4 5c-6 0 -23 -8 -37 -8c-6 0 -13 1 -19 4c-14 7 -26 38 -26 50c0 5 2 6 6 7
c64 16 122 40 181 62c40 15 171 51 271 51c10 0 28 -3 34 -6c24 -12 49 -32 49 -50zM466 847l60 -89c10 -15 11 -18 11 -22c0 -10 -6 -14 -10 -21c-6 -10 -7 -11 -16 -11c-4 0 -12 3 -18 9l-55 58c-3 4 -7 5 -10 5c-2 0 -6 -2 -11 -5c-96 -70 -88 -66 -100 -78
c-5 -5 -10 -8 -14 -8c-14 0 -13 6 -19 7c-5 1 -17 12 -17 27c0 11 0 17 2 22c4 9 7 9 9 13c2 5 10 12 55 41l89 57c6 4 11 7 21 7c7 0 10 0 12 -2c3 -3 6 -2 11 -10z" />
    <glyph glyph-name="Edieresis" unicode="&#xcb;" horiz-adv-x="508" 
d="M679 608c0 -15 -4 -19 -15 -19c-9 0 -16 -6 -25 -6c-8 0 -17 10 -36 10c-94 0 -181 -23 -252 -47c-6 -2 -9 -4 -12 -12c-18 -49 -36 -92 -55 -141c0 -3 1 -4 4 -4c45 16 97 39 147 39c24 0 49 -6 75 -20c11 -6 13 -22 13 -32c0 -12 -40 -20 -48 -20c-12 0 -24 3 -33 3
c-62 0 -120 -32 -171 -45c-8 -2 -26 -7 -30 -16c-43 -96 -76 -169 -76 -222c0 -16 14 -34 25 -34c18 0 53 7 81 19c30 13 52 21 68 28c53 23 102 72 162 72c4 0 8 0 10 -3c4 -6 31 -19 31 -31c0 -7 -2 -12 -6 -13c-7 -2 -14 -6 -22 -13c-11 -10 -21 -17 -27 -20
c-91 -49 -188 -101 -324 -101c-7 0 -58 13 -77 41c-7 10 -8 38 -8 51c0 82 37 153 63 226c-3 3 -13 14 -13 31c0 4 0 9 2 12c3 5 7 6 29 12c8 2 10 3 15 14c28 62 42 95 50 126c0 4 -1 5 -4 5c-6 0 -23 -8 -37 -8c-6 0 -13 1 -19 4c-14 7 -26 38 -26 50c0 5 2 6 6 7
c64 16 122 40 181 62c40 15 171 51 271 51c10 0 28 -3 34 -6c24 -12 49 -32 49 -50zM351 820c6 -11 11 -25 11 -32c0 -25 -22 -42 -23 -49c-1 -11 -28 -17 -39 -17c-3 0 -12 0 -15 2c-12 8 -13 16 -20 23c-2 2 -2 12 -2 29c0 7 8 31 13 41c7 13 19 16 35 16
c11 0 33 -1 40 -13zM552 805c2 -9 11 -21 11 -32c0 -8 0 -10 -2 -16c-5 -14 -16 -31 -25 -36c-6 -3 -22 -4 -29 -4c-11 0 -20 6 -24 15c-6 14 -21 23 -21 43c0 8 11 49 31 49c3 0 13 -1 20 -1c17 0 36 -6 39 -18z" />
    <glyph glyph-name="Igrave" unicode="&#xcc;" horiz-adv-x="254" 
d="M352 609c0 -34 -6 -45 -30 -69c-4 -4 -6 -6 -13 -24c-57 -146 -104 -297 -156 -453c-1 -3 -2 -6 -2 -10c0 -5 2 -9 2 -15c0 -16 -5 -33 -19 -61c-2 -4 -9 -4 -13 -4c-5 0 -9 -5 -12 -10s-7 -8 -9 -8c-8 0 -8 10 -17 10c-12 0 -26 15 -31 15c-4 0 -6 3 -6 6
c0 5 10 59 19 75c4 7 6 12 9 24c39 158 92 290 141 443c9 28 20 30 40 98c3 10 18 12 40 12c20 0 57 -13 57 -29zM263 743c-13 9 -44 24 -66 33c-10 4 -12 15 -12 33c0 12 3 18 11 26c7 7 17 12 24 12c6 0 10 -3 14 -3c5 0 9 -6 55 -38l102 -70c16 -11 26 -20 26 -25
c0 -7 -3 -11 -5 -17c-2 -7 -2 -12 -3 -16c-2 -6 -8 -10 -13 -10c-13 0 -19 1 -31 9z" />
    <glyph glyph-name="Iacute" unicode="&#xcd;" horiz-adv-x="254" 
d="M352 609c0 -34 -6 -45 -30 -69c-4 -4 -6 -6 -13 -24c-57 -146 -104 -297 -156 -453c-1 -3 -2 -6 -2 -10c0 -5 2 -9 2 -15c0 -16 -5 -33 -19 -61c-2 -4 -9 -4 -13 -4c-5 0 -9 -5 -12 -10s-7 -8 -9 -8c-8 0 -8 10 -17 10c-12 0 -26 15 -31 15c-4 0 -6 3 -6 6
c0 5 10 59 19 75c4 7 6 12 9 24c39 158 92 290 141 443c9 28 20 30 40 98c3 10 18 12 40 12c20 0 57 -13 57 -29zM402 786c15 6 62 25 77 35c3 2 10 3 14 3c8 0 13 -2 19 -8c9 -9 11 -15 11 -28c0 -16 -1 -21 -5 -26c-9 -11 -24 -17 -72 -32l-118 -37c-7 -2 -13 -3 -20 -3
c-5 0 -9 1 -11 2c-6 4 -11 8 -15 14s-6 8 -9 11c-2 2 -3 6 -3 8c0 4 1 9 5 14c3 4 10 5 13 5c4 0 12 3 25 8z" />
    <glyph glyph-name="Icircumflex" unicode="&#xce;" horiz-adv-x="254" 
d="M352 609c0 -34 -6 -45 -30 -69c-4 -4 -6 -6 -13 -24c-57 -146 -104 -297 -156 -453c-1 -3 -2 -6 -2 -10c0 -5 2 -9 2 -15c0 -16 -5 -33 -19 -61c-2 -4 -9 -4 -13 -4c-5 0 -9 -5 -12 -10s-7 -8 -9 -8c-8 0 -8 10 -17 10c-12 0 -26 15 -31 15c-4 0 -6 3 -6 6
c0 5 10 59 19 75c4 7 6 12 9 24c39 158 92 290 141 443c9 28 20 30 40 98c3 10 18 12 40 12c20 0 57 -13 57 -29zM413 821l60 -103c9 -15 11 -20 11 -25c0 -10 -9 -12 -14 -19c-6 -9 -8 -11 -18 -11c-3 0 -13 6 -18 14l-63 86c-3 5 -6 6 -8 6s-3 0 -10 -3
c-79 -33 -97 -44 -105 -51c-1 -1 -4 -1 -5 -1c-12 0 -18 9 -24 12c-5 3 -5 9 -5 24c0 11 0 17 2 21c4 8 7 8 9 11c2 4 9 9 55 25l89 31c6 2 10 3 13 3c10 0 17 -3 19 -7c3 -6 6 -2 12 -13z" />
    <glyph glyph-name="Idieresis" unicode="&#xcf;" horiz-adv-x="254" 
d="M352 609c0 -34 -6 -45 -30 -69c-4 -4 -6 -6 -13 -24c-57 -146 -104 -297 -156 -453c-1 -3 -2 -6 -2 -10c0 -5 2 -9 2 -15c0 -16 -5 -33 -19 -61c-2 -4 -9 -4 -13 -4c-5 0 -9 -5 -12 -10s-7 -8 -9 -8c-8 0 -8 10 -17 10c-12 0 -26 15 -31 15c-4 0 -6 3 -6 6
c0 5 10 59 19 75c4 7 6 12 9 24c39 158 92 290 141 443c9 28 20 30 40 98c3 10 18 12 40 12c20 0 57 -13 57 -29zM296 816c6 -11 11 -25 11 -32c0 -25 -22 -42 -23 -49c-1 -11 -28 -17 -39 -17c-3 0 -12 0 -15 2c-12 8 -13 16 -20 23c-2 2 -2 12 -2 29c0 7 8 31 13 41
c7 13 19 16 35 16c11 0 33 -1 40 -13zM481 758c2 -9 11 -21 11 -32c0 -8 0 -10 -2 -16c-5 -14 -16 -31 -25 -36c-6 -3 -22 -4 -29 -4c-11 0 -20 6 -24 15c-6 14 -21 23 -21 43c0 8 11 49 31 49c3 0 13 -1 20 -1c17 0 36 -6 39 -18z" />
    <glyph glyph-name="Eth" unicode="&#xd0;" horiz-adv-x="572" 
d="M234 457c0 4 -1 5 -4 5c-8 0 -31 -23 -48 -23c-9 0 -20 9 -20 22c0 47 1 52 71 100c56 38 138 74 211 74c29 0 69 -4 96 -23s55 -32 80 -65c13 -17 20 -33 20 -82c0 -29 -10 -63 -27 -95c-8 -15 -8 -22 -18 -42c-72 -150 -155 -298 -299 -351c-11 -4 -22 -4 -32 -4
c-25 0 -52 7 -75 13c-1 -9 -12 -9 -27 -9c-17 0 -45 19 -55 37c-35 15 -85 37 -85 71c0 13 9 17 20 17c9 0 21 -3 37 -3c12 0 19 -11 27 -11c3 0 5 0 6 3c12 53 29 108 45 157c0 3 -1 4 -4 4c-21 0 -29 -6 -48 -6c-7 0 -13 4 -13 12c0 39 15 54 25 63c8 8 21 10 63 16
c7 1 9 4 11 8c14 37 28 76 43 112zM281 347c19 0 63 11 78 11c7 0 11 -1 12 -3c4 -6 9 -18 9 -30c0 -5 -1 -10 -3 -15c-6 -16 -13 -20 -17 -29c-3 -6 -17 -8 -30 -10c-8 -1 -67 -6 -74 -6c-6 0 -9 -2 -12 -10c-25 -67 -44 -134 -54 -204c0 -6 0 -7 6 -9s21 -3 31 -3
c37 0 72 18 96 42c95 95 158 206 207 326c9 22 23 57 23 81c0 5 -4 40 -12 52c-18 26 -42 35 -67 35c-38 0 -77 -21 -106 -28c3 -3 4 -6 4 -7c0 -18 -11 -14 -19 -32c-24 -53 -49 -107 -72 -161z" />
    <glyph glyph-name="Ntilde" unicode="&#xd1;" horiz-adv-x="598" 
d="M426 -22c-9 0 -15 1 -36 11c-37 18 -44 33 -52 59c-36 118 -50 305 -70 385c-3 12 -4 14 -8 14c-3 0 -5 -3 -8 -14c-20 -74 -91 -270 -104 -406c-2 -21 -3 -34 -3 -36c0 -10 -16 -18 -37 -18c-31 0 -27 6 -39 12c-8 4 -15 9 -15 15c0 44 103 369 110 397l9 34
c17 66 28 107 41 162c4 17 20 7 20 18c0 10 -15 23 -15 57c0 4 1 7 10 11c10 4 35 9 60 9c5 0 11 -5 14 -14c65 -194 50 -384 103 -580c3 -11 5 -15 8 -15c2 0 3 2 9 15c54 117 88 242 127 369c7 23 12 31 18 55c9 35 7 73 17 108c5 18 6 21 21 21c14 0 30 -6 41 -6
c14 0 36 -28 36 -33c0 -13 -2 -22 -11 -38c-6 -11 -7 -20 -14 -40c-48 -136 -89 -295 -171 -500c-8 -20 -9 -21 -14 -26c-20 -20 -31 -26 -47 -26zM319 749c0 10 -8 26 -8 37c0 3 3 12 9 14l63 23c24 9 30 9 45 9c19 0 30 -15 48 -42c21 -31 24 -35 41 -35c6 0 72 24 80 24
c12 0 19 -10 20 -19c1 -8 4 -10 4 -21c0 -5 -3 -7 -8 -10c-28 -18 -71 -45 -98 -45c-21 0 -35 4 -53 18c-19 15 -32 47 -41 53c-3 2 -6 3 -9 3c-8 0 -21 -4 -49 -21c-5 -3 -8 -3 -10 -3c-16 0 -34 4 -34 15z" />
    <glyph glyph-name="Ograve" unicode="&#xd2;" horiz-adv-x="490" 
d="M448 601c38 -34 71 -90 71 -175c0 -21 0 -32 -10 -72c-29 -119 -67 -234 -133 -317c-32 -40 -84 -61 -139 -61c-21 0 -37 2 -60 9c-16 5 -42 26 -57 48c-23 34 -32 63 -32 114c0 138 47 243 121 351c36 53 71 94 117 122c13 8 19 11 26 11c6 0 13 -2 22 -6
c11 -5 41 -16 52 -16c7 0 14 -1 22 -8zM381 546c0 6 -4 10 -7 10s-13 -1 -41 -30c-65 -67 -118 -154 -147 -247c-4 -13 -12 -33 -12 -62c0 -7 -5 -47 -5 -69c0 -43 13 -75 34 -96c4 -4 21 -9 33 -9c25 0 55 16 69 37c105 159 125 332 125 361c0 20 0 25 -1 33
c-5 31 -17 56 -42 64c-3 1 -6 3 -6 8zM373 727c-13 9 -44 24 -66 33c-10 4 -12 15 -12 33c0 12 3 18 11 26c7 7 17 12 24 12c6 0 10 -3 14 -3c5 0 9 -6 55 -38l102 -70c16 -11 26 -20 26 -25c0 -7 -3 -11 -5 -17c-2 -7 -2 -12 -3 -16c-2 -6 -8 -10 -13 -10
c-13 0 -19 1 -31 9z" />
    <glyph glyph-name="Oacute" unicode="&#xd3;" horiz-adv-x="490" 
d="M448 601c38 -34 71 -90 71 -175c0 -21 0 -32 -10 -72c-29 -119 -67 -234 -133 -317c-32 -40 -84 -61 -139 -61c-21 0 -37 2 -60 9c-16 5 -42 26 -57 48c-23 34 -32 63 -32 114c0 138 47 243 121 351c36 53 71 94 117 122c13 8 19 11 26 11c6 0 13 -2 22 -6
c11 -5 41 -16 52 -16c7 0 14 -1 22 -8zM381 546c0 6 -4 10 -7 10s-13 -1 -41 -30c-65 -67 -118 -154 -147 -247c-4 -13 -12 -33 -12 -62c0 -7 -5 -47 -5 -69c0 -43 13 -75 34 -96c4 -4 21 -9 33 -9c25 0 55 16 69 37c105 159 125 332 125 361c0 20 0 25 -1 33
c-5 31 -17 56 -42 64c-3 1 -6 3 -6 8zM450 776c15 6 62 25 77 35c3 2 10 3 14 3c8 0 13 -2 19 -8c9 -9 11 -15 11 -28c0 -16 -1 -21 -5 -26c-9 -11 -24 -17 -72 -32l-118 -37c-7 -2 -13 -3 -20 -3c-5 0 -9 1 -11 2c-6 4 -11 8 -15 14s-6 8 -9 11c-2 2 -3 6 -3 8
c0 4 1 9 5 14c3 4 10 5 13 5c4 0 12 3 25 8z" />
    <glyph glyph-name="Ocircumflex" unicode="&#xd4;" horiz-adv-x="490" 
d="M448 601c38 -34 71 -90 71 -175c0 -21 0 -32 -10 -72c-29 -119 -67 -234 -133 -317c-32 -40 -84 -61 -139 -61c-21 0 -37 2 -60 9c-16 5 -42 26 -57 48c-23 34 -32 63 -32 114c0 138 47 243 121 351c36 53 71 94 117 122c13 8 19 11 26 11c6 0 13 -2 22 -6
c11 -5 41 -16 52 -16c7 0 14 -1 22 -8zM381 546c0 6 -4 10 -7 10s-13 -1 -41 -30c-65 -67 -118 -154 -147 -247c-4 -13 -12 -33 -12 -62c0 -7 -5 -47 -5 -69c0 -43 13 -75 34 -96c4 -4 21 -9 33 -9c25 0 55 16 69 37c105 159 125 332 125 361c0 20 0 25 -1 33
c-5 31 -17 56 -42 64c-3 1 -6 3 -6 8zM497 801l60 -103c9 -15 11 -20 11 -25c0 -10 -9 -12 -14 -19c-6 -9 -8 -11 -18 -11c-3 0 -13 6 -18 14l-63 86c-3 5 -6 6 -8 6s-3 0 -10 -3c-79 -33 -97 -44 -105 -51c-1 -1 -4 -1 -5 -1c-12 0 -18 9 -24 12c-5 3 -5 9 -5 24
c0 11 0 17 2 21c4 8 7 8 9 11c2 4 9 9 55 25l89 31c6 2 10 3 13 3c10 0 17 -3 19 -7c3 -6 6 -2 12 -13z" />
    <glyph glyph-name="Otilde" unicode="&#xd5;" horiz-adv-x="490" 
d="M448 601c38 -34 71 -90 71 -175c0 -21 0 -32 -10 -72c-29 -119 -67 -234 -133 -317c-32 -40 -84 -61 -139 -61c-21 0 -37 2 -60 9c-16 5 -42 26 -57 48c-23 34 -32 63 -32 114c0 138 47 243 121 351c36 53 71 94 117 122c13 8 19 11 26 11c6 0 13 -2 22 -6
c11 -5 41 -16 52 -16c7 0 14 -1 22 -8zM381 546c0 6 -4 10 -7 10s-13 -1 -41 -30c-65 -67 -118 -154 -147 -247c-4 -13 -12 -33 -12 -62c0 -7 -5 -47 -5 -69c0 -43 13 -75 34 -96c4 -4 21 -9 33 -9c25 0 55 16 69 37c105 159 125 332 125 361c0 20 0 25 -1 33
c-5 31 -17 56 -42 64c-3 1 -6 3 -6 8zM297 727c0 10 -8 26 -8 37c0 3 3 12 9 14l63 23c24 9 30 9 45 9c19 0 30 -15 48 -42c21 -31 24 -35 41 -35c6 0 72 24 80 24c12 0 19 -10 20 -19c1 -8 4 -10 4 -21c0 -5 -3 -7 -8 -10c-28 -18 -71 -45 -98 -45c-21 0 -35 4 -53 18
c-19 15 -32 47 -41 53c-3 2 -6 3 -9 3c-8 0 -21 -4 -49 -21c-5 -3 -8 -3 -10 -3c-16 0 -34 4 -34 15z" />
    <glyph glyph-name="Odieresis" unicode="&#xd6;" horiz-adv-x="490" 
d="M448 601c38 -34 71 -90 71 -175c0 -21 0 -32 -10 -72c-29 -119 -67 -234 -133 -317c-32 -40 -84 -61 -139 -61c-21 0 -37 2 -60 9c-16 5 -42 26 -57 48c-23 34 -32 63 -32 114c0 138 47 243 121 351c36 53 71 94 117 122c13 8 19 11 26 11c6 0 13 -2 22 -6
c11 -5 41 -16 52 -16c7 0 14 -1 22 -8zM381 546c0 6 -4 10 -7 10s-13 -1 -41 -30c-65 -67 -118 -154 -147 -247c-4 -13 -12 -33 -12 -62c0 -7 -5 -47 -5 -69c0 -43 13 -75 34 -96c4 -4 21 -9 33 -9c25 0 55 16 69 37c105 159 125 332 125 361c0 20 0 25 -1 33
c-5 31 -17 56 -42 64c-3 1 -6 3 -6 8zM367 786c6 -11 11 -25 11 -32c0 -25 -22 -42 -23 -49c-1 -11 -28 -17 -39 -17c-3 0 -12 0 -15 2c-12 8 -13 16 -20 23c-2 2 -2 12 -2 29c0 7 8 31 13 41c7 13 19 16 35 16c11 0 33 -1 40 -13zM564 722c2 -9 11 -21 11 -32
c0 -8 -1 -11 -2 -16c-6 -13 -14 -30 -25 -36c-6 -3 -22 -4 -29 -4c-11 0 -19 4 -24 15c-6 14 -21 23 -21 43c0 8 11 49 31 49c3 0 13 -1 20 -1c17 0 36 -6 39 -18z" />
    <glyph glyph-name="multiply" unicode="&#xd7;" horiz-adv-x="590" 
d="M558 462c17 0 27 -20 28 -29c0 -3 0 -5 -2 -8c-18 -23 -46 -42 -83 -66c-46 -30 -89 -70 -140 -113c-4 -3 -6 -5 -6 -9c0 -3 2 -7 4 -13c24 -62 55 -117 64 -131c8 -12 27 -36 27 -43c0 -6 -4 -10 -10 -14c-5 -4 -14 -12 -21 -12c-19 0 -21 1 -29 6c-10 6 -19 -2 -26 9
c-31 48 -44 80 -69 142c-1 3 -3 7 -5 7s-3 0 -10 -6c-48 -44 -94 -75 -118 -126c-7 -15 -15 -19 -25 -19c-7 0 -6 2 -18 2c-14 0 -19 13 -25 19c-11 11 -16 15 -16 20c0 18 15 40 44 66c33 30 73 64 127 112c9 8 13 12 13 17c0 2 -1 7 -4 14c-6 15 -10 28 -16 50
c-26 89 -35 98 -36 117c0 8 2 12 3 14c2 3 4 5 10 8s13 3 23 3c22 0 24 -1 29 -3c6 -2 6 -8 12 -10c9 -3 13 -13 13 -19c0 -18 4 -41 30 -126c1 -1 2 -2 3 -2c2 0 3 0 11 7c69 60 113 83 158 134c3 3 10 7 25 7c8 0 21 -5 35 -5z" />
    <glyph glyph-name="Oslash" unicode="&#xd8;" horiz-adv-x="540" 
d="M533 576c9 9 17 14 27 14c4 0 23 -4 28 -16c3 -7 11 -11 11 -25c0 -9 0 -13 -15 -24l-23 -17c-8 -6 -9 -7 -9 -11c0 -2 1 -6 3 -15c2 -10 6 -46 6 -73c0 -29 -33 -222 -139 -361c-32 -42 -73 -75 -157 -75c-37 0 -87 4 -118 45c-3 4 -5 5 -6 5s-2 0 -6 -5
c-7 -9 -13 -13 -19 -16c-4 -2 -4 -6 -15 -6c-4 0 -10 1 -17 3c-3 1 -6 9 -10 14c-6 7 -10 13 -10 23c0 6 18 24 36 42c4 4 6 6 6 9c0 2 0 3 -2 9c-3 9 -7 41 -7 78c0 115 45 219 107 317c26 41 90 122 139 134c12 3 27 6 39 6c25 0 15 -10 46 -10c22 0 11 3 27 3
c12 0 39 -18 62 -48c3 -4 5 -7 7 -7s4 2 9 7zM464 410c-88 -99 -170 -203 -258 -307c-6 -7 -7 -9 -7 -12s1 -6 4 -11c8 -15 19 -28 28 -33c5 -3 14 -8 21 -8c44 0 70 8 91 40c50 77 100 176 123 265c3 11 12 47 12 74c0 2 -1 3 -2 3c-2 0 -4 -2 -12 -11zM465 515
c-11 19 -31 33 -42 34c-8 1 -20 0 -23 4c-8 10 -13 10 -17 10c-6 0 -17 -10 -24 -17c-73 -74 -127 -158 -157 -249c-10 -30 -18 -46 -18 -103c0 -8 0 -11 3 -11c2 0 9 7 23 24l243 284c9 11 14 16 14 18s-1 4 -2 6z" />
    <glyph glyph-name="Ugrave" unicode="&#xd9;" horiz-adv-x="600" 
d="M336 624c3 -6 5 -19 5 -26c0 -4 -6 -18 -9 -25c-60 -152 -139 -284 -160 -429c-2 -14 -4 -32 -4 -55c0 -12 2 -15 5 -15c8 0 23 4 39 20c184 184 292 337 343 420c11 18 6 17 24 46c6 10 24 29 29 29c4 0 14 -4 33 -4c4 0 8 -4 11 -9l14 -22c3 -5 6 -10 6 -14
s-2 -10 -7 -22c-16 -42 -46 -81 -62 -123c-49 -132 -72 -259 -72 -397c0 -22 1 -27 1 -30c0 -7 -6 -10 -14 -10c-15 0 -12 4 -23 7c-10 3 -21 10 -35 19c-8 5 -18 6 -18 19c0 6 1 14 5 21c3 5 4 8 5 16c8 69 9 137 24 196c2 8 3 12 3 16c0 3 -2 5 -5 5c-2 0 -5 -2 -8 -5
c-70 -81 -155 -180 -233 -248c-9 -8 -29 -16 -46 -16c-12 0 -32 6 -41 15c-19 19 -42 7 -55 32c-3 6 -5 35 -5 63c0 62 15 120 27 158c37 117 89 230 131 346c4 11 8 16 11 22c7 13 15 27 30 27c5 0 8 -4 28 -12c8 -3 19 -7 23 -15zM455 733c-13 9 -44 24 -66 33
c-10 4 -12 15 -12 33c0 12 3 18 11 26c7 7 17 12 24 12c6 0 10 -3 14 -3c5 0 9 -6 55 -38l102 -70c16 -11 26 -20 26 -25c0 -7 -3 -11 -5 -17c-2 -7 -2 -12 -3 -16c-2 -6 -8 -10 -13 -10c-13 0 -19 1 -31 9z" />
    <glyph glyph-name="Uacute" unicode="&#xda;" horiz-adv-x="600" 
d="M336 624c3 -6 5 -19 5 -26c0 -4 -6 -18 -9 -25c-60 -152 -139 -284 -160 -429c-2 -14 -4 -32 -4 -55c0 -12 2 -15 5 -15c8 0 23 4 39 20c184 184 292 337 343 420c11 18 6 17 24 46c6 10 24 29 29 29c4 0 14 -4 33 -4c4 0 8 -4 11 -9l14 -22c3 -5 6 -10 6 -14
s-2 -10 -7 -22c-16 -42 -46 -81 -62 -123c-49 -132 -72 -259 -72 -397c0 -22 1 -27 1 -30c0 -7 -6 -10 -14 -10c-15 0 -12 4 -23 7c-10 3 -21 10 -35 19c-8 5 -18 6 -18 19c0 6 1 14 5 21c3 5 4 8 5 16c8 69 9 137 24 196c2 8 3 12 3 16c0 3 -2 5 -5 5c-2 0 -5 -2 -8 -5
c-70 -81 -155 -180 -233 -248c-9 -8 -29 -16 -46 -16c-12 0 -32 6 -41 15c-19 19 -42 7 -55 32c-3 6 -5 35 -5 63c0 62 15 120 27 158c37 117 89 230 131 346c4 11 8 16 11 22c7 13 15 27 30 27c5 0 8 -4 28 -12c8 -3 19 -7 23 -15zM552 768c15 6 62 25 77 35c3 2 10 3 14 3
c8 0 13 -2 19 -8c9 -9 11 -15 11 -28c0 -16 -1 -21 -5 -26c-9 -11 -24 -17 -72 -32l-118 -37c-7 -2 -13 -3 -20 -3c-5 0 -9 1 -11 2c-6 4 -11 8 -15 14s-6 8 -9 11c-2 2 -3 6 -3 8c0 4 1 9 5 14c3 4 10 5 13 5c4 0 12 3 25 8z" />
    <glyph glyph-name="Ucircumflex" unicode="&#xdb;" horiz-adv-x="600" 
d="M336 624c3 -6 5 -19 5 -26c0 -4 -6 -18 -9 -25c-60 -152 -139 -284 -160 -429c-2 -14 -4 -32 -4 -55c0 -12 2 -15 5 -15c8 0 23 4 39 20c184 184 292 337 343 420c11 18 6 17 24 46c6 10 24 29 29 29c4 0 14 -4 33 -4c4 0 8 -4 11 -9l14 -22c3 -5 6 -10 6 -14
s-2 -10 -7 -22c-16 -42 -46 -81 -62 -123c-49 -132 -72 -259 -72 -397c0 -22 1 -27 1 -30c0 -7 -6 -10 -14 -10c-15 0 -12 4 -23 7c-10 3 -21 10 -35 19c-8 5 -18 6 -18 19c0 6 1 14 5 21c3 5 4 8 5 16c8 69 9 137 24 196c2 8 3 12 3 16c0 3 -2 5 -5 5c-2 0 -5 -2 -8 -5
c-70 -81 -155 -180 -233 -248c-9 -8 -29 -16 -46 -16c-12 0 -32 6 -41 15c-19 19 -42 7 -55 32c-3 6 -5 35 -5 63c0 62 15 120 27 158c37 117 89 230 131 346c4 11 8 16 11 22c7 13 15 27 30 27c5 0 8 -4 28 -12c8 -3 19 -7 23 -15zM565 819l60 -103c9 -15 11 -20 11 -25
c0 -10 -9 -12 -14 -19c-6 -9 -8 -11 -18 -11c-3 0 -13 6 -18 14l-63 86c-3 5 -6 6 -8 6s-3 0 -10 -3c-79 -33 -97 -44 -105 -51c-1 -1 -4 -1 -5 -1c-12 0 -18 9 -24 12c-5 3 -5 9 -5 24c0 11 0 17 2 21c4 8 7 8 9 11c2 4 9 9 55 25l89 31c6 2 10 3 13 3c10 0 17 -3 19 -7
c3 -6 6 -2 12 -13z" />
    <glyph glyph-name="Udieresis" unicode="&#xdc;" horiz-adv-x="600" 
d="M336 624c3 -6 5 -19 5 -26c0 -4 -6 -18 -9 -25c-60 -152 -139 -284 -160 -429c-2 -14 -4 -32 -4 -55c0 -12 2 -15 5 -15c8 0 23 4 39 20c184 184 292 337 343 420c11 18 6 17 24 46c6 10 24 29 29 29c4 0 14 -4 33 -4c4 0 8 -4 11 -9l14 -22c3 -5 6 -10 6 -14
s-2 -10 -7 -22c-16 -42 -46 -81 -62 -123c-49 -132 -72 -259 -72 -397c0 -22 1 -27 1 -30c0 -7 -6 -10 -14 -10c-15 0 -12 4 -23 7c-10 3 -21 10 -35 19c-8 5 -18 6 -18 19c0 6 1 14 5 21c3 5 4 8 5 16c8 69 9 137 24 196c2 8 3 12 3 16c0 3 -2 5 -5 5c-2 0 -5 -2 -8 -5
c-70 -81 -155 -180 -233 -248c-9 -8 -29 -16 -46 -16c-12 0 -32 6 -41 15c-19 19 -42 7 -55 32c-3 6 -5 35 -5 63c0 62 15 120 27 158c37 117 89 230 131 346c4 11 8 16 11 22c7 13 15 27 30 27c5 0 8 -4 28 -12c8 -3 19 -7 23 -15zM454 806c6 -11 11 -25 11 -32
c0 -25 -22 -42 -23 -49c-1 -11 -28 -17 -39 -17c-3 0 -12 0 -15 2c-12 8 -13 16 -20 23c-2 2 -2 12 -2 29c0 7 8 31 13 41c7 13 19 16 35 16c11 0 33 -1 40 -13zM639 748c2 -9 11 -21 11 -32c0 -8 0 -10 -2 -16c-5 -14 -16 -31 -25 -36c-6 -3 -22 -4 -29 -4
c-11 0 -20 6 -24 15c-6 14 -21 23 -21 43c0 8 11 49 31 49c3 0 13 -1 20 -1c17 0 36 -6 39 -18z" />
    <glyph glyph-name="Yacute" unicode="&#xdd;" horiz-adv-x="502" 
d="M257 668c6 -1 13 -18 13 -29c0 -28 -15 -34 -23 -72c-22 -106 -45 -235 -45 -320c0 -4 6 -10 19 -10c8 0 20 2 30 8c48 30 84 59 113 88c21 21 60 70 109 165c31 61 57 101 64 110c5 7 8 10 11 10c13 0 43 -5 60 -22c4 -4 11 -24 11 -29c0 -3 -1 -7 -6 -14
c-141 -198 -230 -480 -282 -864c-3 -20 -6 -24 -6 -30c0 -7 -1 -8 -6 -8c-6 0 -13 3 -26 5c-26 4 -44 13 -47 26c-1 5 -2 19 -2 30c0 44 14 81 22 118c4 17 7 38 11 60c21 113 57 235 92 352l-8 -9c-19 -21 -68 -65 -133 -65c-7 0 -42 17 -68 40c-25 22 -40 46 -40 58
c0 3 2 65 5 107c1 13 5 17 5 36c0 21 6 26 9 45c12 74 27 144 47 214c2 7 3 9 8 9c25 0 45 -6 63 -9zM474 762c15 6 62 25 77 35c3 2 10 3 14 3c8 0 13 -2 19 -8c9 -9 11 -15 11 -28c0 -16 -1 -21 -5 -26c-9 -11 -24 -17 -72 -32l-118 -37c-7 -2 -13 -3 -20 -3
c-5 0 -9 1 -11 2c-6 4 -11 8 -15 14s-6 8 -9 11c-2 2 -3 6 -3 8c0 4 1 9 5 14c3 4 10 5 13 5c4 0 12 3 25 8z" />
    <glyph glyph-name="Thorn" unicode="&#xde;" horiz-adv-x="500" 
d="M345 562c0 -2 1 -5 3 -5c4 0 8 2 16 5c45 16 90 30 136 30c37 0 50 -1 69 -18c18 -16 27 -37 27 -91c0 -31 -29 -89 -53 -128c-47 -78 -92 -129 -187 -204c-14 -11 -61 -19 -102 -19s-45 13 -66 29c-19 -66 -43 -143 -43 -166c0 -6 -3 -11 -9 -15c-8 -5 -16 -8 -24 -8
c-5 0 -17 1 -20 4c-13 16 -22 9 -35 24c-2 2 -2 6 -2 9c0 4 15 71 44 147c12 31 18 54 18 67c-8 8 -21 15 -21 27c0 5 1 10 4 11c10 4 25 30 47 30c14 39 22 55 31 88c-16 6 -26 18 -31 29c-2 4 -6 6 -6 11c0 12 12 25 27 36c17 13 36 22 55 34c26 59 47 119 76 177
c7 14 19 15 31 15c9 0 9 -7 30 -9c12 -1 24 -7 24 -18c0 -26 -12 -32 -14 -46c0 -3 -1 -9 -6 -17c-8 -12 -19 -24 -19 -29zM514 511c0 6 0 10 -25 10c-14 0 -18 0 -27 -2c-59 -13 -115 -35 -166 -73c-22 -58 -59 -135 -80 -206c37 -34 44 -40 58 -40c6 0 9 0 18 6
c66 44 121 107 165 172c24 36 57 96 57 133z" />
    <glyph glyph-name="germandbls" unicode="&#xdf;" horiz-adv-x="434" 
d="M370 360c2 0 9 1 16 1c35 0 52 -36 52 -78c0 -31 -16 -77 -37 -124c-37 -83 -79 -151 -165 -175c-11 -3 -20 -4 -30 -4c-25 0 -56 8 -95 42c-8 8 -9 8 -11 8s-5 -9 -13 -34c-28 -83 -72 -225 -78 -296c-1 -11 -14 -24 -28 -27c-13 -4 -25 -11 -29 -11c-12 0 -17 6 -25 12
c-5 2 -5 17 -5 37c0 34 20 68 29 101c3 12 8 20 13 41c11 50 102 300 138 394c26 69 65 162 86 214c6 14 16 10 27 32c13 25 45 71 82 107c40 39 71 59 111 59c29 0 42 -15 57 -20c16 -5 37 -12 37 -34c0 -14 -5 -23 -11 -36c-6 -15 0 -19 -41 -89c-31 -54 -58 -89 -72 -104
c-7 -9 -11 -14 -11 -15s1 -1 3 -1zM309 286c-27 -24 -22 -15 -42 -34c-29 -28 -56 -45 -74 -45c-12 0 -17 13 -22 13c-2 0 -4 -2 -6 -9c-9 -27 -20 -54 -31 -81c-5 -13 -12 -35 -12 -36c0 -2 1 -3 3 -3c4 0 5 3 21 3c9 0 12 0 31 -22c7 -8 7 -16 14 -22c6 -5 11 -8 22 -8
c10 0 24 3 35 14c36 33 60 69 82 125c18 45 23 70 23 80c0 18 -3 26 -8 32c-4 5 -8 6 -12 6c-8 0 -16 -5 -24 -13zM210 298l16 15c110 88 174 236 187 269c2 5 3 9 3 12s-3 3 -4 3c-2 0 -36 -8 -77 -57c-32 -37 -51 -66 -70 -113c-6 -16 -13 -27 -21 -27c-4 0 -7 -4 -16 -27
l-24 -64c-4 -12 -5 -15 -5 -16s1 -2 2 -2s4 2 9 7z" />
    <glyph glyph-name="agrave" unicode="&#xe0;" horiz-adv-x="468" 
d="M492 435c4 -10 13 -19 24 -19c5 0 20 -1 28 -13c2 -3 2 -4 2 -6c0 -4 -2 -8 -4 -11c-44 -60 -97 -135 -116 -212c-7 -28 -14 -58 -14 -89c0 -26 6 -52 21 -75c1 -2 2 -4 2 -6s-4 -12 -21 -14c-6 -1 -13 -4 -19 -4c-15 0 -37 7 -43 20c-13 29 -17 58 -17 86
c0 30 4 47 4 50c0 4 0 5 -4 5s-13 -7 -24 -18l-54 -50c-52 -49 -84 -63 -119 -75c-6 -2 -12 -4 -16 -4c-11 0 -23 7 -70 45c-5 4 -22 21 -22 59c0 33 11 75 60 148c59 88 114 128 144 150c49 36 101 62 160 79c7 2 15 3 22 3c23 0 43 -11 61 -29c5 -5 13 -14 15 -20z
M428 422c-3 0 -18 -3 -31 -10c-94 -50 -168 -105 -225 -174c-42 -51 -75 -110 -75 -139c0 -12 4 -27 22 -27c8 0 31 11 49 28c93 87 198 154 249 249c7 13 18 27 29 38c3 3 5 9 5 15c0 7 -6 20 -23 20zM447 563c-13 9 -44 24 -66 33c-10 4 -12 15 -12 33c0 12 3 18 11 26
c7 7 17 12 24 12c6 0 10 -3 14 -3c5 0 9 -6 55 -38l102 -70c16 -11 26 -20 26 -25c0 -7 -3 -11 -5 -17c-2 -7 -2 -12 -3 -16c-2 -6 -8 -10 -13 -10c-13 0 -19 1 -31 9z" />
    <glyph glyph-name="aacute" unicode="&#xe1;" horiz-adv-x="468" 
d="M492 435c4 -10 13 -19 24 -19c5 0 20 -1 28 -13c2 -3 2 -4 2 -6c0 -4 -2 -8 -4 -11c-44 -60 -97 -135 -116 -212c-7 -28 -14 -58 -14 -89c0 -26 6 -52 21 -75c1 -2 2 -4 2 -6s-4 -12 -21 -14c-6 -1 -13 -4 -19 -4c-15 0 -37 7 -43 20c-13 29 -17 58 -17 86
c0 30 4 47 4 50c0 4 0 5 -4 5s-13 -7 -24 -18l-54 -50c-52 -49 -84 -63 -119 -75c-6 -2 -12 -4 -16 -4c-11 0 -23 7 -70 45c-5 4 -22 21 -22 59c0 33 11 75 60 148c59 88 114 128 144 150c49 36 101 62 160 79c7 2 15 3 22 3c23 0 43 -11 61 -29c5 -5 13 -14 15 -20z
M428 422c-3 0 -18 -3 -31 -10c-94 -50 -168 -105 -225 -174c-42 -51 -75 -110 -75 -139c0 -12 4 -27 22 -27c8 0 31 11 49 28c93 87 198 154 249 249c7 13 18 27 29 38c3 3 5 9 5 15c0 7 -6 20 -23 20zM506 630c15 6 62 25 77 35c3 2 10 3 14 3c8 0 13 -2 19 -8
c9 -9 11 -15 11 -28c0 -16 -1 -21 -5 -26c-9 -11 -24 -17 -72 -32l-118 -37c-7 -2 -13 -3 -20 -3c-5 0 -9 1 -11 2c-6 4 -11 8 -15 14s-6 8 -9 11c-2 2 -3 6 -3 8c0 4 1 9 5 14c3 4 10 5 13 5c4 0 12 3 25 8z" />
    <glyph glyph-name="acircumflex" unicode="&#xe2;" horiz-adv-x="468" 
d="M492 435c4 -10 13 -19 24 -19c5 0 20 -1 28 -13c2 -3 2 -4 2 -6c0 -4 -2 -8 -4 -11c-44 -60 -97 -135 -116 -212c-7 -28 -14 -58 -14 -89c0 -26 6 -52 21 -75c1 -2 2 -4 2 -6s-4 -12 -21 -14c-6 -1 -13 -4 -19 -4c-15 0 -37 7 -43 20c-13 29 -17 58 -17 86
c0 30 4 47 4 50c0 4 0 5 -4 5s-13 -7 -24 -18l-54 -50c-52 -49 -84 -63 -119 -75c-6 -2 -12 -4 -16 -4c-11 0 -23 7 -70 45c-5 4 -22 21 -22 59c0 33 11 75 60 148c59 88 114 128 144 150c49 36 101 62 160 79c7 2 15 3 22 3c23 0 43 -11 61 -29c5 -5 13 -14 15 -20z
M428 422c-3 0 -18 -3 -31 -10c-94 -50 -168 -105 -225 -174c-42 -51 -75 -110 -75 -139c0 -12 4 -27 22 -27c8 0 31 11 49 28c93 87 198 154 249 249c7 13 18 27 29 38c3 3 5 9 5 15c0 7 -6 20 -23 20zM551 649l60 -103c9 -15 11 -20 11 -25c0 -10 -9 -12 -14 -19
c-6 -9 -8 -11 -18 -11c-3 0 -13 6 -18 14l-63 86c-3 5 -6 6 -8 6s-3 0 -10 -3c-79 -33 -97 -44 -105 -51c-1 -1 -4 -1 -5 -1c-12 0 -18 9 -24 12c-5 3 -5 9 -5 24c0 11 0 17 2 21c4 8 7 8 9 11c2 4 9 9 55 25l89 31c6 2 10 3 13 3c10 0 17 -3 19 -7c3 -6 6 -2 12 -13z" />
    <glyph glyph-name="atilde" unicode="&#xe3;" horiz-adv-x="468" 
d="M492 435c4 -10 13 -19 24 -19c5 0 20 -1 28 -13c2 -3 2 -4 2 -6c0 -4 -2 -8 -4 -11c-44 -60 -97 -135 -116 -212c-7 -28 -14 -58 -14 -89c0 -26 6 -52 21 -75c1 -2 2 -4 2 -6s-4 -12 -21 -14c-6 -1 -13 -4 -19 -4c-15 0 -37 7 -43 20c-13 29 -17 58 -17 86
c0 30 4 47 4 50c0 4 0 5 -4 5s-13 -7 -24 -18l-54 -50c-52 -49 -84 -63 -119 -75c-6 -2 -12 -4 -16 -4c-11 0 -23 7 -70 45c-5 4 -22 21 -22 59c0 33 11 75 60 148c59 88 114 128 144 150c49 36 101 62 160 79c7 2 15 3 22 3c23 0 43 -11 61 -29c5 -5 13 -14 15 -20z
M428 422c-3 0 -18 -3 -31 -10c-94 -50 -168 -105 -225 -174c-42 -51 -75 -110 -75 -139c0 -12 4 -27 22 -27c8 0 31 11 49 28c93 87 198 154 249 249c7 13 18 27 29 38c3 3 5 9 5 15c0 7 -6 20 -23 20zM373 581c0 10 -8 26 -8 37c0 3 3 12 9 14l63 23c24 9 30 9 45 9
c19 0 30 -15 48 -42c21 -31 24 -35 41 -35c6 0 72 24 80 24c12 0 19 -10 20 -19c1 -8 4 -10 4 -21c0 -5 -3 -7 -8 -10c-28 -18 -71 -45 -98 -45c-21 0 -35 4 -53 18c-19 15 -32 47 -41 53c-3 2 -6 3 -9 3c-8 0 -21 -4 -49 -21c-5 -3 -8 -3 -10 -3c-16 0 -34 4 -34 15z" />
    <glyph glyph-name="adieresis" unicode="&#xe4;" horiz-adv-x="468" 
d="M492 435c4 -10 13 -19 24 -19c5 0 20 -1 28 -13c2 -3 2 -4 2 -6c0 -4 -2 -8 -4 -11c-44 -60 -97 -135 -116 -212c-7 -28 -14 -58 -14 -89c0 -26 6 -52 21 -75c1 -2 2 -4 2 -6s-4 -12 -21 -14c-6 -1 -13 -4 -19 -4c-15 0 -37 7 -43 20c-13 29 -17 58 -17 86
c0 30 4 47 4 50c0 4 0 5 -4 5s-13 -7 -24 -18l-54 -50c-52 -49 -84 -63 -119 -75c-6 -2 -12 -4 -16 -4c-11 0 -23 7 -70 45c-5 4 -22 21 -22 59c0 33 11 75 60 148c59 88 114 128 144 150c49 36 101 62 160 79c7 2 15 3 22 3c23 0 43 -11 61 -29c5 -5 13 -14 15 -20z
M428 422c-3 0 -18 -3 -31 -10c-94 -50 -168 -105 -225 -174c-42 -51 -75 -110 -75 -139c0 -12 4 -27 22 -27c8 0 31 11 49 28c93 87 198 154 249 249c7 13 18 27 29 38c3 3 5 9 5 15c0 7 -6 20 -23 20zM436 658c6 -11 11 -25 11 -32c0 -25 -22 -42 -23 -49
c-1 -11 -28 -17 -39 -17c-3 0 -12 0 -15 2c-12 8 -13 16 -20 23c-2 2 -2 12 -2 29c0 7 8 31 13 41c7 13 19 16 35 16c11 0 33 -1 40 -13zM621 600c2 -9 11 -21 11 -32c0 -8 0 -12 -2 -16c-11 -22 -17 -32 -25 -36c-6 -3 -22 -4 -29 -4c-11 0 -19 4 -24 15
c-6 14 -21 23 -21 43c0 8 11 49 31 49c3 0 13 -1 20 -1c17 0 36 -6 39 -18z" />
    <glyph glyph-name="aring" unicode="&#xe5;" horiz-adv-x="468" 
d="M492 435c4 -10 13 -19 24 -19c5 0 20 -1 28 -13c2 -3 2 -4 2 -6c0 -4 -2 -8 -4 -11c-44 -60 -97 -135 -116 -212c-7 -28 -14 -58 -14 -89c0 -26 6 -52 21 -75c1 -2 2 -4 2 -6s-4 -12 -21 -14c-6 -1 -13 -4 -19 -4c-15 0 -37 7 -43 20c-13 29 -17 58 -17 86
c0 30 4 47 4 50c0 4 0 5 -4 5s-13 -7 -24 -18l-54 -50c-52 -49 -84 -63 -119 -75c-6 -2 -12 -4 -16 -4c-11 0 -23 7 -70 45c-5 4 -22 21 -22 59c0 33 11 75 60 148c59 88 114 128 144 150c49 36 101 62 160 79c7 2 15 3 22 3c23 0 43 -11 61 -29c5 -5 13 -14 15 -20z
M428 422c-3 0 -18 -3 -31 -10c-94 -50 -168 -105 -225 -174c-42 -51 -75 -110 -75 -139c0 -12 4 -27 22 -27c8 0 31 11 49 28c93 87 198 154 249 249c7 13 18 27 29 38c3 3 5 9 5 15c0 7 -6 20 -23 20zM616 636c1 -8 2 -16 2 -24c0 -28 -8 -56 -26 -83
c-9 -13 -28 -29 -58 -29c-20 0 -53 6 -63 13c-27 19 -36 38 -36 57c0 30 33 95 63 106c11 4 24 7 37 7c8 0 18 -1 26 -3c30 -8 53 -32 55 -44zM552 635c-4 6 -10 9 -12 9c-9 0 -12 -2 -16 -7c-14 -20 -27 -41 -27 -63c0 -9 2 -18 7 -25c4 -6 10 -10 16 -10c5 0 11 1 14 6
c12 21 27 41 27 62c0 10 -4 20 -9 28z" />
    <glyph glyph-name="ae" unicode="&#xe6;" horiz-adv-x="623" 
d="M641 103c-35 -30 -74 -57 -139 -91c-25 -13 -60 -20 -93 -20c-20 0 -41 3 -58 8c-43 13 -61 38 -61 76c0 17 3 26 3 29c0 2 0 3 -2 3c-1 0 -7 -6 -13 -13c-25 -28 -45 -49 -63 -62c-35 -26 -81 -35 -88 -35c-9 0 -25 6 -71 39c-7 5 -26 29 -26 68c0 32 12 78 48 141
c40 70 76 112 136 164c44 38 127 92 179 92c20 0 39 -5 53 -16c4 -3 6 -4 8 -4c3 0 7 1 14 12l7 11c5 8 7 10 16 10c7 0 30 -12 41 -12c3 0 7 1 11 2c20 5 36 11 55 11c15 0 38 -3 49 -16c11 -12 21 -27 21 -56c0 -37 -29 -91 -36 -101c-55 -79 -181 -207 -256 -237
c-5 -2 -6 -3 -6 -14c0 -21 19 -37 35 -37c35 0 84 23 108 39c53 35 92 69 141 106c16 12 28 18 43 25c9 4 16 7 20 7c6 0 20 -10 20 -20c0 -9 -1 -10 -1 -13c0 -4 -3 -11 -8 -15c-24 -20 -47 -47 -87 -81zM419 403c8 15 10 22 10 27c0 6 -3 17 -16 17c-4 0 -11 0 -18 -4
c-114 -65 -227 -155 -274 -280c-13 -35 -20 -57 -20 -72c0 -8 3 -25 23 -25c15 0 40 10 46 16c36 36 78 77 105 102c42 39 89 116 114 163zM560 367c14 21 28 49 28 67c0 14 -4 22 -11 22c-8 0 -20 -6 -31 -17c-58 -56 -118 -160 -150 -232c-3 -7 -5 -12 -5 -14
c0 -1 1 -2 2 -2c2 0 4 1 14 9c57 46 119 116 153 167z" />
    <glyph glyph-name="ccedilla" unicode="&#xe7;" horiz-adv-x="346" 
d="M130 -4c-32 6 -68 34 -74 46c-8 16 -12 31 -12 47c0 24 9 50 16 75c2 7 5 25 12 39c52 104 124 226 208 268c6 3 8 3 16 3c34 0 78 -16 104 -42c4 -4 4 -6 4 -14c0 -11 2 -12 2 -15c0 -2 0 -3 -1 -7c-3 -12 -34 -59 -34 -94c0 -8 -6 -15 -19 -15c-7 0 -14 2 -20 7l-26 19
c-8 6 -11 14 -11 22c0 20 22 44 22 60c0 4 -3 10 -8 10c-6 0 -8 -2 -16 -10c-42 -42 -88 -101 -122 -161c-35 -62 -58 -128 -58 -153c0 -13 8 -21 17 -21c46 0 93 26 142 63c44 33 94 68 122 68c14 0 33 -23 33 -26c0 -4 -4 -6 -4 -10c0 -6 -1 -9 -8 -12
c-31 -13 -67 -41 -110 -76c-39 -32 -76 -56 -108 -67c-3 -1 -4 -2 -4 -4c0 -1 1 -3 3 -4c10 -5 15 -16 15 -30c0 -13 -12 -40 -22 -53c-25 -31 -56 -47 -89 -47c-11 0 -35 2 -64 18c-22 12 -34 26 -34 35c0 7 5 13 16 23c3 3 8 5 11 5c4 0 7 -2 9 -5c3 -4 11 -7 17 -14
c3 -4 15 -12 25 -12c31 0 43 16 67 57c4 7 5 10 5 14s-1 9 -22 13z" />
    <glyph glyph-name="egrave" unicode="&#xe8;" horiz-adv-x="366" 
d="M253 -3c-18 -10 -23 -10 -36 -10c-12 0 -22 1 -38 7c-22 8 -57 24 -64 28c-20 11 -39 36 -50 69c-7 20 -12 58 -12 77c0 9 1 19 5 33c28 102 96 190 172 271c17 18 58 45 107 45c27 0 41 -4 61 -11c11 -4 32 -22 32 -62c0 -26 -11 -48 -23 -72c-10 -20 -18 -31 -32 -47
c-69 -78 -147 -165 -232 -212c-5 -3 -6 -5 -6 -8c0 -16 15 -37 24 -42c11 -6 21 -8 31 -8c17 0 32 4 77 28c69 37 111 91 171 129c11 7 16 7 20 7c6 0 20 -10 20 -20c0 -9 -1 -10 -1 -13c0 -4 0 -10 -5 -14c-48 -41 -69 -91 -221 -175zM328 398c10 15 18 28 18 46
c0 8 0 12 -6 12s-12 -3 -21 -9c-11 -7 -10 -4 -20 -13c-65 -58 -135 -140 -157 -229c0 -4 1 -5 2 -5c2 0 4 1 7 3c59 45 108 100 153 154c15 18 11 21 24 41zM335 637c-13 9 -44 24 -66 33c-10 4 -12 15 -12 33c0 12 3 18 11 26c7 7 17 12 24 12c6 0 10 -3 14 -3
c5 0 9 -6 55 -38l102 -70c16 -11 26 -20 26 -25c0 -7 -3 -11 -5 -17c-2 -7 -2 -12 -3 -16c-2 -6 -8 -10 -13 -10c-13 0 -19 1 -31 9z" />
    <glyph glyph-name="eacute" unicode="&#xe9;" horiz-adv-x="366" 
d="M253 -3c-18 -10 -23 -10 -36 -10c-12 0 -22 1 -38 7c-22 8 -57 24 -64 28c-20 11 -39 36 -50 69c-7 20 -12 58 -12 77c0 9 1 19 5 33c28 102 96 190 172 271c17 18 58 45 107 45c27 0 41 -4 61 -11c11 -4 32 -22 32 -62c0 -26 -11 -48 -23 -72c-10 -20 -18 -31 -32 -47
c-69 -78 -147 -165 -232 -212c-5 -3 -6 -5 -6 -8c0 -16 15 -37 24 -42c11 -6 21 -8 31 -8c17 0 32 4 77 28c69 37 111 91 171 129c11 7 16 7 20 7c6 0 20 -10 20 -20c0 -9 -1 -10 -1 -13c0 -4 0 -10 -5 -14c-48 -41 -69 -91 -221 -175zM328 398c10 15 18 28 18 46
c0 8 0 12 -6 12s-12 -3 -21 -9c-11 -7 -10 -4 -20 -13c-65 -58 -135 -140 -157 -229c0 -4 1 -5 2 -5c2 0 4 1 7 3c59 45 108 100 153 154c15 18 11 21 24 41zM450 674c15 6 62 25 77 35c3 2 10 3 14 3c8 0 13 -2 19 -8c9 -9 11 -15 11 -28c0 -16 -1 -21 -5 -26
c-9 -11 -24 -17 -72 -32l-118 -37c-7 -2 -13 -3 -20 -3c-5 0 -9 1 -11 2c-6 4 -11 8 -15 14s-6 8 -9 11c-2 2 -3 6 -3 8c0 4 1 9 5 14c3 4 10 5 13 5c4 0 12 3 25 8z" />
    <glyph glyph-name="ecircumflex" unicode="&#xea;" horiz-adv-x="366" 
d="M253 -3c-18 -10 -23 -10 -36 -10c-12 0 -22 1 -38 7c-22 8 -57 24 -64 28c-20 11 -39 36 -50 69c-7 20 -12 58 -12 77c0 9 1 19 5 33c28 102 96 190 172 271c17 18 58 45 107 45c27 0 41 -4 61 -11c11 -4 32 -22 32 -62c0 -26 -11 -48 -23 -72c-10 -20 -18 -31 -32 -47
c-69 -78 -147 -165 -232 -212c-5 -3 -6 -5 -6 -8c0 -16 15 -37 24 -42c11 -6 21 -8 31 -8c17 0 32 4 77 28c69 37 111 91 171 129c11 7 16 7 20 7c6 0 20 -10 20 -20c0 -9 -1 -10 -1 -13c0 -4 0 -10 -5 -14c-48 -41 -69 -91 -221 -175zM328 398c10 15 18 28 18 46
c0 8 0 12 -6 12s-12 -3 -21 -9c-11 -7 -10 -4 -20 -13c-65 -58 -135 -140 -157 -229c0 -4 1 -5 2 -5c2 0 4 1 7 3c59 45 108 100 153 154c15 18 11 21 24 41zM461 697l60 -103c9 -15 11 -20 11 -25c0 -10 -9 -12 -14 -19c-6 -9 -8 -11 -18 -11c-3 0 -13 6 -18 14l-63 86
c-3 5 -6 6 -8 6s-3 0 -10 -3c-79 -33 -97 -44 -105 -51c-1 -1 -4 -1 -5 -1c-12 0 -18 9 -24 12c-5 3 -5 9 -5 24c0 11 0 17 2 21c4 8 7 8 9 11c2 4 9 9 55 25l89 31c6 2 10 3 13 3c10 0 17 -3 19 -7c3 -6 6 -2 12 -13z" />
    <glyph glyph-name="edieresis" unicode="&#xeb;" horiz-adv-x="366" 
d="M253 -3c-18 -10 -23 -10 -36 -10c-12 0 -22 1 -38 7c-22 8 -57 24 -64 28c-20 11 -39 36 -50 69c-7 20 -12 58 -12 77c0 9 1 19 5 33c28 102 96 190 172 271c17 18 58 45 107 45c27 0 41 -4 61 -11c11 -4 32 -22 32 -62c0 -26 -11 -48 -23 -72c-10 -20 -18 -31 -32 -47
c-69 -78 -147 -165 -232 -212c-5 -3 -6 -5 -6 -8c0 -16 15 -37 24 -42c11 -6 21 -8 31 -8c17 0 32 4 77 28c69 37 111 91 171 129c11 7 16 7 20 7c6 0 20 -10 20 -20c0 -9 -1 -10 -1 -13c0 -4 0 -10 -5 -14c-48 -41 -69 -91 -221 -175zM328 398c10 15 18 28 18 46
c0 8 0 12 -6 12s-12 -3 -21 -9c-11 -7 -10 -4 -20 -13c-65 -58 -135 -140 -157 -229c0 -4 1 -5 2 -5c2 0 4 1 7 3c59 45 108 100 153 154c15 18 11 21 24 41zM366 710c6 -11 11 -25 11 -32c0 -25 -22 -42 -23 -49c-1 -11 -28 -17 -39 -17c-3 0 -12 0 -15 2
c-12 8 -13 16 -20 23c-2 2 -2 12 -2 29c0 7 8 31 13 41c7 13 19 16 35 16c11 0 33 -1 40 -13zM551 652c2 -9 11 -21 11 -32c0 -8 0 -12 -2 -16c-11 -22 -17 -32 -25 -36c-6 -3 -22 -4 -29 -4c-11 0 -19 4 -24 15c-6 14 -21 23 -21 43c0 8 11 49 31 49c3 0 13 -1 20 -1
c17 0 36 -6 39 -18z" />
    <glyph glyph-name="igrave" unicode="&#xec;" horiz-adv-x="220" 
d="M278 72l-41 -38c-21 -19 -58 -48 -103 -48c-30 0 -64 42 -75 79c-4 14 -5 28 -5 42c0 25 4 47 16 81c7 19 11 36 17 50c31 73 60 145 97 222c10 21 31 27 50 27c10 0 23 -2 30 -8c5 -4 8 -7 8 -16c0 -53 -41 -78 -64 -127c-17 -37 -45 -105 -59 -142
c-17 -45 -24 -83 -24 -98c0 -9 1 -32 18 -32c22 0 33 6 73 34c24 17 31 22 47 22c8 0 19 -2 25 -7s6 -10 6 -14c0 -11 -6 -17 -16 -27zM225 593c-13 9 -44 24 -66 33c-10 4 -12 15 -12 33c0 12 3 18 11 26c7 7 17 12 24 12c6 0 10 -3 14 -3c5 0 9 -6 55 -38l102 -70
c16 -11 26 -20 26 -25c0 -7 -3 -11 -5 -17c-2 -7 -2 -12 -3 -16c-2 -6 -8 -10 -13 -10c-13 0 -19 1 -31 9z" />
    <glyph glyph-name="iacute" unicode="&#xed;" horiz-adv-x="220" 
d="M278 72l-41 -38c-21 -19 -58 -48 -103 -48c-30 0 -64 42 -75 79c-4 14 -5 28 -5 42c0 25 4 47 16 81c7 19 11 36 17 50c31 73 60 145 97 222c10 21 31 27 50 27c10 0 23 -2 30 -8c5 -4 8 -7 8 -16c0 -53 -41 -78 -64 -127c-17 -37 -45 -105 -59 -142
c-17 -45 -24 -83 -24 -98c0 -9 1 -32 18 -32c22 0 33 6 73 34c24 17 31 22 47 22c8 0 19 -2 25 -7s6 -10 6 -14c0 -11 -6 -17 -16 -27zM344 644c15 6 62 25 77 35c3 2 10 3 14 3c8 0 13 -2 19 -8c9 -9 11 -15 11 -28c0 -16 -1 -21 -5 -26c-9 -11 -24 -17 -72 -32l-118 -37
c-7 -2 -13 -3 -20 -3c-5 0 -9 1 -11 2c-6 4 -11 8 -15 14s-6 8 -9 11c-2 2 -3 6 -3 8c0 4 1 9 5 14c3 4 10 5 13 5c4 0 12 3 25 8z" />
    <glyph glyph-name="icircumflex" unicode="&#xee;" horiz-adv-x="220" 
d="M278 72l-41 -38c-21 -19 -58 -48 -103 -48c-30 0 -64 42 -75 79c-4 14 -5 28 -5 42c0 25 4 47 16 81c7 19 11 36 17 50c31 73 60 145 97 222c10 21 31 27 50 27c10 0 23 -2 30 -8c5 -4 8 -7 8 -16c0 -53 -41 -78 -64 -127c-17 -37 -45 -105 -59 -142
c-17 -45 -24 -83 -24 -98c0 -9 1 -32 18 -32c22 0 33 6 73 34c24 17 31 22 47 22c8 0 19 -2 25 -7s6 -10 6 -14c0 -11 -6 -17 -16 -27zM345 663l60 -103c9 -15 11 -20 11 -25c0 -10 -9 -12 -14 -19c-6 -9 -8 -11 -18 -11c-3 0 -13 6 -18 14l-63 86c-3 5 -6 6 -8 6
s-3 0 -10 -3c-79 -33 -97 -44 -105 -51c-1 -1 -4 -1 -5 -1c-12 0 -18 9 -24 12c-5 3 -5 9 -5 24c0 11 0 17 2 21c4 8 7 8 9 11c2 4 9 9 55 25l89 31c6 2 10 3 13 3c10 0 17 -3 19 -7c3 -6 6 -2 12 -13z" />
    <glyph glyph-name="idieresis" unicode="&#xef;" horiz-adv-x="220" 
d="M278 72l-41 -38c-21 -19 -58 -48 -103 -48c-30 0 -64 42 -75 79c-4 14 -5 28 -5 42c0 25 4 47 16 81c7 19 11 36 17 50c31 73 60 145 97 222c10 21 31 27 50 27c10 0 23 -2 30 -8c5 -4 8 -7 8 -16c0 -53 -41 -78 -64 -127c-17 -37 -45 -105 -59 -142
c-17 -45 -24 -83 -24 -98c0 -9 1 -32 18 -32c22 0 33 6 73 34c24 17 31 22 47 22c8 0 19 -2 25 -7s6 -10 6 -14c0 -11 -6 -17 -16 -27zM238 692c6 -11 11 -25 11 -32c0 -25 -22 -42 -23 -49c-1 -11 -28 -17 -39 -17c-3 0 -12 0 -15 2c-12 8 -13 16 -20 23c-2 2 -2 12 -2 29
c0 7 8 31 13 41c7 13 19 16 35 16c11 0 33 -1 40 -13zM423 634c2 -9 11 -21 11 -32c0 -8 0 -12 -2 -16c-11 -22 -17 -32 -25 -36c-6 -3 -22 -4 -29 -4c-11 0 -19 4 -24 15c-6 14 -21 23 -21 43c0 8 11 49 31 49c3 0 13 -1 20 -1c17 0 36 -6 39 -18z" />
    <glyph glyph-name="eth" unicode="&#xf0;" horiz-adv-x="400" 
d="M292 528c-3 0 -55 -27 -69 -38c-4 -3 -26 -15 -35 -15c-2 0 -6 3 -11 10s-8 16 -8 23c0 18 12 21 16 29c5 9 46 32 68 43c4 2 6 3 6 5c0 4 -5 12 -38 48c-14 15 -27 27 -35 34c-24 21 -26 23 -26 37c0 12 1 26 15 26c5 0 20 14 27 14c8 0 10 -1 36 -18
c27 -18 27 -22 27 -28c0 -4 2 -7 14 -22c16 -19 36 -44 42 -52c2 -3 4 -5 6 -5s4 1 8 3c53 25 73 46 86 46c5 0 18 -6 27 -16c4 -4 5 -8 5 -13c0 -14 -18 -25 -18 -32c0 -5 -3 -11 -60 -39c-10 -5 -11 -7 -11 -10c0 -2 0 -3 11 -31c27 -69 33 -117 33 -192
c0 -77 -33 -210 -117 -294c-26 -26 -51 -59 -90 -59c-47 0 -50 11 -63 16c-34 13 -53 24 -64 50c-14 32 -16 65 -16 96c0 79 48 173 68 198c16 20 29 38 40 53c25 34 56 50 84 50c16 0 32 -4 50 -17c19 -14 22 -17 26 -17c2 0 3 2 3 4c0 16 -8 59 -32 108c-2 4 -3 5 -5 5z
M327 290c-8 2 -14 4 -16 14c-15 74 -30 82 -41 82c-7 0 -30 -7 -47 -33c-59 -91 -90 -137 -90 -239c0 -31 8 -51 26 -61c7 -4 12 -5 18 -5c14 0 27 8 44 24c73 69 104 173 106 218z" />
    <glyph glyph-name="ntilde" unicode="&#xf1;" horiz-adv-x="420" 
d="M91 266c30 69 53 117 97 184c8 12 7 14 16 22c8 7 20 10 35 10c23 0 36 -6 40 -15c2 -5 5 -13 5 -18c0 -11 -5 -29 -22 -47c-11 -12 -39 -44 -64 -90c-14 -26 -38 -74 -71 -156c-7 -18 -20 -67 -20 -70c0 -4 0 -10 3 -10c6 0 10 3 17 13c135 192 209 232 231 279
c18 38 22 41 35 41c15 0 20 -9 36 -10c11 -1 20 -15 20 -27c0 -4 -5 -18 -10 -26c-36 -59 -55 -97 -70 -148c-6 -20 -12 -70 -12 -90c0 -18 6 -33 8 -43c3 -18 28 -31 35 -36c8 -6 15 -13 15 -23c0 -7 -7 -24 -26 -24c-8 0 -40 3 -52 14c-14 13 -26 17 -39 35
c-12 16 -17 37 -17 62c0 59 9 76 9 79c0 2 -1 4 -3 4s-3 0 -6 -4c-41 -54 -68 -88 -92 -122c-21 -30 -29 -29 -43 -44c-8 -9 -28 -11 -37 -11c-12 0 -59 30 -72 46c-4 5 -7 18 -7 29c0 31 9 38 12 60c4 29 32 97 49 136zM253 587c0 10 -8 26 -8 37c0 3 3 12 9 14l63 23
c24 9 30 9 45 9c19 0 30 -15 48 -42c21 -31 24 -35 41 -35c6 0 72 24 80 24c12 0 19 -10 20 -19c1 -8 4 -10 4 -21c0 -5 -3 -7 -8 -10c-28 -18 -71 -45 -98 -45c-21 0 -35 4 -53 18c-19 15 -32 47 -41 53c-3 2 -6 3 -9 3c-8 0 -21 -4 -49 -21c-5 -3 -8 -3 -10 -3
c-16 0 -34 4 -34 15z" />
    <glyph glyph-name="ograve" unicode="&#xf2;" horiz-adv-x="368" 
d="M344 460c9 -25 22 -55 51 -55c40 0 63 3 86 3c32 0 62 -10 62 -26c0 -13 -25 -16 -28 -21c-2 -4 -4 -5 -11 -6c-20 -3 -49 -13 -75 -17c-20 -3 -32 -3 -39 -3c-8 0 -10 -1 -12 -8c-26 -107 -62 -200 -126 -268c-28 -30 -55 -59 -90 -59c-9 0 -18 2 -24 5
c-38 18 -66 40 -75 63c-11 28 -15 58 -15 83c0 82 41 154 87 223c14 21 14 16 24 30c32 45 74 92 118 92c16 0 36 -4 53 -19c8 -7 11 -9 14 -17zM293 394c-5 5 -7 11 -8 15c-3 10 -6 17 -10 17s-10 -4 -15 -10c-4 -5 -14 -10 -19 -17c-31 -39 -125 -163 -125 -280
c0 -3 0 -7 3 -14c3 -8 15 -27 24 -33c3 -2 6 -2 9 -2c10 0 15 6 19 8c7 3 9 6 17 18c58 87 112 165 112 266c0 4 0 16 -1 21c-1 7 -3 8 -6 11zM289 587c-13 9 -44 24 -66 33c-10 4 -12 15 -12 33c0 12 3 18 11 26c7 7 17 12 24 12c6 0 10 -3 14 -3c5 0 9 -6 55 -38l102 -70
c16 -11 26 -20 26 -25c0 -7 -3 -11 -5 -17c-2 -7 -2 -12 -3 -16c-2 -6 -8 -10 -13 -10c-13 0 -19 1 -31 9z" />
    <glyph glyph-name="oacute" unicode="&#xf3;" horiz-adv-x="368" 
d="M344 460c9 -25 22 -55 51 -55c40 0 63 3 86 3c32 0 62 -10 62 -26c0 -13 -25 -16 -28 -21c-2 -4 -4 -5 -11 -6c-20 -3 -49 -13 -75 -17c-20 -3 -32 -3 -39 -3c-8 0 -10 -1 -12 -8c-26 -107 -62 -200 -126 -268c-28 -30 -55 -59 -90 -59c-9 0 -18 2 -24 5
c-38 18 -66 40 -75 63c-11 28 -15 58 -15 83c0 82 41 154 87 223c14 21 14 16 24 30c32 45 74 92 118 92c16 0 36 -4 53 -19c8 -7 11 -9 14 -17zM293 394c-5 5 -7 11 -8 15c-3 10 -6 17 -10 17s-10 -4 -15 -10c-4 -5 -14 -10 -19 -17c-31 -39 -125 -163 -125 -280
c0 -3 0 -7 3 -14c3 -8 15 -27 24 -33c3 -2 6 -2 9 -2c10 0 15 6 19 8c7 3 9 6 17 18c58 87 112 165 112 266c0 4 0 16 -1 21c-1 7 -3 8 -6 11zM376 646c15 6 62 25 77 35c3 2 10 3 14 3c8 0 13 -2 19 -8c9 -9 11 -15 11 -28c0 -16 -1 -21 -5 -26c-9 -11 -24 -17 -72 -32
l-118 -37c-7 -2 -13 -3 -20 -3c-5 0 -9 1 -11 2c-6 4 -11 8 -15 14s-6 8 -9 11c-2 2 -3 6 -3 8c0 4 1 9 5 14c3 4 10 5 13 5c4 0 12 3 25 8z" />
    <glyph glyph-name="ocircumflex" unicode="&#xf4;" horiz-adv-x="368" 
d="M344 460c9 -25 22 -55 51 -55c40 0 63 3 86 3c32 0 62 -10 62 -26c0 -13 -25 -16 -28 -21c-2 -4 -4 -5 -11 -6c-20 -3 -49 -13 -75 -17c-20 -3 -32 -3 -39 -3c-8 0 -10 -1 -12 -8c-26 -107 -62 -200 -126 -268c-28 -30 -55 -59 -90 -59c-9 0 -18 2 -24 5
c-38 18 -66 40 -75 63c-11 28 -15 58 -15 83c0 82 41 154 87 223c14 21 14 16 24 30c32 45 74 92 118 92c16 0 36 -4 53 -19c8 -7 11 -9 14 -17zM293 394c-5 5 -7 11 -8 15c-3 10 -6 17 -10 17s-10 -4 -15 -10c-4 -5 -14 -10 -19 -17c-31 -39 -125 -163 -125 -280
c0 -3 0 -7 3 -14c3 -8 15 -27 24 -33c3 -2 6 -2 9 -2c10 0 15 6 19 8c7 3 9 6 17 18c58 87 112 165 112 266c0 4 0 16 -1 21c-1 7 -3 8 -6 11zM385 665l60 -103c9 -15 11 -20 11 -25c0 -10 -9 -12 -14 -19c-6 -9 -8 -11 -18 -11c-3 0 -13 6 -18 14l-63 86c-3 5 -6 6 -8 6
s-3 0 -10 -3c-79 -33 -97 -44 -105 -51c-1 -1 -4 -1 -5 -1c-12 0 -18 9 -24 12c-5 3 -5 9 -5 24c0 11 0 17 2 21c4 8 7 8 9 11c2 4 9 9 55 25l89 31c6 2 10 3 13 3c10 0 17 -3 19 -7c3 -6 6 -2 12 -13z" />
    <glyph glyph-name="otilde" unicode="&#xf5;" horiz-adv-x="368" 
d="M344 460c9 -25 22 -55 51 -55c40 0 63 3 86 3c32 0 62 -10 62 -26c0 -13 -25 -16 -28 -21c-2 -4 -4 -5 -11 -6c-20 -3 -49 -13 -75 -17c-20 -3 -32 -3 -39 -3c-8 0 -10 -1 -12 -8c-26 -107 -62 -200 -126 -268c-28 -30 -55 -59 -90 -59c-9 0 -18 2 -24 5
c-38 18 -66 40 -75 63c-11 28 -15 58 -15 83c0 82 41 154 87 223c14 21 14 16 24 30c32 45 74 92 118 92c16 0 36 -4 53 -19c8 -7 11 -9 14 -17zM293 394c-5 5 -7 11 -8 15c-3 10 -6 17 -10 17s-10 -4 -15 -10c-4 -5 -14 -10 -19 -17c-31 -39 -125 -163 -125 -280
c0 -3 0 -7 3 -14c3 -8 15 -27 24 -33c3 -2 6 -2 9 -2c10 0 15 6 19 8c7 3 9 6 17 18c58 87 112 165 112 266c0 4 0 16 -1 21c-1 7 -3 8 -6 11zM211 599c0 10 -8 26 -8 37c0 3 3 12 9 14l63 23c24 9 30 9 45 9c19 0 30 -15 48 -42c21 -31 24 -35 41 -35c6 0 72 24 80 24
c12 0 19 -10 20 -19c1 -8 4 -10 4 -21c0 -5 -3 -7 -8 -10c-28 -18 -71 -45 -98 -45c-21 0 -35 4 -53 18c-19 15 -32 47 -41 53c-3 2 -6 3 -9 3c-8 0 -21 -4 -49 -21c-5 -3 -8 -3 -10 -3c-16 0 -34 4 -34 15z" />
    <glyph glyph-name="odieresis" unicode="&#xf6;" horiz-adv-x="368" 
d="M344 460c9 -25 22 -55 51 -55c40 0 63 3 86 3c32 0 62 -10 62 -26c0 -13 -25 -16 -28 -21c-2 -4 -4 -5 -11 -6c-20 -3 -49 -13 -75 -17c-20 -3 -32 -3 -39 -3c-8 0 -10 -1 -12 -8c-26 -107 -62 -200 -126 -268c-28 -30 -55 -59 -90 -59c-9 0 -18 2 -24 5
c-38 18 -66 40 -75 63c-11 28 -15 58 -15 83c0 82 41 154 87 223c14 21 14 16 24 30c32 45 74 92 118 92c16 0 36 -4 53 -19c8 -7 11 -9 14 -17zM293 394c-5 5 -7 11 -8 15c-3 10 -6 17 -10 17s-10 -4 -15 -10c-4 -5 -14 -10 -19 -17c-31 -39 -125 -163 -125 -280
c0 -3 0 -7 3 -14c3 -8 15 -27 24 -33c3 -2 6 -2 9 -2c10 0 15 6 19 8c7 3 9 6 17 18c58 87 112 165 112 266c0 4 0 16 -1 21c-1 7 -3 8 -6 11zM304 690c6 -11 11 -25 11 -32c0 -25 -22 -42 -23 -49c-1 -11 -28 -17 -39 -17c-3 0 -12 0 -15 2c-12 8 -13 16 -20 23
c-2 2 -2 12 -2 29c0 7 8 31 13 41c7 13 19 16 35 16c11 0 33 -1 40 -13zM489 632c2 -9 11 -21 11 -32c0 -8 0 -12 -2 -16c-11 -22 -17 -32 -25 -36c-6 -3 -22 -4 -29 -4c-11 0 -19 4 -24 15c-6 14 -21 23 -21 43c0 8 11 49 31 49c3 0 13 -1 20 -1c17 0 36 -6 39 -18z" />
    <glyph glyph-name="divide" unicode="&#xf7;" horiz-adv-x="590" 
d="M553 287c0 -16 -3 -29 -8 -42c-2 -5 -5 -8 -8 -8c-8 0 -19 2 -27 2c-38 0 -159 -8 -240 -8c-52 0 -114 7 -129 7c-13 0 -21 46 -21 62c0 9 11 16 34 16c16 0 68 -8 158 -8c37 0 152 8 210 8c11 0 15 -1 28 -14c3 -3 3 -9 3 -15zM423 460c0 -15 -10 -94 -52 -94
c-7 0 -69 15 -69 45c0 45 19 62 30 88c4 9 17 9 28 9c17 0 63 -35 63 -48zM323 150c18 -12 23 -37 23 -50c0 -41 -9 -60 -54 -60c-28 0 -28 11 -38 21c-13 14 -26 19 -26 37s14 79 46 79c13 0 20 -4 30 -11c6 -4 10 -10 19 -16z" />
    <glyph glyph-name="oslash" unicode="&#xf8;" horiz-adv-x="406" 
d="M402 446c19 19 26 26 40 26c12 0 26 -22 26 -42c0 -6 -15 -10 -26 -19c-18 -15 -20 -18 -20 -22c0 -5 2 -13 2 -26c0 -9 -1 -20 -3 -34c-23 -130 -81 -232 -117 -277c-46 -57 -92 -64 -109 -64c-6 0 -17 2 -28 6c-28 10 -52 23 -65 36c-3 3 -5 5 -7 5c-4 0 -6 -3 -11 -9
c-8 -10 -34 -26 -42 -26c-4 0 -10 0 -11 6c-2 12 -13 23 -13 36s6 6 34 29c12 10 14 12 14 16c0 6 -12 27 -12 71c0 80 52 157 83 201c7 10 17 23 29 37c30 34 75 103 129 103c22 0 43 -10 69 -36c6 -6 20 -11 24 -17c3 -4 5 -5 7 -5s4 2 7 5zM162 184
c47 49 132 145 189 207c1 1 2 2 2 3s-1 2 -3 2c-12 0 -20 8 -26 17c-8 13 -10 16 -16 16c-16 0 -31 -13 -38 -22c-75 -92 -113 -148 -136 -228c-2 -7 -4 -16 -4 -19s1 -4 2 -4c3 0 6 3 30 28zM148 70c8 -7 21 -15 30 -15c21 0 43 12 51 22c56 69 80 124 106 203
c4 12 4 13 4 15c0 1 -1 2 -2 2c-2 0 -4 -2 -9 -7l-71 -78c-20 -22 -56 -58 -88 -96c-5 -6 -12 -14 -24 -26c-4 -4 -6 -6 -6 -9c0 -2 1 -4 9 -11z" />
    <glyph glyph-name="ugrave" unicode="&#xf9;" horiz-adv-x="420" 
d="M237 451c3 -7 11 -14 11 -25c0 -8 -5 -19 -20 -29c-8 -5 -21 -16 -29 -47c-23 -89 -65 -187 -75 -260c-2 -13 -2 -18 -2 -23s7 -14 14 -14c3 0 15 4 22 10c36 32 36 40 53 58c62 67 117 141 149 224c5 13 6 15 18 22c9 5 15 6 23 6s17 -8 24 -10c16 -5 20 -12 20 -18
c0 -16 -2 -20 -6 -29c-34 -73 -61 -147 -73 -226c-3 -21 -6 -46 -6 -74c0 -25 18 -45 18 -67c0 -7 -2 -15 -6 -18c-3 -2 -8 -3 -14 -3c-14 0 -27 8 -38 15c-19 12 -19 4 -25 19c-8 20 -10 40 -10 60c0 25 3 58 3 68c0 3 -1 6 -4 6c-4 0 -10 -7 -14 -12
c-34 -40 -70 -76 -112 -97c-8 -4 -9 -4 -13 -4s-35 4 -60 19c-18 11 -28 21 -30 31c-3 15 -5 33 -5 43c0 36 13 80 23 114c8 27 8 37 17 63c21 60 32 123 70 188c11 19 27 26 43 26c10 0 29 -5 34 -16zM289 547c-13 9 -44 24 -66 33c-10 4 -12 15 -12 33c0 12 3 18 11 26
c7 7 17 12 24 12c6 0 10 -3 14 -3c5 0 9 -6 55 -38l102 -70c16 -11 26 -20 26 -25c0 -7 -3 -11 -5 -17c-2 -7 -2 -12 -3 -16c-2 -6 -8 -10 -13 -10c-13 0 -19 1 -31 9z" />
    <glyph glyph-name="uacute" unicode="&#xfa;" horiz-adv-x="420" 
d="M237 451c3 -7 11 -14 11 -25c0 -8 -5 -19 -20 -29c-8 -5 -21 -16 -29 -47c-23 -89 -65 -187 -75 -260c-2 -13 -2 -18 -2 -23s7 -14 14 -14c3 0 15 4 22 10c36 32 36 40 53 58c62 67 117 141 149 224c5 13 6 15 18 22c9 5 15 6 23 6s17 -8 24 -10c16 -5 20 -12 20 -18
c0 -16 -2 -20 -6 -29c-34 -73 -61 -147 -73 -226c-3 -21 -6 -46 -6 -74c0 -25 18 -45 18 -67c0 -7 -2 -15 -6 -18c-3 -2 -8 -3 -14 -3c-14 0 -27 8 -38 15c-19 12 -19 4 -25 19c-8 20 -10 40 -10 60c0 25 3 58 3 68c0 3 -1 6 -4 6c-4 0 -10 -7 -14 -12
c-34 -40 -70 -76 -112 -97c-8 -4 -9 -4 -13 -4s-35 4 -60 19c-18 11 -28 21 -30 31c-3 15 -5 33 -5 43c0 36 13 80 23 114c8 27 8 37 17 63c21 60 32 123 70 188c11 19 27 26 43 26c10 0 29 -5 34 -16zM390 610c15 6 62 25 77 35c3 2 10 3 14 3c8 0 13 -2 19 -8
c9 -9 11 -15 11 -28c0 -16 -1 -21 -5 -26c-9 -11 -24 -17 -72 -32l-118 -37c-7 -2 -13 -3 -20 -3c-5 0 -9 1 -11 2c-6 4 -11 8 -15 14s-6 8 -9 11c-2 2 -3 6 -3 8c0 4 1 9 5 14c3 4 10 5 13 5c4 0 12 3 25 8z" />
    <glyph glyph-name="ucircumflex" unicode="&#xfb;" horiz-adv-x="420" 
d="M237 451c3 -7 11 -14 11 -25c0 -8 -5 -19 -20 -29c-8 -5 -21 -16 -29 -47c-23 -89 -65 -187 -75 -260c-2 -13 -2 -18 -2 -23s7 -14 14 -14c3 0 15 4 22 10c36 32 36 40 53 58c62 67 117 141 149 224c5 13 6 15 18 22c9 5 15 6 23 6s17 -8 24 -10c16 -5 20 -12 20 -18
c0 -16 -2 -20 -6 -29c-34 -73 -61 -147 -73 -226c-3 -21 -6 -46 -6 -74c0 -25 18 -45 18 -67c0 -7 -2 -15 -6 -18c-3 -2 -8 -3 -14 -3c-14 0 -27 8 -38 15c-19 12 -19 4 -25 19c-8 20 -10 40 -10 60c0 25 3 58 3 68c0 3 -1 6 -4 6c-4 0 -10 -7 -14 -12
c-34 -40 -70 -76 -112 -97c-8 -4 -9 -4 -13 -4s-35 4 -60 19c-18 11 -28 21 -30 31c-3 15 -5 33 -5 43c0 36 13 80 23 114c8 27 8 37 17 63c21 60 32 123 70 188c11 19 27 26 43 26c10 0 29 -5 34 -16zM421 637l60 -103c9 -15 11 -20 11 -25c0 -10 -9 -12 -14 -19
c-6 -9 -8 -11 -18 -11c-3 0 -13 6 -18 14l-63 86c-3 5 -6 6 -8 6s-3 0 -10 -3c-79 -33 -97 -44 -105 -51c-1 -1 -4 -1 -5 -1c-12 0 -18 9 -24 12c-5 3 -5 9 -5 24c0 11 0 17 2 21c4 8 7 8 9 11c2 4 9 9 55 25l89 31c6 2 10 3 13 3c10 0 17 -3 19 -7c3 -6 6 -2 12 -13z" />
    <glyph glyph-name="udieresis" unicode="&#xfc;" horiz-adv-x="420" 
d="M237 451c3 -7 11 -14 11 -25c0 -8 -5 -19 -20 -29c-8 -5 -21 -16 -29 -47c-23 -89 -65 -187 -75 -260c-2 -13 -2 -18 -2 -23s7 -14 14 -14c3 0 15 4 22 10c36 32 36 40 53 58c62 67 117 141 149 224c5 13 6 15 18 22c9 5 15 6 23 6s17 -8 24 -10c16 -5 20 -12 20 -18
c0 -16 -2 -20 -6 -29c-34 -73 -61 -147 -73 -226c-3 -21 -6 -46 -6 -74c0 -25 18 -45 18 -67c0 -7 -2 -15 -6 -18c-3 -2 -8 -3 -14 -3c-14 0 -27 8 -38 15c-19 12 -19 4 -25 19c-8 20 -10 40 -10 60c0 25 3 58 3 68c0 3 -1 6 -4 6c-4 0 -10 -7 -14 -12
c-34 -40 -70 -76 -112 -97c-8 -4 -9 -4 -13 -4s-35 4 -60 19c-18 11 -28 21 -30 31c-3 15 -5 33 -5 43c0 36 13 80 23 114c8 27 8 37 17 63c21 60 32 123 70 188c11 19 27 26 43 26c10 0 29 -5 34 -16zM337 660c6 -11 11 -25 11 -32c0 -25 -22 -42 -23 -49
c-1 -11 -28 -17 -39 -17c-3 0 -12 0 -15 2c-12 8 -13 16 -20 23c-2 2 -2 12 -2 29c0 7 8 31 13 41c7 13 19 16 35 16c11 0 33 -1 40 -13zM495 553c2 -9 11 -21 11 -32c0 -8 0 -10 -2 -16c-5 -14 -16 -31 -25 -36c-6 -3 -22 -4 -29 -4c-11 0 -20 6 -24 15
c-6 14 -21 23 -21 43c0 8 11 49 31 49c3 0 13 -1 20 -1c17 0 36 -6 39 -18z" />
    <glyph glyph-name="yacute" unicode="&#xfd;" horiz-adv-x="436" 
d="M252 460c0 -17 -2 -28 -10 -42c-17 -30 -19 -23 -26 -38c-35 -75 -44 -125 -70 -204c-4 -12 -6 -21 -8 -32s-5 -22 -5 -32c0 -9 2 -16 5 -16c8 0 14 2 22 6c18 9 42 24 79 66c8 9 21 20 37 40c31 38 80 69 128 197c3 8 17 30 26 30c11 0 15 -7 31 -7c33 0 35 -22 35 -36
c0 -18 -12 -35 -23 -51l-19 -30c-25 -38 -45 -82 -61 -129c-8 -24 -48 -127 -55 -150c-9 -28 -12 -36 -12 -40c0 -2 2 -2 4 -2s6 1 9 1c6 0 18 -4 18 -11c0 -15 -3 -21 -6 -25c-68 -90 -101 -187 -121 -282c-8 -39 -9 -100 -62 -107c-8 -1 -15 -4 -27 -4c-15 0 -38 2 -38 38
c0 19 7 46 21 79c22 52 52 114 86 171c2 18 33 119 60 201c17 53 18 60 18 63c0 2 -1 4 -3 4s-6 -3 -14 -11c-35 -35 -100 -77 -110 -77c-42 0 -73 13 -95 40c-5 6 -6 8 -6 24c0 138 64 234 103 364c6 20 28 29 35 29c5 0 18 -5 28 -5s26 -9 26 -22zM402 598
c15 6 62 25 77 35c3 2 10 3 14 3c8 0 13 -2 19 -8c9 -9 11 -15 11 -28c0 -16 -1 -21 -5 -26c-9 -11 -24 -17 -72 -32l-118 -37c-7 -2 -13 -3 -20 -3c-5 0 -9 1 -11 2c-6 4 -11 8 -15 14s-6 8 -9 11c-2 2 -3 6 -3 8c0 4 1 9 5 14c3 4 10 5 13 5c4 0 12 3 25 8z" />
    <glyph glyph-name="thorn" unicode="&#xfe;" horiz-adv-x="457" 
d="M327 665c0 -40 -86 -269 -108 -332c0 -2 1 -2 3 -2c41 34 84 90 147 124c11 6 13 6 16 6c22 0 45 -8 84 -34c6 -4 16 -11 16 -40c0 -28 -5 -50 -10 -70c-2 -8 -1 -14 -6 -28c-33 -86 -89 -216 -166 -280c-6 -5 -19 -7 -28 -7c-23 0 -56 18 -67 29c-26 26 -43 54 -50 88
c-44 -66 -88 -171 -139 -333c-11 -35 -1 -58 -22 -58c-15 0 -22 4 -30 4c-19 0 -24 2 -28 7c-6 7 -13 8 -14 23c0 4 1 9 9 33c74 222 175 419 293 806c11 36 11 50 11 60s9 17 18 17c15 0 23 7 37 7c30 0 34 -9 34 -20zM389 386c-65 -42 -136 -122 -172 -182
c-3 -5 -5 -17 -5 -35c0 -32 20 -99 47 -99c3 0 6 1 9 4c33 31 72 118 77 130c14 32 30 71 42 118c9 35 13 57 13 62c0 4 -1 6 -3 6s-5 -2 -8 -4z" />
    <glyph glyph-name="ydieresis" unicode="&#xff;" horiz-adv-x="436" 
d="M252 460c0 -17 -2 -28 -10 -42c-17 -30 -19 -23 -26 -38c-35 -75 -44 -125 -70 -204c-4 -12 -6 -21 -8 -32s-5 -22 -5 -32c0 -9 2 -16 5 -16c8 0 14 2 22 6c18 9 42 24 79 66c8 9 21 20 37 40c31 38 80 69 128 197c3 8 17 30 26 30c11 0 15 -7 31 -7c33 0 35 -22 35 -36
c0 -18 -12 -35 -23 -51l-19 -30c-25 -38 -45 -82 -61 -129c-8 -24 -48 -127 -55 -150c-9 -28 -12 -36 -12 -40c0 -2 2 -2 4 -2s6 1 9 1c6 0 18 -4 18 -11c0 -15 -3 -21 -6 -25c-68 -90 -101 -187 -121 -282c-8 -39 -9 -100 -62 -107c-8 -1 -15 -4 -27 -4c-15 0 -38 2 -38 38
c0 19 7 46 21 79c22 52 52 114 86 171c2 18 33 119 60 201c17 53 18 60 18 63c0 2 -1 4 -3 4s-6 -3 -14 -11c-35 -35 -100 -77 -110 -77c-42 0 -73 13 -95 40c-5 6 -6 8 -6 24c0 138 64 234 103 364c6 20 28 29 35 29c5 0 18 -5 28 -5s26 -9 26 -22zM334 650
c6 -11 11 -25 11 -32c0 -25 -22 -42 -23 -49c-1 -11 -28 -17 -39 -17c-3 0 -12 0 -15 2c-12 8 -13 16 -20 23c-2 2 -2 12 -2 29c0 7 8 31 13 41c7 13 19 16 35 16c11 0 33 -1 40 -13zM519 592c2 -9 11 -21 11 -32c0 -8 0 -12 -2 -16c-11 -22 -17 -32 -25 -36
c-6 -3 -22 -4 -29 -4c-11 0 -19 4 -24 15c-6 14 -21 23 -21 43c0 8 11 49 31 49c3 0 13 -1 20 -1c17 0 36 -6 39 -18z" />
    <glyph glyph-name="dotlessi" unicode="&#x131;" horiz-adv-x="220" 
d="M278 72l-41 -38c-21 -19 -58 -48 -103 -48c-30 0 -64 42 -75 79c-4 14 -5 28 -5 42c0 25 4 47 16 81c7 19 11 36 17 50c31 73 60 145 97 222c10 21 31 27 50 27c10 0 23 -2 30 -8c5 -4 8 -7 8 -16c0 -53 -41 -78 -64 -127c-17 -37 -45 -105 -59 -142
c-17 -45 -24 -83 -24 -98c0 -9 1 -32 18 -32c22 0 33 6 73 34c24 17 31 22 47 22c8 0 19 -2 25 -7s6 -10 6 -14c0 -11 -6 -17 -16 -27z" />
    <glyph glyph-name="IJ" unicode="&#x132;" horiz-adv-x="654" 
d="M352 609c0 -34 -6 -45 -30 -69c-4 -4 -6 -6 -13 -24c-57 -146 -104 -297 -156 -453c-1 -3 -2 -6 -2 -10c0 -5 2 -9 2 -15c0 -16 -5 -33 -19 -61c-2 -4 -9 -4 -13 -4c-5 0 -9 -5 -12 -10s-7 -8 -9 -8c-8 0 -8 10 -17 10c-12 0 -26 15 -31 15c-4 0 -6 3 -6 6
c0 5 10 59 19 75c4 7 6 12 9 24c39 158 92 290 141 443c9 28 20 30 40 98c3 10 18 12 40 12c20 0 57 -13 57 -29zM578 140c-15 -48 -41 -102 -57 -128c-33 -54 -83 -99 -125 -99c-27 0 -45 20 -68 27c-48 15 -72 81 -72 157c0 19 0 51 9 88c7 27 23 55 35 55
c15 0 24 -4 31 -4c17 0 35 -17 35 -36c0 -17 -13 -24 -19 -49c-8 -32 -13 -11 -13 -71c0 -68 28 -91 38 -91c22 0 43 7 74 57c25 40 36 65 61 137c75 217 95 261 164 412c0 4 -1 4 -6 4c-37 -7 -74 -19 -104 -26c-8 -2 -11 -4 -17 -8c-16 -10 -36 -13 -56 -13
c-13 0 -26 1 -36 3c-9 2 -13 7 -15 14c-3 12 -11 6 -11 20c0 15 5 27 7 38c1 7 3 8 11 8c69 0 198 45 284 45c4 0 13 -2 37 -18c21 -14 22 -21 22 -26c0 -41 -26 -45 -44 -83c-63 -132 -120 -269 -165 -413z" />
    <glyph glyph-name="ij" unicode="&#x133;" horiz-adv-x="458" 
d="M469 448c4 -7 8 -14 8 -20c0 -4 -6 -15 -8 -19c-34 -68 -54 -123 -86 -205c-3 -7 -4 -12 -4 -15c0 -2 1 -3 2 -3c3 0 8 3 16 10c31 27 76 62 100 76c17 10 22 12 30 12c10 0 18 -1 18 -13c0 -31 -16 -34 -46 -61c-71 -64 -129 -138 -183 -215c-14 -20 -28 -44 -34 -59
c-41 -102 -70 -191 -108 -294c-4 -11 -19 -37 -45 -37c-4 0 -8 4 -24 9c-25 8 -27 38 -27 44c0 9 3 19 5 25c46 124 124 235 163 359l-9 -8c-21 -19 -58 -48 -103 -48c-30 0 -64 42 -75 79c-4 14 -5 28 -5 42c0 25 4 47 16 81c7 19 11 36 17 50c31 73 60 145 97 222
c10 21 31 27 50 27c10 0 23 -2 30 -8c5 -4 8 -7 8 -16c0 -53 -41 -78 -64 -127c-17 -37 -45 -105 -59 -142c-17 -45 -24 -83 -24 -98c0 -9 1 -32 18 -32c22 0 31 7 74 31c9 5 43 25 57 31c37 101 79 195 111 300c4 13 10 18 17 23c5 4 10 7 16 7c10 0 15 1 23 1
c10 0 24 -3 28 -9zM589 646c0 -29 -28 -35 -32 -55c-3 -14 -16 -17 -27 -17c-9 0 -37 3 -56 32c-4 6 -5 14 -5 24c0 8 -2 16 -2 21c0 3 1 5 6 11c13 16 31 27 52 27c17 0 28 -3 47 -19c17 -15 17 -16 17 -24zM364 691c10 -11 12 -23 12 -33c0 -6 -1 -13 -5 -18
c-18 -22 -42 -49 -64 -49c-20 0 -35 11 -40 20c-5 10 -7 23 -7 34c0 14 4 31 13 42c10 12 28 17 49 17c16 0 35 -5 42 -13z" />
    <glyph glyph-name="Lslash" unicode="&#x141;" horiz-adv-x="450" 
d="M435 628c-9 0 -22 1 -34 1c-6 0 -11 -1 -15 -1c-43 0 -94 -2 -149 -15c-11 -3 -13 -7 -29 -18c-14 -9 -10 -15 -18 -17c-3 -1 -6 -1 -8 -1c-11 0 -18 5 -24 6c-11 0 -18 27 -18 28c0 13 45 59 79 66c101 21 199 9 293 29c64 13 65 23 75 23c7 0 22 -8 27 -30
c3 -17 5 -23 5 -26c0 -1 0 -2 -1 -3c-7 -12 -31 -23 -51 -27c-25 -5 -59 -8 -73 -10c-5 -1 -37 -4 -59 -5zM369 553c0 -26 -14 -37 -14 -51c0 -3 -1 -5 -6 -9c-6 -2 -11 -6 -15 -10c-8 -20 -15 -30 -27 -56c-50 -109 -95 -223 -136 -342c-2 -5 -4 -13 -4 -21
c0 -9 6 -19 15 -19c5 0 14 1 42 8c70 18 139 44 201 69c5 2 10 2 18 2c11 0 38 -10 54 -26c3 -3 7 -7 7 -12c0 -4 6 -7 6 -17c0 -4 0 -9 -3 -14c-4 -6 -12 -10 -42 -10c-9 0 -11 0 -19 -2c-102 -25 -185 -76 -294 -76c-39 0 -66 36 -82 58c-3 4 -4 8 -4 14c0 13 6 29 17 56
c6 15 0 15 13 53c49 147 122 288 185 428c6 11 25 11 31 11c10 0 7 -8 28 -13c12 -3 29 -13 29 -21z" />
    <glyph glyph-name="lslash" unicode="&#x142;" horiz-adv-x="232" 
d="M443 722c-9 0 -22 1 -34 1c-6 0 -11 -1 -15 -1c-43 0 -94 -2 -149 -15c-11 -3 -13 -7 -29 -18c-14 -9 -10 -15 -18 -17c-3 -1 -6 -1 -8 -1c-11 0 -18 5 -24 6c-11 0 -18 27 -18 28c0 13 45 59 79 66c101 21 199 9 293 29c64 13 65 23 75 23c7 0 22 -8 27 -30
c3 -17 5 -23 5 -26c0 -1 0 -2 -1 -3c-7 -12 -31 -23 -51 -27c-25 -5 -59 -8 -73 -10c-5 -1 -37 -4 -59 -5zM141 -18c-7 0 -90 22 -100 77c-2 11 -3 22 -3 34c0 46 21 92 43 149c35 92 106 226 168 332c17 28 23 85 62 85c14 0 24 2 33 2s20 -4 26 -11c6 -9 8 -18 8 -28
c0 -13 -4 -25 -10 -35c-77 -123 -165 -236 -215 -367c-16 -41 -38 -79 -38 -123c0 -12 1 -24 5 -37c3 -9 11 -12 20 -12c6 0 12 1 17 4c44 27 93 112 139 112c8 0 34 -7 34 -23c0 -13 -10 -17 -20 -28c-51 -55 -92 -131 -169 -131z" />
    <glyph glyph-name="OE" unicode="&#x152;" horiz-adv-x="754" 
d="M550 501l-24 -112c-3 -13 -4 -18 -4 -20c0 -4 2 -5 5 -5c4 0 9 2 19 6c17 7 93 36 142 36c20 0 37 -4 60 -12c12 -4 15 -6 15 -20c0 -46 -33 -46 -37 -46c-11 0 -20 3 -31 3c-66 0 -126 -36 -188 -52c-12 -3 -17 -5 -24 -23c-18 -47 -40 -104 -67 -165
c-4 -9 -6 -17 -6 -23c0 -4 6 -10 16 -10c22 0 94 15 160 37c57 19 101 64 165 64c15 0 39 -22 39 -35c0 -4 0 -18 -12 -27c-15 -11 -33 -17 -48 -25c-127 -68 -293 -92 -336 -92c-24 0 -42 13 -53 13c-26 0 -33 -17 -100 -17c-20 0 -50 3 -63 10c-71 39 -86 104 -86 161
c3 138 47 244 121 351c68 98 125 133 150 133c55 0 78 -7 100 -18c12 -6 23 -14 32 -26c3 -4 6 -5 10 -5s13 3 24 7c50 18 77 27 133 40s115 25 177 25c10 0 19 -3 29 -4c29 -3 56 -16 56 -39c0 -25 -7 -38 -16 -38c-28 0 -39 8 -88 8c-84 0 -182 -28 -246 -54
c-17 -7 -20 -10 -24 -26zM416 547c-2 13 -16 16 -29 16c-5 0 -13 0 -30 -16c-81 -77 -137 -171 -169 -274c-6 -19 -9 -32 -9 -42c0 -19 -6 -51 -6 -83c0 -40 12 -105 67 -105c19 0 45 11 63 32c26 31 50 72 88 173c3 8 4 11 4 14c0 4 -1 6 -5 12c-8 12 -10 19 -10 42
c0 6 8 9 21 11c14 2 17 5 21 15c22 56 38 128 38 139c0 14 -8 7 -17 13c-18 12 -24 34 -27 53z" />
    <glyph glyph-name="oe" unicode="&#x153;" horiz-adv-x="583" 
d="M261 62c-15 -21 -53 -64 -92 -64c-8 0 -16 2 -24 5c-28 11 -64 30 -80 62c-12 24 -17 50 -17 77c0 84 52 176 105 253c34 50 88 118 149 118c19 0 40 -8 61 -25c16 -13 22 -21 34 -49l4 -13c14 15 27 29 43 43c29 26 79 47 120 47c30 0 56 -12 67 -36c4 -9 5 -15 5 -24
c0 -38 -24 -94 -41 -115c-64 -79 -142 -169 -234 -220c-9 -5 -10 -7 -10 -12c0 -4 1 -18 17 -33c14 -13 21 -15 33 -15c15 0 37 9 79 35c70 43 93 72 168 128c4 3 9 5 16 5c12 0 25 -4 27 -7c4 -6 6 -11 6 -16c0 -7 -1 -11 -8 -18c-121 -121 -185 -161 -245 -187
c-7 -3 -16 -4 -26 -4c-34 0 -65 14 -98 37c-19 13 -25 27 -32 44c-2 5 -4 8 -6 8c-3 0 -5 -2 -21 -24zM307 419c-7 4 -11 11 -11 18c0 3 -1 4 -5 4c-11 0 -20 -8 -30 -21c-73 -95 -141 -194 -141 -301c0 -18 22 -47 37 -47c12 0 23 14 30 20c27 24 140 196 140 291
c0 21 -1 25 -20 36zM525 369c11 12 34 51 34 73c0 9 -2 12 -9 12s-21 -4 -34 -16c-68 -63 -132 -132 -156 -215c-2 -7 -3 -12 -3 -14s1 -3 2 -3c3 0 8 2 18 10c54 44 98 98 148 153z" />
    <glyph glyph-name="Scaron" unicode="&#x160;" horiz-adv-x="432" 
d="M451 596c22 -24 32 -57 36 -82c2 -12 6 -26 6 -32c0 -7 -10 -13 -21 -13c-4 0 -10 1 -17 3c-19 5 -37 26 -44 35c-11 15 -8 58 -38 75c-7 4 -13 6 -22 6c-7 0 -24 -30 -24 -79c0 -11 1 -45 14 -99c15 -64 58 -202 71 -281c6 -37 7 -48 7 -66c0 -41 -25 -75 -62 -89
c-8 -3 -16 -3 -39 -3c-89 0 -177 52 -240 131c-15 19 -46 41 -56 98c-2 11 -2 20 -2 30c0 9 12 29 22 29c17 0 38 -6 51 -14c19 -12 35 -30 35 -35c0 -15 -7 -18 -7 -40c0 -4 3 -10 6 -16c26 -47 85 -95 141 -114c9 -3 18 -4 26 -4c16 0 34 16 34 37c0 26 -2 57 -5 77
c-17 112 -56 201 -77 314c-2 11 -9 58 -9 77c0 10 0 17 1 22c7 33 11 91 63 91c53 0 106 -10 150 -58zM436 688c-8 -5 -11 -3 -15 -5c-2 -1 -4 -1 -6 -1c-6 0 -11 0 -18 10l-49 70c-19 28 -22 38 -22 44c0 4 1 5 1 11c0 5 1 9 7 18c8 12 12 16 16 16c2 0 9 3 17 3
c4 0 8 -2 9 -6c1 -6 4 -11 47 -83c3 -5 6 -7 10 -7c7 0 30 16 47 25l64 35c7 4 10 5 14 5c6 0 11 -2 11 -17c0 -5 2 -9 2 -15c0 -4 -1 -9 -4 -15s-6 -8 -20 -17z" />
    <glyph glyph-name="scaron" unicode="&#x161;" horiz-adv-x="296" 
d="M347 464c14 -15 19 -45 19 -65c0 -38 -15 -65 -29 -83c-8 -10 -9 -11 -14 -11c-11 0 -28 7 -35 13c-9 7 -15 17 -15 32c0 2 1 5 3 8c9 15 17 29 17 46c0 8 -3 20 -7 27s-14 14 -22 14c-7 0 -53 -57 -61 -103c-1 -7 -2 -14 -2 -26c0 -6 5 -51 7 -64c9 -75 32 -187 32 -228
c0 -8 -4 -14 -8 -18c-18 -18 -36 -36 -63 -36c-9 0 -20 2 -25 4c-66 27 -113 79 -146 134c-3 5 -6 12 -6 15c0 15 15 37 36 37c20 0 29 -2 38 -14c23 -31 35 -69 65 -96c10 -9 15 -11 20 -11c6 0 10 4 10 8s0 6 -5 31c-14 66 -32 216 -32 236c0 27 12 84 36 122
c29 46 70 64 89 64c55 0 77 -14 98 -36zM355 546c-8 -5 -11 -3 -15 -5c-2 -1 -4 -1 -6 -1c-6 0 -11 0 -18 10l-49 70c-19 28 -22 38 -22 44c0 4 1 5 1 11c0 5 1 9 7 18c8 12 12 16 16 16c2 0 9 3 17 3c4 0 8 -2 9 -6c1 -6 4 -11 47 -83c3 -5 6 -7 10 -7c7 0 30 16 47 25
l64 35c7 4 10 5 14 5c6 0 11 -2 11 -17c0 -5 2 -9 2 -15c0 -4 -1 -9 -4 -15s-6 -8 -20 -17z" />
    <glyph glyph-name="Ydieresis" unicode="&#x178;" horiz-adv-x="502" 
d="M257 668c6 -1 13 -18 13 -29c0 -28 -15 -34 -23 -72c-22 -106 -45 -235 -45 -320c0 -4 6 -10 19 -10c8 0 20 2 30 8c48 30 84 59 113 88c21 21 60 70 109 165c31 61 57 101 64 110c5 7 8 10 11 10c13 0 43 -5 60 -22c4 -4 11 -24 11 -29c0 -3 -1 -7 -6 -14
c-141 -198 -230 -480 -282 -864c-3 -20 -6 -24 -6 -30c0 -7 -1 -8 -6 -8c-6 0 -13 3 -26 5c-26 4 -44 13 -47 26c-1 5 -2 19 -2 30c0 44 14 81 22 118c4 17 7 38 11 60c21 113 57 235 92 352l-8 -9c-19 -21 -68 -65 -133 -65c-7 0 -42 17 -68 40c-25 22 -40 46 -40 58
c0 3 2 65 5 107c1 13 5 17 5 36c0 21 6 26 9 45c12 74 27 144 47 214c2 7 3 9 8 9c25 0 45 -6 63 -9zM392 820c6 -11 11 -25 11 -32c0 -25 -22 -42 -23 -49c-1 -11 -28 -17 -39 -17c-3 0 -12 0 -15 2c-12 8 -13 16 -20 23c-2 2 -2 12 -2 29c0 7 8 31 13 41c7 13 19 16 35 16
c11 0 33 -1 40 -13zM577 762c2 -9 11 -21 11 -32c0 -8 0 -10 -2 -16c-5 -14 -16 -31 -25 -36c-6 -3 -22 -4 -29 -4c-11 0 -20 6 -24 15c-6 14 -21 23 -21 43c0 8 11 49 31 49c3 0 13 -1 20 -1c17 0 36 -6 39 -18z" />
    <glyph glyph-name="Zcaron" unicode="&#x17d;" horiz-adv-x="560" 
d="M659 555c0 -36 -6 -45 -48 -90c-21 -23 -82 -78 -100 -92c-5 -4 -5 -6 -5 -8c0 -3 3 -5 9 -5c42 0 79 -10 98 -34c4 -5 5 -10 5 -17c0 -13 -9 -22 -16 -22c-6 0 -9 2 -52 2c-82 0 -149 -25 -224 -36c-69 -59 -167 -103 -207 -183c-3 -6 -6 -13 -6 -18c0 -8 32 -25 55 -25
c17 0 32 -8 56 -8c69 0 160 33 241 62c14 5 23 8 28 8s32 -3 36 -10c10 -18 32 -36 32 -53c0 -7 -2 -8 -7 -8c-11 0 -7 4 -17 4c-8 0 -5 -5 -14 -9c-83 -37 -184 -62 -269 -62c-69 0 -137 15 -200 55c-8 5 -42 51 -42 70c0 13 0 18 3 25c12 28 45 63 134 134c5 4 6 5 6 7
c0 3 -1 4 -7 5c-18 3 -39 10 -45 17c-4 5 -8 15 -8 20c0 9 3 5 3 26c0 15 16 23 25 23c6 0 16 -3 22 -5c32 -10 52 -14 60 -14c12 0 67 8 77 14c82 50 215 137 271 220c3 4 7 10 7 14c0 21 -81 28 -123 28c-54 0 -114 -14 -136 -57c-2 -4 -14 -7 -23 -7c-10 0 -21 4 -27 7
c-20 10 -25 25 -33 60c0 9 0 10 4 13c52 35 126 52 200 52c64 0 130 -14 184 -45c7 -4 53 -42 53 -58zM540 704c-8 -5 -11 -3 -15 -5c-2 -1 -4 -1 -6 -1c-6 0 -11 0 -18 10l-49 70c-19 28 -22 38 -22 44c0 4 1 5 1 11c0 5 1 9 7 18c8 12 12 16 16 16c2 0 9 3 17 3
c4 0 8 -2 9 -6c1 -6 4 -11 47 -83c3 -5 6 -7 10 -7c7 0 30 16 47 25l64 35c7 4 10 5 14 5c6 0 11 -2 11 -17c0 -5 2 -9 2 -15c0 -4 -1 -9 -4 -15s-6 -8 -20 -17z" />
    <glyph glyph-name="zcaron" unicode="&#x17e;" horiz-adv-x="384" 
d="M428 410c3 -8 4 -15 4 -21c0 -31 -25 -43 -71 -80c-5 -4 -6 -5 -6 -8s4 -3 11 -3c26 0 60 -6 79 -27c7 -8 8 -10 8 -15c-4 -10 -9 -15 -23 -15c-35 0 -109 -10 -169 -28c-27 -8 -30 -10 -43 -22c-31 -29 -72 -80 -96 -101c-8 -7 -12 -23 -12 -27c0 -6 3 -10 14 -15
c13 -6 20 -8 29 -8c20 0 44 12 66 12c43 0 76 39 117 39c14 0 29 -4 45 -18c6 -5 7 -11 7 -19c0 -3 0 -6 -10 -10c-65 -26 -137 -61 -213 -61c-35 0 -78 10 -105 26c-24 14 -30 40 -30 62c0 7 1 20 3 25c13 28 36 50 57 73c10 11 17 19 17 23s0 5 -13 9c-12 4 -24 8 -31 21
c-9 16 -12 22 -12 33c0 9 13 19 26 19c22 0 41 -14 74 -14c68 0 93 65 139 90c26 14 47 38 47 50c0 5 -10 7 -16 7c-16 0 -20 -7 -50 -10c-39 -4 -70 -23 -93 -50c-1 -1 -2 -2 -9 -2s-24 14 -29 29c-3 9 -5 17 -5 24c0 17 8 27 20 30c49 12 107 33 160 33
c39 0 79 -14 87 -24c6 -7 21 -14 26 -27zM388 510c-8 -5 -11 -3 -15 -5c-2 -1 -4 -1 -6 -1c-6 0 -11 0 -18 10l-49 70c-19 28 -22 38 -22 44c0 4 1 5 1 11c0 5 1 9 7 18c8 12 12 16 16 16c2 0 9 3 17 3c4 0 8 -2 9 -6c1 -6 4 -11 47 -83c3 -5 6 -7 10 -7c7 0 30 16 47 25
l64 35c7 4 10 5 14 5c6 0 11 -2 11 -17c0 -5 2 -9 2 -15c0 -4 -1 -9 -4 -15s-6 -8 -20 -17z" />
    <glyph glyph-name="florin" unicode="&#x192;" horiz-adv-x="420" 
d="M276 271c-97 -249 -112 -282 -132 -323c-61 -126 -177 -140 -210 -140c-14 0 -32 4 -46 4c-44 0 -58 1 -58 14c0 22 12 29 16 45c5 14 22 23 50 23c71 0 41 -6 62 -6c26 0 49 9 69 29c12 12 32 43 55 100c38 95 67 172 90 234c3 8 5 13 5 15c0 6 -2 8 -5 11
c-13 11 -56 14 -56 43c0 5 -3 12 -3 19c0 10 9 22 14 22c15 0 54 -6 72 -6c4 0 14 2 18 14c27 75 13 30 52 131c49 128 135 177 230 177c18 0 38 -3 56 -5c9 -1 21 -2 21 -16c0 -7 3 -5 3 -11c0 -4 -1 -10 -3 -15c-6 -19 -11 -28 -27 -28c-13 0 -8 -8 -21 -8
c-40 0 -34 4 -50 4c-28 0 -84 -4 -135 -142l-33 -88c0 -5 0 -9 6 -9c14 0 74 7 99 7h21c11 0 26 -11 29 -23s9 -8 9 -24c0 -11 -4 -19 -8 -19c-74 0 -100 -20 -171 -20c-9 0 -16 -4 -19 -9z" />
    <glyph glyph-name="uni02BB" unicode="&#x2bb;" horiz-adv-x="192" 
d="M198 536c9 16 45 80 48 88c5 13 14 19 24 19c3 0 7 -1 13 -1s22 -3 30 -11s11 -22 11 -35c0 -28 -22 -43 -52 -93l-62 -105c-6 -10 -23 -16 -32 -16c-19 0 -28 6 -33 7c-9 2 -15 13 -15 24c0 4 1 6 6 15z" />
    <glyph glyph-name="afii57929" unicode="&#x2bc;" horiz-adv-x="192" 
d="M198 536c9 16 45 80 48 88c5 13 14 19 24 19c3 0 7 -1 13 -1s22 -3 30 -11s11 -22 11 -35c0 -28 -22 -43 -52 -93l-62 -105c-6 -10 -23 -16 -32 -16c-19 0 -28 6 -33 7c-9 2 -15 13 -15 24c0 4 1 6 6 15z" />
    <glyph glyph-name="circumflex" unicode="&#x2c6;" horiz-adv-x="510" 
d="M473 833l60 -103c9 -15 11 -20 11 -25c0 -10 -9 -12 -14 -19c-6 -9 -8 -11 -18 -11c-3 0 -13 6 -18 14l-63 86c-3 5 -6 6 -8 6s-3 0 -10 -3c-79 -33 -97 -44 -105 -51c-1 -1 -4 -1 -5 -1c-12 0 -18 9 -24 12c-5 3 -5 9 -5 24c0 11 0 17 2 21c4 8 7 8 9 11c2 4 9 9 55 25
l89 31c6 2 10 3 13 3c10 0 17 -3 19 -7c3 -6 6 -2 12 -13z" />
    <glyph glyph-name="caron" unicode="&#x2c7;" horiz-adv-x="510" 
d="M424 692c-8 -5 -11 -3 -15 -5c-2 -1 -4 -1 -6 -1c-6 0 -11 0 -18 10l-49 70c-19 28 -22 38 -22 44c0 4 1 5 1 11c0 5 1 9 7 18c8 12 12 16 16 16c2 0 9 3 17 3c4 0 8 -2 9 -6c1 -6 4 -11 47 -83c3 -5 6 -7 10 -7c7 0 30 16 47 25l64 35c7 4 10 5 14 5c6 0 11 -2 11 -17
c0 -5 2 -9 2 -15c0 -4 -1 -9 -4 -15s-6 -8 -20 -17z" />
    <glyph glyph-name="breve" unicode="&#x2d8;" horiz-adv-x="510" 
d="M359 804c0 -2 -1 -5 -1 -8c0 -6 12 -46 60 -46c55 0 91 67 111 67c13 0 17 -1 18 -11c1 -9 12 -13 12 -28c0 -6 -5 -6 -11 -15c-24 -37 -83 -77 -139 -77c-74 0 -113 62 -128 116c-2 7 -3 11 -3 14c0 2 2 6 5 11c7 12 20 5 32 17c7 7 9 7 12 7c2 0 5 0 11 -5
c8 -7 21 -34 21 -42z" />
    <glyph glyph-name="dotaccent" unicode="&#x2d9;" horiz-adv-x="510" 
d="M472 802c11 -11 13 -23 13 -34c0 -6 -1 -13 -5 -18c-19 -23 -44 -51 -66 -51c-21 0 -36 12 -42 21c-3 5 -7 18 -7 35c0 19 5 31 14 43c10 13 28 18 50 18c17 0 36 -5 43 -14z" />
    <glyph glyph-name="ring" unicode="&#x2da;" horiz-adv-x="510" 
d="M506 800c1 -8 2 -16 2 -24c0 -28 -8 -56 -26 -83c-9 -13 -28 -29 -58 -29c-20 0 -53 6 -63 13c-27 19 -36 38 -36 57c0 30 33 95 63 106c11 4 24 7 37 7c8 0 18 -1 26 -3c30 -8 53 -32 55 -44zM442 799c-4 6 -10 9 -12 9c-9 0 -12 -2 -16 -7c-14 -20 -27 -41 -27 -63
c0 -9 2 -18 7 -25c4 -6 10 -10 16 -10c5 0 11 1 14 6c12 21 27 41 27 62c0 10 -4 20 -9 28z" />
    <glyph glyph-name="ogonek" unicode="&#x2db;" horiz-adv-x="348" 
d="M184 48c-25 -25 -69 -81 -69 -125c0 -26 19 -31 33 -31c24 0 9 9 44 9c8 0 14 -1 18 -2c7 -2 7 -3 7 -7c0 -12 0 -13 -7 -22s0 -12 -10 -25c-3 -4 -6 -7 -9 -8l-13 -4c-7 -2 -26 -3 -37 -3c-66 0 -87 38 -87 80c0 57 41 116 65 138h65z" />
    <glyph glyph-name="tilde" unicode="&#x2dc;" horiz-adv-x="510" 
d="M265 755c0 10 -8 26 -8 37c0 3 3 12 9 14l63 23c24 9 30 9 45 9c19 0 30 -15 48 -42c21 -31 24 -35 41 -35c6 0 72 24 80 24c12 0 19 -10 20 -19c1 -8 4 -10 4 -21c0 -5 -3 -7 -8 -10c-28 -18 -71 -45 -98 -45c-21 0 -35 4 -53 18c-19 15 -32 47 -41 53c-3 2 -6 3 -9 3
c-8 0 -21 -4 -49 -21c-5 -3 -8 -3 -10 -3c-16 0 -34 4 -34 15z" />
    <glyph glyph-name="hungarumlaut" unicode="&#x2dd;" horiz-adv-x="510" 
d="M570 784l-104 -95c-5 -5 -10 -8 -12 -8c-6 0 -5 4 -9 5c-16 3 -19 6 -22 9c-8 8 -11 14 -11 20c0 2 0 4 2 7c8 13 14 17 18 21c16 16 17 20 25 29l75 81c13 14 26 24 46 24c9 0 14 -13 26 -21c9 -6 13 -14 13 -26c0 -8 -20 -32 -30 -36c-5 -2 -13 -6 -17 -10zM343 813
l38 50c15 20 27 31 48 53c1 1 3 2 4 2c5 0 12 -3 16 -4c5 -1 11 -7 23 -16c7 -5 16 -15 16 -23c0 -12 -11 -18 -14 -28c-1 -2 -5 -6 -12 -9c-11 -5 -22 -19 -40 -39l-61 -70c-12 -14 -18 -16 -29 -16c-12 0 -15 7 -16 13c-4 24 -20 15 -20 25c0 8 6 8 47 62z" />
    <glyph glyph-name="gravecomb" unicode="&#x300;" horiz-adv-x="1" 
d="M-78 614c-13 9 -44 24 -66 33c-10 4 -12 15 -12 33c0 12 3 18 11 26c7 7 17 12 24 12c6 0 10 -3 14 -3c5 0 9 -6 55 -38l102 -70c16 -11 26 -20 26 -25c0 -7 -3 -11 -5 -17c-2 -7 -2 -12 -3 -16c-2 -6 -8 -10 -13 -10c-13 0 -19 1 -31 9z" />
    <glyph glyph-name="acutecomb" unicode="&#x301;" horiz-adv-x="1" 
d="M9 646c15 6 62 25 77 35c3 2 10 3 14 3c8 0 13 -2 19 -8c9 -9 11 -15 11 -28c0 -16 -1 -21 -5 -26c-9 -11 -24 -17 -72 -32l-118 -37c-7 -2 -13 -3 -20 -3c-5 0 -9 1 -11 2c-6 4 -11 8 -15 14s-6 8 -9 11c-2 2 -3 6 -3 8c0 4 1 9 5 14c3 4 10 5 13 5c4 0 12 3 25 8z" />
    <glyph glyph-name="uni0302" unicode="&#x302;" horiz-adv-x="1" 
d="M18 695l60 -103c9 -15 11 -20 11 -25c0 -10 -9 -12 -14 -19c-6 -9 -8 -11 -18 -11c-3 0 -13 6 -18 14l-63 86c-3 5 -6 6 -8 6s-3 0 -10 -3c-79 -33 -97 -44 -105 -51c-1 -1 -4 -1 -5 -1c-12 0 -18 9 -24 12c-5 3 -5 9 -5 24c0 11 0 17 2 21c4 8 7 8 9 11c2 4 9 9 55 25
l89 31c6 2 10 3 13 3c10 0 17 -3 19 -7c3 -6 6 -2 12 -13z" />
    <glyph glyph-name="tildecomb" unicode="&#x303;" horiz-adv-x="1" 
d="M-156 619c0 10 -8 26 -8 37c0 3 3 12 9 14l63 23c24 9 30 9 45 9c19 0 30 -15 48 -42c21 -31 24 -35 41 -35c6 0 72 24 80 24c12 0 19 -10 20 -19c1 -8 4 -10 4 -21c0 -5 -3 -7 -8 -10c-28 -18 -71 -45 -98 -45c-21 0 -35 4 -53 18c-19 15 -32 47 -41 53c-3 2 -6 3 -9 3
c-8 0 -21 -4 -49 -21c-5 -3 -8 -3 -10 -3c-16 0 -34 4 -34 15z" />
    <glyph glyph-name="uni0304" unicode="&#x304;" horiz-adv-x="1" 
d="M-85 680c43 0 104 3 130 3c10 0 8 -8 14 -14c3 -3 4 -4 4 -7s-2 -7 -2 -11c0 -16 0 -20 -6 -31c-4 -7 -8 -8 -16 -8c-9 0 -26 1 -37 1c-19 0 -106 -2 -157 -2c-40 0 -72 2 -78 4c-14 5 -22 24 -22 55c0 9 10 14 34 14c32 0 46 -4 136 -4z" />
    <glyph glyph-name="uni0306" unicode="&#x306;" horiz-adv-x="1" 
d="M-130 671c0 -2 -1 -5 -1 -8c0 -6 12 -46 60 -46c55 0 91 67 111 67c13 0 17 -1 18 -11c1 -9 12 -13 12 -28c0 -6 -5 -6 -11 -15c-24 -37 -83 -77 -139 -77c-74 0 -113 62 -128 116c-2 7 -3 11 -3 14c0 2 2 6 5 11c7 12 20 5 32 17c7 7 9 7 12 7c2 0 5 0 11 -5
c8 -7 21 -34 21 -42z" />
    <glyph glyph-name="uni0307" unicode="&#x307;" horiz-adv-x="1" 
d="M145 681c10 -11 12 -23 12 -33c0 -6 -1 -13 -5 -18c-18 -22 -42 -49 -64 -49c-20 0 -35 11 -40 20c-5 10 -7 23 -7 34c0 14 4 31 13 42c10 12 28 17 49 17c16 0 35 -5 42 -13z" />
    <glyph glyph-name="uni0308" unicode="&#x308;" horiz-adv-x="1" 
d="M-151 694c6 -11 11 -25 11 -32c0 -25 -22 -42 -23 -49c-1 -11 -28 -17 -39 -17c-3 0 -12 0 -15 2c-12 8 -13 16 -20 23c-2 2 -2 12 -2 29c0 7 8 31 13 41c7 13 19 16 35 16c11 0 33 -1 40 -13zM34 636c2 -9 11 -21 11 -32c0 -8 0 -12 -2 -16c-11 -22 -17 -32 -25 -36
c-6 -3 -22 -4 -29 -4c-11 0 -19 4 -24 15c-6 14 -21 23 -21 43c0 8 11 49 31 49c3 0 13 -1 20 -1c17 0 36 -6 39 -18z" />
    <glyph glyph-name="uni030A" unicode="&#x30a;" horiz-adv-x="1" 
d="M-3 674c1 -8 2 -16 2 -24c0 -28 -8 -56 -26 -83c-9 -13 -28 -29 -58 -29c-20 0 -53 6 -63 13c-27 19 -36 38 -36 57c0 30 33 95 63 106c11 4 24 7 37 7c8 0 18 -1 26 -3c30 -8 53 -32 55 -44zM-67 673c-4 6 -10 9 -12 9c-9 0 -12 -2 -16 -7c-14 -20 -27 -41 -27 -63
c0 -9 2 -18 7 -25c4 -6 10 -10 16 -10c5 0 11 1 14 6c12 21 27 41 27 62c0 10 -4 20 -9 28z" />
    <glyph glyph-name="uni030B" unicode="&#x30b;" horiz-adv-x="1" 
d="M61 612l-104 -95c-5 -5 -10 -8 -12 -8c-6 0 -5 4 -9 5c-16 3 -19 6 -22 9c-8 8 -11 14 -11 20c0 2 0 4 2 7c8 13 14 17 18 21c16 16 17 20 25 29l75 81c13 14 26 24 46 24c9 0 14 -13 26 -21c9 -6 13 -14 13 -26c0 -8 -20 -32 -30 -36c-5 -2 -13 -6 -17 -10zM-166 641
l38 50c15 20 27 31 48 53c1 1 3 2 4 2c5 0 12 -3 16 -4c5 -1 11 -7 23 -16c7 -5 16 -15 16 -23c0 -12 -11 -18 -14 -28c-1 -2 -5 -6 -12 -9c-11 -5 -22 -19 -40 -39l-61 -70c-12 -14 -18 -16 -29 -16c-12 0 -15 7 -16 13c-4 24 -20 15 -20 25c0 8 6 8 47 62z" />
    <glyph glyph-name="uni030C" unicode="&#x30c;" horiz-adv-x="1" 
d="M19 548c-8 -5 -11 -3 -15 -5c-2 -1 -4 -1 -6 -1c-6 0 -11 0 -18 10l-49 70c-19 28 -22 38 -22 44c0 4 1 5 1 11c0 5 1 9 7 18c8 12 12 16 16 16c2 0 9 3 17 3c4 0 8 -2 9 -6c1 -6 4 -11 47 -83c3 -5 6 -7 10 -7c7 0 30 16 47 25l64 35c7 4 10 5 14 5c6 0 11 -2 11 -17
c0 -5 2 -9 2 -15c0 -4 -1 -9 -4 -15s-6 -8 -20 -17z" />
    <glyph glyph-name="uni0312" unicode="&#x312;" horiz-adv-x="1" 
d="M-149 605l-43 -73c-9 -15 -11 -19 -27 -19c-10 0 -11 13 -19 24c-11 16 -17 15 -17 30c0 2 1 5 2 8l43 64c7 10 20 18 22 18c4 0 12 -1 17 -3c3 -1 13 -3 17 -3c7 0 15 -15 15 -21c0 -3 0 -7 -6 -18z" />
    <glyph glyph-name="uni0313" unicode="&#x313;" horiz-adv-x="1" 
d="M-185 595l43 73c9 15 11 19 27 19c10 0 11 -13 19 -24c11 -16 17 -15 17 -30c0 -2 -1 -5 -2 -8l-43 -64c-7 -10 -20 -18 -22 -18c-4 0 -12 1 -17 3c-3 1 -13 3 -17 3c-7 0 -15 15 -15 21c0 3 0 7 6 18z" />
    <glyph glyph-name="uni0326" unicode="&#x326;" horiz-adv-x="0" 
d="M-193 -117l43 73c9 15 11 19 27 19c10 0 11 -13 19 -24c11 -16 17 -15 17 -30c0 -2 -1 -5 -2 -8l-43 -64c-7 -10 -20 -18 -22 -18c-4 0 -12 1 -17 3c-3 1 -13 3 -17 3c-7 0 -15 15 -15 21c0 3 0 7 6 18z" />
    <glyph glyph-name="uni0327" unicode="&#x327;" horiz-adv-x="1" 
d="M-211 59h54l33 -52c5 -7 10 -18 10 -38c0 -10 -7 -33 -17 -47c-32 -46 -62 -60 -91 -60c-20 0 -40 6 -59 13c-33 12 -42 25 -49 35c-5 7 -7 11 -7 16c0 7 5 13 15 23c3 3 6 4 8 4c4 0 7 -3 11 -3c6 0 18 -7 19 -14c1 -9 18 -20 36 -20c31 0 45 25 64 63c5 10 5 15 5 19
c0 8 -2 14 -5 19z" />
    <glyph glyph-name="uni0328" unicode="&#x328;" horiz-adv-x="1" 
d="M-163 80c-25 -25 -69 -81 -69 -125c0 -26 19 -31 33 -31c24 0 9 9 44 9c8 0 14 -1 18 -2c7 -2 7 -3 7 -7c0 -12 0 -13 -7 -22s0 -12 -10 -25c-3 -4 -6 -7 -9 -8l-13 -4c-7 -2 -26 -3 -37 -3c-66 0 -87 38 -87 80c0 57 41 116 65 138h65z" />
    <glyph glyph-name="uni0335" unicode="&#x335;" horiz-adv-x="1" 
d="M-85 204c43 0 104 3 130 3c10 0 8 -8 14 -14c3 -3 4 -4 4 -7s-2 -7 -2 -11c0 -16 0 -20 -6 -31c-4 -7 -8 -8 -16 -8c-9 0 -26 1 -37 1c-19 0 -106 -2 -157 -2c-40 0 -72 2 -78 4c-14 5 -22 24 -22 55c0 9 10 14 34 14c32 0 46 -4 136 -4z" />
    <glyph glyph-name="uni0336" unicode="&#x336;" horiz-adv-x="1" 
d="M75 182c0 -16 -3 -32 -8 -45c-2 -5 -12 -5 -15 -5h-662c-13 0 -15 1 -19 6c-8 10 -14 26 -14 57c0 9 6 15 30 15h659c11 0 14 -2 26 -14c3 -3 3 -8 3 -14z" />
    <glyph glyph-name="uni0394" unicode="&#x394;" horiz-adv-x="600" 
d="M119 -22c-19 1 -27 1 -36 1h-46c-20 0 -27 64 -27 74c0 26 19 13 88 136c88 157 185 313 314 494c6 8 17 21 21 21c14 0 42 8 69 8c18 0 22 -2 24 -6c5 -10 20 -4 20 -12c0 -3 0 -17 -7 -132c-2 -32 -4 -90 -4 -157c0 -102 5 -224 29 -356c1 -5 5 -8 13 -10
c9 -2 13 -10 14 -18c1 -12 2 -20 2 -26c0 -18 -7 -15 -39 -33c-7 -4 -12 -7 -24 -7c-20 0 -26 0 -38 1c-48 4 -143 14 -186 16c-53 2 -107 2 -187 6zM439 47c18 -2 20 -2 23 -2c5 0 7 4 7 8c-3 29 -19 178 -19 529c0 13 -2 14 -5 14s-5 -1 -11 -10
c-76 -116 -149 -234 -208 -337c-48 -84 -96 -168 -96 -175c0 -3 2 -12 14 -14c38 -6 162 2 295 -13z" />
    <glyph glyph-name="uni03A9" unicode="&#x3a9;" horiz-adv-x="722" 
d="M320 69c9 -6 11 -9 11 -18c0 -15 -12 -28 -12 -42c0 -5 -11 -15 -45 -15c-10 0 -95 -7 -131 -7c-52 0 -54 4 -54 9c0 3 0 4 -4 6c-14 7 -17 17 -17 46c0 11 3 14 21 14c52 0 44 -2 90 -2c19 0 26 1 26 7c0 3 -1 5 -14 19c-37 39 -69 102 -69 201c0 220 183 380 343 380
c80 0 136 -8 180 -65c22 -28 49 -46 70 -96c10 -24 21 -58 21 -112c0 -70 -38 -217 -144 -306c-6 -5 -6 -7 -6 -9c0 -4 3 -5 9 -5c5 0 71 5 88 5c9 0 18 -7 18 -10c0 -5 -5 -5 -5 -12c0 -3 2 -3 2 -11c0 -11 -8 -22 -12 -33c-4 -7 -9 -8 -12 -8c-52 0 -54 -3 -85 -3
c-21 0 -36 1 -59 1c-17 0 -62 -3 -69 -3c-12 0 -15 12 -15 18c0 24 13 32 13 40s1 11 14 18c10 5 9 8 17 13s24 18 56 51c25 25 101 139 101 267c0 139 -71 187 -166 187c-127 0 -267 -136 -267 -327c0 -100 37 -152 106 -198z" />
    <glyph glyph-name="uni03BC" unicode="&#x3bc;" horiz-adv-x="510" 
d="M139 122c-2 0 -8 -11 -52 -105c-42 -90 -74 -156 -125 -259c-6 -12 -21 -42 -32 -42c-10 0 -25 2 -31 2c-9 0 -15 15 -26 16c-8 1 -9 13 -9 26c0 22 5 29 49 78c8 9 18 27 39 66c77 142 159 303 256 516c7 15 15 30 21 30c16 0 17 9 26 9c10 0 33 0 39 -11
c4 -7 5 -20 5 -31c0 -10 -16 -24 -21 -39c-8 -23 -32 -56 -40 -92c-18 -81 -29 -91 -29 -192c0 -24 3 -41 12 -41c3 0 13 4 20 10c17 14 62 74 80 97c55 70 65 85 104 192c7 19 11 28 39 28c9 0 19 -10 27 -10c13 0 18 -7 18 -13c0 -16 -3 -25 -7 -34
c-34 -73 -61 -147 -73 -226c-3 -21 -6 -46 -6 -74c0 -25 16 -16 16 -71c0 -11 -12 -15 -31 -15c-14 0 -20 10 -35 10c-11 0 -14 18 -16 33c-3 21 -3 32 -3 52c0 25 2 35 2 45c0 3 -2 9 -5 9c-4 0 -25 -33 -31 -41c-35 -47 -77 -70 -89 -70c-18 0 -37 3 -56 14s-25 17 -29 28
c-2 7 -5 21 -5 55c0 12 0 25 1 41c0 5 0 9 -3 9z" />
    <glyph glyph-name="pi" unicode="&#x3c0;" horiz-adv-x="576" 
d="M488 394c0 -1 3 -3 6 -4c6 -2 18 -8 18 -24c0 -2 -2 -8 -8 -24c-14 -37 -43 -84 -56 -130c-10 -36 -31 -75 -31 -123c0 -12 2 -24 7 -37c3 -9 11 -12 19 -12c49 0 85 76 107 76c14 0 21 7 36 7c16 0 22 -2 22 -18c0 -15 -5 -28 -17 -40c-54 -54 -73 -91 -141 -91
c-8 0 -97 25 -110 80c-3 11 -5 26 -5 34c0 51 12 86 31 140c6 17 40 91 65 145c5 11 5 13 5 16c0 2 -4 3 -8 3c-25 -6 -98 -12 -108 -12c-7 0 -12 -2 -16 -17c-14 -52 -61 -152 -64 -164c-3 -11 -14 -24 -16 -36c-6 -33 -36 -95 -46 -142c-5 -24 -1 -36 -26 -36
c-4 0 -20 -9 -24 -9c-9 0 -31 13 -37 13c-7 0 -7 10 -7 22c0 8 3 16 6 23c31 74 54 140 87 219l43 106c1 2 2 5 2 8c0 2 -1 3 -5 3c-3 0 -13 -1 -27 -4c-19 -4 -26 -18 -55 -18c-13 0 -30 1 -36 4c-8 4 -13 8 -15 15c-3 12 -12 3 -12 17c0 15 6 23 8 34c1 6 2 7 11 7
c31 0 149 25 328 36c33 2 51 3 101 9c34 4 47 5 64 5c39 0 69 -8 69 -17c0 -12 10 -11 10 -25c0 -15 -7 -13 -9 -24c-1 -5 -3 -8 -18 -8c-5 0 -11 1 -20 1c-33 0 -68 -3 -122 -6c-4 0 -6 0 -6 -2z" />
    <glyph glyph-name="uni2007" unicode="&#x2007;" horiz-adv-x="440" 
 />
    <glyph glyph-name="uni2008" unicode="&#x2008;" horiz-adv-x="284" 
 />
    <glyph glyph-name="uni200B" unicode="&#x200b;" horiz-adv-x="0" 
 />
    <glyph glyph-name="uniFEFF" unicode="&#xfeff;" horiz-adv-x="0" 
 />
    <glyph glyph-name="endash" unicode="&#x2013;" horiz-adv-x="590" 
d="M553 287c0 -16 -3 -29 -8 -42c-2 -5 -8 -7 -11 -7h-24c-76 0 -159 -7 -240 -7c-52 0 -114 2 -128 8c-12 5 -22 30 -22 61c0 9 11 16 34 16c16 0 68 -8 158 -8c60 0 91 4 137 4c36 0 41 5 63 5c11 0 26 -3 38 -15c3 -3 3 -9 3 -15z" />
    <glyph glyph-name="emdash" unicode="&#x2014;" horiz-adv-x="875" 
d="M838 286c0 -16 -3 -32 -8 -45c-2 -5 -12 -5 -15 -5h-662c-13 0 -15 1 -19 6c-8 10 -14 26 -14 57c0 9 6 15 30 15h659c11 0 14 -2 26 -14c3 -3 3 -8 3 -14z" />
    <glyph glyph-name="quoteleft" unicode="&#x2018;" horiz-adv-x="192" 
d="M198 536c9 16 45 80 48 88c5 13 14 19 24 19c3 0 7 -1 13 -1s22 -3 30 -11s11 -22 11 -35c0 -28 -22 -43 -52 -93l-62 -105c-6 -10 -23 -16 -32 -16c-19 0 -28 6 -33 7c-9 2 -15 13 -15 24c0 4 1 6 6 15z" />
    <glyph glyph-name="quoteright" unicode="&#x2019;" horiz-adv-x="192" 
d="M198 536c9 16 45 80 48 88c5 13 14 19 24 19c3 0 7 -1 13 -1s22 -3 30 -11s11 -22 11 -35c0 -28 -22 -43 -52 -93l-62 -105c-6 -10 -23 -16 -32 -16c-19 0 -28 6 -33 7c-9 2 -15 13 -15 24c0 4 1 6 6 15z" />
    <glyph glyph-name="quotesinglbase" unicode="&#x201a;" horiz-adv-x="192" 
d="M20 1c9 16 45 80 48 88c5 13 14 19 24 19c3 0 7 -1 13 -1s22 -3 30 -11s11 -22 11 -35c0 -28 -22 -43 -52 -93l-62 -105c-6 -10 -23 -16 -32 -16c-19 0 -28 6 -33 7c-9 2 -15 13 -15 24c0 4 1 6 6 15z" />
    <glyph glyph-name="quotedblleft" unicode="&#x201c;" horiz-adv-x="340" 
d="M349 536c13 23 47 84 50 92c5 13 12 15 23 15c5 0 30 0 42 -12c8 -8 11 -22 11 -34c0 -29 -31 -59 -52 -94l-61 -103c-6 -10 -19 -18 -34 -18c-14 0 -26 6 -32 7c-9 1 -15 14 -15 20s1 10 6 19zM216 568c11 20 30 59 40 83c6 14 14 21 27 21c9 0 20 -1 35 -20
c6 -8 17 -15 17 -24c0 -8 0 -12 -3 -16c-21 -32 -42 -70 -50 -85l-52 -98c-6 -11 -27 -20 -36 -20c-7 0 -13 2 -20 4s-13 3 -19 3c-7 0 -16 16 -16 22s4 5 13 20c22 37 44 74 64 110z" />
    <glyph glyph-name="quotedblright" unicode="&#x201d;" horiz-adv-x="340" 
d="M349 536c13 23 47 84 50 92c5 13 12 15 23 15c5 0 30 0 42 -12c8 -8 11 -22 11 -34c0 -29 -31 -59 -52 -94l-61 -103c-6 -10 -19 -18 -34 -18c-14 0 -26 6 -32 7c-9 1 -15 14 -15 20s1 10 6 19zM216 568c11 20 30 59 40 83c6 14 14 21 27 21c9 0 20 -1 35 -20
c6 -8 17 -15 17 -24c0 -8 0 -12 -3 -16c-21 -32 -42 -70 -50 -85l-52 -98c-6 -11 -27 -20 -36 -20c-7 0 -13 2 -20 4s-13 3 -19 3c-7 0 -16 16 -16 22s4 5 13 20c22 37 44 74 64 110z" />
    <glyph glyph-name="quotedblbase" unicode="&#x201e;" horiz-adv-x="340" 
d="M167 -6c13 23 47 84 50 92c5 13 12 15 23 15c5 0 30 0 42 -12c8 -8 11 -22 11 -34c0 -29 -31 -59 -52 -94l-61 -103c-6 -10 -19 -18 -34 -18c-14 0 -26 6 -32 7c-9 1 -15 14 -15 20s1 10 6 19zM34 26c11 20 30 59 40 83c6 14 14 21 27 21c9 0 20 -1 35 -20
c6 -8 17 -15 17 -24c0 -8 0 -12 -3 -16c-21 -32 -42 -70 -50 -85l-52 -98c-6 -11 -27 -20 -36 -20c-7 0 -13 2 -20 4s-13 3 -19 3c-7 0 -16 16 -16 22s4 5 13 20c22 37 44 74 64 110z" />
    <glyph glyph-name="dagger" unicode="&#x2020;" horiz-adv-x="570" 
d="M205 56c4 16 15 43 27 84l54 188c5 19 9 32 9 36c0 6 -3 9 -12 9c-48 0 -122 5 -131 10c-4 2 -12 12 -12 60c0 9 5 8 7 11c7 10 10 11 21 11c8 0 6 -1 15 -2l60 -7c10 -1 48 -4 55 -4c12 0 26 1 30 4c3 2 5 6 17 39l32 89c18 50 19 53 25 54c27 4 34 10 50 10
c9 0 16 -1 26 -6c6 -3 9 -5 9 -14c0 -3 4 -2 4 -9c0 -3 0 -9 -1 -13l-12 -40c-7 -23 -19 -17 -41 -77c-4 -11 -6 -17 -6 -21s3 -4 14 -4c31 0 107 14 138 14c13 0 38 -3 38 -28c0 -22 -13 -34 -16 -46c-2 -6 -5 -8 -11 -8c-49 0 -103 -7 -120 -8c-25 -1 -40 -2 -69 -8
c-14 -3 -25 -41 -41 -95c-33 -110 -73 -205 -105 -318c-2 -7 -6 -12 -13 -12c-14 0 -19 7 -21 12c-5 13 -35 12 -35 26c0 6 1 12 3 20c4 16 8 26 12 43z" />
    <glyph glyph-name="daggerdbl" unicode="&#x2021;" horiz-adv-x="570" 
d="M363 304c-10 -33 -13 -48 -13 -52s4 -4 15 -4c61 0 115 9 136 9c20 0 21 0 29 -9c7 -8 10 -12 10 -21c0 -8 -14 -33 -14 -45c0 -6 -5 -8 -11 -8h-25c-40 0 -75 -3 -92 -3c-25 0 -40 -1 -69 -6c-6 -1 -11 -12 -39 -96c-24 -73 -12 -52 -40 -129c-4 -11 -12 -12 -19 -12
c-8 0 -11 2 -15 12c-12 29 -32 -1 -32 36c0 4 3 17 17 61c7 22 8 38 21 79c6 19 8 28 8 32c0 5 -3 8 -13 8h-26c-45 0 -56 6 -99 6c-12 0 -20 5 -20 53c0 9 6 13 7 18c2 11 9 11 20 11c2 0 4 0 15 -1c44 -4 65 -7 113 -7c12 0 26 2 29 5c3 2 6 6 16 40l19 66c5 19 9 32 9 36
c0 6 -3 9 -12 9c-48 0 -122 5 -131 10c-4 2 -12 12 -12 60c0 9 5 8 7 11c7 10 10 11 21 11c8 0 5 -3 27 -5l56 -4c19 -2 40 -4 47 -4c12 0 26 1 30 4c3 2 5 6 17 39l32 89c18 50 21 54 27 54c27 0 26 10 42 10c9 0 16 -1 26 -6c6 -3 9 -5 9 -14c0 -3 3 -2 3 -9
c0 -3 0 -9 -1 -13l-12 -40c-7 -23 -17 -17 -39 -77c-4 -11 -6 -17 -6 -21s3 -4 14 -4c31 0 93 13 124 13c37 0 51 -2 51 -27c0 -22 -13 -34 -16 -46c-2 -6 -5 -8 -11 -8c-49 0 -100 -7 -120 -8c-25 -1 -40 -2 -69 -8c-14 -3 -25 -41 -41 -95z" />
    <glyph glyph-name="bullet" unicode="&#x2022;" horiz-adv-x="490" 
d="M230 14c-30 0 -70 13 -93 31c-37 30 -60 52 -65 108c-1 11 -2 22 -2 32c0 105 98 291 237 291c54 0 92 -10 120 -50c14 -20 33 -30 49 -65c13 -28 16 -44 16 -66c0 -125 -99 -281 -262 -281z" />
    <glyph glyph-name="ellipsis" unicode="&#x2026;" horiz-adv-x="710" 
d="M632 68c0 -22 -14 -48 -29 -65c-4 -4 -20 -9 -37 -9c-19 0 -43 15 -50 35c-2 6 -2 9 -2 15c0 5 -1 11 -1 31c0 13 1 22 4 29c4 10 14 17 19 23c3 4 11 6 22 6c16 0 53 -2 68 -37c5 -11 6 -16 6 -28zM327 130c4 2 12 4 17 4c14 0 40 -1 64 -44c3 -5 3 -8 3 -15
c0 -9 -3 -20 -8 -29c-3 -6 -15 -20 -16 -26c-1 -8 -5 -11 -17 -20c-4 -3 -7 -4 -13 -4c-10 0 -25 3 -37 7c-20 7 -29 21 -32 37c-1 5 -3 10 -3 16c0 4 1 54 42 74zM180 68c0 -28 -13 -65 -29 -65c-5 0 -21 -9 -37 -9c-22 0 -35 13 -50 35c-3 4 -4 9 -4 15c0 8 2 18 3 28
c1 9 13 17 14 27s5 19 10 25c4 5 9 8 37 8c22 0 30 -20 46 -27c7 -3 10 -19 10 -37z" />
    <glyph glyph-name="perthousand" unicode="&#x2030;" horiz-adv-x="1080" 
d="M442 553c0 -62 -22 -130 -65 -182c-23 -28 -50 -52 -91 -52c-56 0 -85 29 -107 59c-17 23 -27 45 -27 73c0 29 12 66 39 119c23 45 69 89 129 89c24 0 46 -15 70 -22c26 -7 52 -36 52 -84zM745 213c0 -67 -21 -119 -57 -175c-18 -28 -49 -51 -104 -51c-20 0 -64 3 -93 36
c-22 25 -36 48 -36 72c0 48 16 87 39 135c15 32 48 70 76 81c15 6 21 7 36 7c14 0 48 -3 70 -11c33 -12 69 -50 69 -94zM1053 207c0 -69 -23 -126 -62 -181c-16 -23 -40 -39 -92 -39c-20 0 -50 1 -87 27c-27 19 -47 57 -47 81c0 48 14 81 37 129c15 32 47 68 73 83
c6 4 25 8 52 8c33 0 26 -10 46 -14c39 -8 80 -50 80 -94zM705 620c0 -25 -1 -27 -9 -30c-4 -1 -8 -3 -15 -11c-17 -20 -28 -21 -37 -33c-118 -155 -187 -294 -304 -474c-39 -60 -70 -96 -77 -96c-16 0 -26 0 -37 8c-12 8 -16 12 -16 26c0 33 5 39 17 45c8 4 16 7 51 63
l280 443c24 37 59 77 71 86c15 11 25 14 32 14c8 0 27 -5 35 -12c6 -5 9 -9 9 -29zM356 585c-25 9 -3 27 -30 27c-12 0 -18 -6 -28 -21c-38 -57 -67 -111 -67 -153c0 -30 5 -66 43 -66c14 0 22 6 37 31c47 79 55 116 55 156c0 11 -1 23 -10 26zM659 251c-9 12 -19 21 -30 21
c-12 0 -19 -7 -28 -21c-42 -65 -66 -118 -66 -166c0 -10 1 -53 40 -53c15 0 28 13 35 28c42 82 59 120 59 159c0 11 -2 22 -10 32zM934 261c-33 0 -89 -117 -89 -167c0 -22 1 -34 6 -43c6 -10 14 -18 36 -18c10 0 31 20 39 38c38 85 51 86 51 128c0 9 -5 33 -13 36
c-21 8 -16 26 -30 26z" />
    <glyph glyph-name="guilsinglleft" unicode="&#x2039;" horiz-adv-x="255" 
d="M106 276c-3 4 -4 14 -4 23c0 8 -2 15 -2 18c0 9 5 20 11 27l77 84c41 45 44 47 52 47c20 0 23 -4 25 -11c2 -9 7 -9 12 -18c4 -7 9 -16 9 -25c0 -8 -2 -14 -42 -45c-26 -20 -38 -36 -55 -49c-4 -3 -6 -8 -6 -13c0 -3 1 -7 3 -12c16 -35 32 -68 37 -74c7 -8 8 -15 8 -29
c0 -8 -1 -19 -3 -22c-9 -13 -16 -20 -37 -20c-5 0 -14 10 -19 22c-3 7 -44 65 -66 97z" />
    <glyph glyph-name="guilsinglright" unicode="&#x203a;" horiz-adv-x="255" 
d="M259 276l-100 -100c-16 -16 -23 -18 -43 -18c-6 0 -18 13 -18 24c0 3 -6 3 -6 10c0 1 0 5 5 11l93 101c5 5 7 9 7 14c0 3 -1 8 -4 12c-7 10 -10 18 -13 26c-4 12 -8 11 -18 33c-5 11 -21 27 -21 34c0 15 14 17 33 41c7 9 19 10 25 10c7 0 11 -1 13 -2c6 -3 8 -5 27 -44
l38 -78c4 -9 4 -16 4 -33c0 -7 -7 -26 -22 -41z" />
    <glyph glyph-name="fraction" unicode="&#x2044;" horiz-adv-x="330" 
d="M492 634c0 -25 -1 -27 -9 -30c-4 -1 -9 -4 -15 -11c-17 -20 -28 -21 -37 -33c-118 -155 -202 -314 -319 -494c-39 -60 -70 -96 -77 -96c-16 0 -22 0 -33 8s-16 12 -16 26c0 33 4 36 11 38c9 3 15 8 51 63l305 470c24 37 61 78 71 86c12 9 25 14 32 14c8 0 19 -5 27 -12
c6 -5 9 -9 9 -29z" />
    <glyph glyph-name="uni2070" unicode="&#x2070;" 
d="M319 597c3 0 4 3 11 3c11 0 24 -5 34 -10c12 -6 26 -15 31 -24c12 -24 17 -51 17 -77c0 -50 -14 -94 -33 -139c-5 -12 -8 -37 -59 -115c-28 -43 -72 -71 -108 -71c-26 0 -85 30 -104 69c-2 4 -11 31 -11 59c0 33 12 89 39 149c27 59 68 110 113 163c6 7 17 8 30 8
c7 0 15 -1 21 -4c7 -3 16 -11 19 -11zM185 221c15 0 49 23 81 81c5 9 14 20 19 32c10 26 52 110 52 169c0 21 -6 40 -21 50c-2 1 -4 2 -6 2c-3 0 -5 -2 -8 -6c-47 -53 -91 -122 -115 -187c-8 -22 -7 -29 -9 -36c-4 -17 -8 -36 -8 -69c0 -2 2 -18 4 -22c3 -5 6 -14 11 -14z
" />
    <glyph glyph-name="uni2074" unicode="&#x2074;" 
d="M246 284c0 2 0 3 -5 3c-39 0 -73 2 -106 15c-22 9 -42 51 -42 57c0 10 1 16 8 24c55 62 125 148 208 219c7 6 13 12 15 15c5 8 12 17 28 17c5 0 12 -1 20 -4c21 -8 28 -18 28 -30c0 -16 -12 -35 -12 -45c0 -9 -2 -22 -6 -36c-3 -11 -21 -68 -33 -112
c-10 -38 -10 -43 -10 -45s1 -3 3 -3s22 6 46 6c15 0 28 -2 37 -11c2 -2 5 -7 7 -11c5 -11 6 -16 6 -20c0 -17 -28 -13 -59 -17c-15 -2 -34 -5 -49 -9c-15 -34 -14 -73 -20 -109c-1 -8 -3 -16 -14 -16c-25 0 -37 11 -52 20c-10 6 -10 14 -10 20s2 20 6 41l4 20c1 5 2 9 2 11z
M285 486c-35 -40 -76 -89 -108 -128c-2 -3 -3 -5 -3 -6c0 -2 4 -5 10 -6c11 -2 28 -2 41 -2c4 0 18 1 28 2c7 1 7 2 8 8c6 36 17 70 30 115c5 17 7 24 7 25s0 3 -1 3c-2 0 -5 -3 -12 -11z" />
    <glyph glyph-name="uni2075" unicode="&#x2075;" 
d="M251 475c17 7 33 9 49 9c32 0 66 -11 86 -40c12 -17 15 -35 15 -55c0 -45 -23 -94 -39 -123c-21 -39 -65 -103 -131 -103c-35 0 -78 19 -127 71c-8 9 -19 20 -19 29c0 4 2 8 7 10c11 5 14 19 34 19c12 0 28 -7 31 -9c23 -14 21 -29 35 -43c20 -20 26 -21 33 -21
c3 0 8 2 16 9c30 26 47 59 61 95c4 10 6 24 11 38c3 8 8 26 8 44c0 10 -2 27 -14 27c-24 0 -61 -28 -85 -52c-6 -6 -13 -10 -23 -10s-23 4 -39 13c-10 6 -14 10 -14 14c0 2 1 5 2 7c22 69 41 137 57 185c3 9 29 24 45 24c15 0 17 -4 20 -4s8 0 21 2c45 8 110 15 125 15
c29 0 61 -28 61 -44c0 -9 -10 -22 -31 -22c-7 0 -18 4 -35 4c-36 0 -108 -9 -135 -17c-7 -2 -8 -4 -9 -8l-14 -44c-4 -13 -5 -16 -5 -18s2 -2 3 -2z" />
    <glyph glyph-name="uni2076" unicode="&#x2076;" 
d="M381 576c-3 0 -6 -2 -11 -6c-56 -45 -95 -96 -126 -150c-4 -7 -5 -10 -5 -12c0 -1 1 -1 2 -1c3 0 14 9 62 21c16 4 20 4 36 4s33 -6 43 -18c13 -16 27 -28 27 -42c0 -3 0 -7 -5 -21c-26 -74 -77 -127 -132 -164c-15 -10 -34 -13 -51 -13c-24 0 -49 6 -69 22
c-11 9 -24 17 -32 25c-13 13 -15 29 -15 43c0 13 3 26 6 35c28 83 77 199 155 267c23 20 58 65 99 65c26 0 50 -18 53 -26c2 -5 3 -9 3 -14c0 -9 -4 -18 -23 -18c-7 0 -14 3 -17 3zM302 356c-48 -15 -91 -48 -99 -66c-12 -26 -19 -28 -19 -43c0 -9 9 -18 15 -18
c5 0 26 5 60 38c24 23 39 47 59 82c3 5 4 7 4 9c0 1 -1 2 -2 2c-3 0 -5 0 -18 -4z" />
    <glyph glyph-name="uni2077" unicode="&#x2077;" 
d="M220 376c-3 0 -43 2 -51 17c-3 6 -7 18 -7 29c0 10 4 19 17 19c4 0 14 -1 22 -4c5 -2 29 -4 33 -4c21 0 28 1 30 3l8 9c44 59 62 81 83 123c3 6 4 9 4 12c0 4 -4 5 -21 5c-56 0 -76 -10 -89 -21c-17 -15 -1 -41 -34 -41c-12 0 -27 2 -37 15s-6 28 -12 40
c-4 8 -4 10 -4 15c0 24 37 30 77 36l38 5c8 1 37 3 65 3c34 0 60 -3 68 -8c5 -3 41 -26 41 -44c0 -24 -17 -43 -30 -63c-11 -17 -32 -44 -41 -55c-12 -15 -14 -18 -14 -19c0 -2 1 -2 4 -2c25 0 41 -4 55 -19c6 -6 8 -12 8 -19c0 -6 -2 -18 -13 -18c-6 0 -14 2 -21 2
c-40 0 -52 -8 -85 -13c-69 -100 -96 -160 -96 -185c0 -5 -3 -12 -8 -12c-6 0 -10 -12 -23 -12c-5 0 -10 0 -18 4s-14 8 -19 14s-15 15 -15 21c0 18 11 48 88 164c0 2 0 3 -3 3z" />
    <glyph glyph-name="uni2078" unicode="&#x2078;" 
d="M211 435c0 10 -1 20 -1 31c0 132 49 186 100 186c15 0 29 -3 46 -9s16 -15 23 -18c35 -15 62 -59 75 -92c4 -10 4 -14 4 -21c0 -18 -10 -36 -28 -45c-50 -25 -100 -51 -136 -66c-7 -3 -8 -6 -8 -10c0 -15 6 -66 6 -115s-6 -100 -33 -104c-7 -1 -12 -4 -22 -4
c-19 0 -32 0 -50 11c-42 25 -96 76 -96 131c0 62 54 79 113 115c6 4 7 5 7 10zM329 588c-18 -12 -27 -28 -34 -48c-5 -17 -8 -43 -8 -63c0 -2 0 -3 2 -3c1 0 3 0 18 8c24 13 50 20 69 35c6 5 9 13 9 21c0 10 -4 20 -11 27c-6 6 -8 7 -10 7s-4 -2 -7 -2c-9 0 -17 7 -20 17
c-1 3 -2 3 -3 3s-2 0 -5 -2zM205 233c1 0 2 1 3 4c5 16 7 37 7 57c0 19 -1 34 -3 52c-1 8 -2 9 -3 9c-2 0 -5 -2 -8 -4c-21 -13 -35 -32 -35 -53c0 -17 6 -29 10 -35s10 -14 19 -23c3 -3 9 -7 10 -7z" />
    <glyph glyph-name="uni2079" unicode="&#x2079;" 
d="M290 388c-1 0 -2 0 -6 -2c-21 -11 -35 -10 -44 -13s-23 -6 -36 -6c-12 0 -25 3 -36 11c-17 12 -22 16 -31 33c-7 13 -16 21 -16 35c0 8 1 15 4 21c41 75 109 100 195 149c7 4 39 17 65 17c10 0 21 -2 26 -7c8 -8 16 -11 28 -20c11 -8 22 -17 22 -24c0 -17 -5 -26 -16 -41
c-4 -5 -7 -11 -9 -16c-23 -62 -57 -104 -80 -176c-17 -53 -40 -103 -47 -155c-1 -7 -15 -20 -33 -20c-6 0 -13 1 -20 6c-22 15 -29 22 -29 30c0 5 3 11 6 19c21 57 44 115 58 156c0 2 0 3 -1 3zM362 563c-74 -35 -125 -59 -167 -117c-5 -7 -7 -10 -7 -13s6 -5 9 -5
c1 0 3 0 9 1c58 10 124 59 158 114c8 13 10 18 10 20c0 3 -1 3 -2 3c-2 0 -5 -1 -10 -3z" />
    <glyph glyph-name="uni2080" unicode="&#x2080;" 
d="M227 254c3 0 4 3 11 3c11 0 24 -5 34 -10c12 -6 26 -15 31 -24c12 -24 17 -51 17 -77c0 -50 -14 -94 -33 -139c-5 -12 -8 -37 -59 -115c-28 -43 -72 -71 -108 -71c-26 0 -85 30 -104 69c-2 4 -11 31 -11 59c0 33 12 89 39 149c27 59 68 110 113 163c6 7 17 8 30 8
c7 0 15 -1 21 -4c7 -3 16 -11 19 -11zM93 -122c15 0 49 23 81 81c5 9 14 20 19 32c10 26 52 110 52 169c0 21 -6 40 -21 50c-2 1 -4 2 -6 2c-3 0 -5 -2 -8 -6c-47 -53 -91 -122 -115 -187c-8 -22 -7 -29 -9 -36c-4 -17 -8 -36 -8 -69c0 -2 2 -18 4 -22c3 -5 6 -14 11 -14z
" />
    <glyph glyph-name="uni2081" unicode="&#x2081;" 
d="M155 -74c18 68 34 124 50 194c0 2 -1 2 -2 2s-3 -2 -7 -7c-120 -148 -141 -153 -147 -163c-2 -4 -12 -7 -22 -7c-8 0 -17 2 -22 7s-12 7 -16 12c-8 9 -11 14 -11 18c0 5 5 10 13 18c21 21 33 28 43 35c7 5 18 14 31 28c43 47 92 104 138 159c21 25 38 52 54 79
c3 5 10 6 18 6c22 0 56 -13 56 -35c0 -3 -1 -6 -2 -9c-45 -113 -69 -235 -99 -355c-3 -11 -7 -26 -7 -43c0 -8 -2 -34 -23 -34c-7 0 -12 -2 -19 -2c-16 0 -30 5 -40 14c-3 3 -4 9 -4 15c0 10 3 22 4 26c3 19 10 27 14 42z" />
    <glyph glyph-name="uni2082" unicode="&#x2082;" 
d="M232 253c-35 0 -62 -37 -77 -57c-6 -8 -15 -14 -19 -23c-5 -12 -11 -14 -20 -15s-14 -3 -17 -3c-15 0 -23 4 -29 10c-9 9 -13 21 -13 32c0 15 13 28 19 36c15 21 38 36 64 52c33 20 52 22 91 22c35 0 82 -44 82 -65c0 -70 -46 -139 -95 -191c-44 -46 -145 -142 -145 -153
c0 -1 1 -2 5 -3c9 -2 33 -2 41 -2c62 0 74 9 86 38c5 12 9 21 12 24c5 5 18 11 32 11c8 0 21 -1 35 -17c3 -3 5 -9 5 -15c0 -27 -20 -71 -25 -77c-15 -18 -47 -23 -131 -23c-53 0 -110 1 -130 17c-21 17 -29 33 -29 48c0 5 8 20 24 37c15 16 37 38 76 77
c25 25 166 164 166 228c0 5 0 12 -8 12z" />
    <glyph glyph-name="uni2083" unicode="&#x2083;" 
d="M210 238c-25 -13 -59 -36 -59 -46c0 -14 -11 -13 -19 -23c-3 -4 -19 -6 -26 -6c-9 0 -18 2 -22 6c-7 7 -17 25 -17 30c0 28 25 39 46 59c5 5 20 6 27 10c18 11 54 33 90 33c13 0 26 -2 37 -10c3 -2 6 -3 9 -4c16 -5 24 -16 27 -22s4 -12 4 -16c0 -9 -3 -16 -7 -25
c-3 -7 -4 -12 -7 -17c-25 -44 -53 -79 -73 -100c63 -13 67 -63 67 -85c0 -27 -12 -61 -26 -90c-25 -52 -60 -107 -132 -107c-59 0 -113 59 -134 84c-6 7 -11 17 -11 25c0 11 5 17 23 17c17 0 21 2 29 2c9 0 16 -3 21 -9c9 -11 24 -20 24 -31c0 -7 23 -29 41 -29
c4 0 6 0 12 4c27 18 43 39 60 77c9 20 19 51 19 58c0 12 -4 20 -8 26c-3 5 -7 6 -12 6s-10 -2 -15 -4c-7 -3 -14 -3 -21 -7c-13 -7 -38 -25 -65 -25c-6 0 -13 1 -19 3c-12 4 -20 20 -20 31c0 4 1 7 3 9c9 8 19 14 30 20c12 7 15 13 18 15c66 44 96 100 112 132c2 4 3 7 3 9
c0 1 -1 2 -2 2s-3 0 -7 -2z" />
    </font>
</defs>
</svg>
